Классический форум-трекер
canvas not supported
Нас вместе: 4 235 225

Коммунист (1957) DVDRip


 
 
RSS
Начать новую тему   Ответить на тему    Торрент-трекер NNM-Club -> Архив торрентов -> Архив Классики кино и Старых фильмов до 90-х
Автор Сообщение
viktor561 ®
Гость
Коммунист (1957) DVDRip
Русское название: Коммунист
Год выпуска: 1957
Жанр: Драма

Описание фильма:
О рядовом коммунисте Василии Губанове, участнике одной из первых советских строек. Фильм, признанный новаторским, — в нем впервые возник не ходульный, но совершенно жизненный, человеческий образ коммуниста…

Режиссер: Юлий Райзман
Актеры: Софья Павлова, Евгений Шутов, Евгений Урбанский, Сергей Яковлев, Валентин Зубков, Евгений Быкадоров, Борис Смирнов, Вадим Гусев, Иван Каширин, Аркадий Смирнов

Продолжительность: 01:45:03



Видеокодек: DivX 4/5/6
Битрейт видео: ~1400Kb/s
Размер кадра: 720x544
Качество видео: DVDRip
Аудиокодек: AC3
Битрейт аудио: 384Kbps
Общее
Полное имя : C:\Kommunist.avi
Формат : AVI
Формат/Информация : Audio Video Interleave
Размер файла : 1,37 Гбайт
Продолжительность : 1 ч. 45 м.
Общий поток : 1864 Кбит/сек
Программа кодирования : VirtualDubMod 1.5.4.1 (build 2178/release)
Библиотека кодирования : VirtualDubMod build 2178/release

Видео
Идентификатор : 0
Формат : MPEG-4 Visual
Параметр BVOP формата : 1
Параметр QPel формата : Нет
Параметр GMC формата : Без точки перехода
Параметр матрицы формата : Default (H.263)
Режим смешивания : Сжатый битовый поток
Идентификатор кодека : DX50
Идентификатор кодека/Подсказка : DivX 5
Продолжительность : 1 ч. 45 м.
Битрейт : 1473 Кбит/сек
Ширина : 720 пикселей
Высота : 544 пикселя
Соотношение сторон : 4:3
Частота кадров : 25,000 кадров/сек
Цветовое пространство : YUV
Субдискретизация насыщенности : 4:2:0
Битовая глубина : 8 бит
Тип развёртки : Прогрессивная
Метод сжатия : С потерями
Бит/(Пиксели*Кадры) : 0.150
Размер потока : 1,08 Гбайт (79%)
Библиотека кодирования : DivX 6.8.0 (UTC 2007-12-04)

Аудио
Идентификатор : 1
Формат : AC-3
Формат/Информация : Audio Coding 3
Расширение режима : CM (complete main)
Идентификатор кодека : 2000
Продолжительность : 1 ч. 45 м.
Вид битрейта : Постоянный
Битрейт : 384 Кбит/сек
Каналы : 2 канала
Расположение каналов : Front: L R
Частота : 48,0 КГц
Битовая глубина : 16 бит
Метод сжатия : С потерями
Размер потока : 289 Мбайт (21%)
Выравнивание : Разделение по промежуткам
Продолжительность промежутка : 96 мс. (2,40 видеокадра)
Время предзагрузки промежутка : 96 мс.
Язык : Russian
Скриншоты:




Время раздачи: 24/7 - круглосуточно до 10 скачавших
[NNM-Club.ru]_kommunist.avi.torrent
 Торрент: Платиновая раздача  Зарегистрирован
 
Скачать


Примагнититься
 Зарегистрирован:   06 Апр 2011 09:37:52
 Размер:   1.37 GB  (
 Рейтинг:   4.7 (Голосов: 66)
 Поблагодарили:   182
 Проверка:   Оформление проверено модератором 06 Апр 2011 10:44:23
Как cкачать  ·  Как раздать  ·  Правильно оформить  ·  Поднять ратио!  
des72
Стаж: 13 лет 6 мес.
Сообщений: 615
Ratio: 13.104
100%
ussr.gif
Сильный блокбастер,в детстве смотрел!
Ro100v
Стаж: 14 лет 2 мес.
Сообщений: 486
Ratio: 2.36
100%
Откуда: Матушка Россия
После гениально сыгранной роли коммуниста Губанова, Е. Урбанского одним из первых советских актёров приглашали сниматься в Голливуде.

viktor561 Спасибо за релиз!
samantasweety
Только чтение
Стаж: 15 лет 3 мес.
Сообщений: 1976
Ratio: 32.055
Поблагодарили: 31
100%
Откуда: наша раша
ussr.gif
Хороший фильм !
ОрловТ
Стаж: 13 лет 8 мес.
Сообщений: 24
Ratio: 15.43
Поблагодарили: 158
100%
Откуда: Тула
russia.gif
Отличный фильм. Спасибо!
barddimm
Стаж: 13 лет 3 мес.
Сообщений: 17
Ratio: 3.244
38.1%
Спасибо, очень хороший качественный фильм. Отличная работа актеров.
Nestor_07
Стаж: 13 лет 3 мес.
Сообщений: 149
Ratio: 3.83
100%
ussr.gif
Мощный фильм!
МУЗБЛЮЗ
Стаж: 14 лет 8 мес.
Сообщений: 113
Ratio: 21.866
100%
russia.gif
Только с такими надежными людьми можно построить сверх ДЕРЖАВУ,не то что сейчас.
alekslu
Стаж: 13 лет 10 мес.
Сообщений: 384
Ratio: 5.997
100%
Откуда: New York
usa.gif
Большое Спасибо!
Давно искал этот фильм.
Раздающему Респект!!!

hammah
Стаж: 13 лет
Сообщений: 201
Ratio: 4.159
100%
russia.gif
Спасибо за раздачу!

Фильм- сильнейший!
Викторов ®
Гость
Реставрация
Код:
[poster=right]http://i.imgur.com/FGT1Lza.jpg[/poster]   
Общее
Полное имя : C:\Kommunist.avi
Формат : AVI
Формат/Информация : Audio Video Interleave
Размер файла : 1,37 Гбайт
Продолжительность : 1 ч. 45 м.
Общий поток : 1864 Кбит/сек
Программа кодирования : VirtualDubMod 1.5.4.1 (build 2178/release)
Библиотека кодирования : VirtualDubMod build 2178/release

Видео
Идентификатор : 0
Формат : MPEG-4 Visual
Параметр BVOP формата : 1
Параметр QPel формата : Нет
Параметр GMC формата : Без точки перехода
Параметр матрицы формата : Default (H.263)
Режим смешивания : Сжатый битовый поток
Идентификатор кодека : DX50
Идентификатор кодека/Подсказка : DivX 5
Продолжительность : 1 ч. 45 м.
Битрейт : 1473 Кбит/сек
Ширина : 720 пикселей
Высота : 544 пикселя
Соотношение сторон : 4:3
Частота кадров : 25,000 кадров/сек
Цветовое пространство : YUV
Субдискретизация насыщенности : 4:2:0
Битовая глубина : 8 бит
Тип развёртки : Прогрессивная
Метод сжатия : С потерями
Бит/(Пиксели*Кадры) : 0.150
Размер потока : 1,08 Гбайт (79%)
Библиотека кодирования : DivX 6.8.0 (UTC 2007-12-04)

Аудио
Идентификатор : 1
Формат : AC-3
Формат/Информация : Audio Coding 3
Расширение режима : CM (complete main)
Идентификатор кодека : 2000
Продолжительность : 1 ч. 45 м.
Вид битрейта : Постоянный
Битрейт : 384 Кбит/сек
Каналы : 2 канала
Расположение каналов : Front: L R
Частота : 48,0 КГц
Битовая глубина : 16 бит
Метод сжатия : С потерями
Размер потока : 289 Мбайт (21%)
Выравнивание : Разделение по промежуткам
Продолжительность промежутка : 96 мс. (2,40 видеокадра)
Время предзагрузки промежутка : 96 мс.
Язык : Russian
Код:
[b]Скриншоты:[/b]
[url=http://i.imgur.com/SGX1DvO.jpg][img]http://i.imgur.com/LxeSD0H.jpg[/img][/url]   [url=http://i.imgur.com/jqYWtw9.jpg][img]http://i.imgur.com/4zW8w8G.jpg[/img][/url]   [url=http://i.imgur.com/qDLqjB6.jpg][img]http://i.imgur.com/3b0p0IY.jpg[/img][/url]   [url=http://i.imgur.com/MshT2uV.jpg][img]http://i.imgur.com/Qho5oKJ.jpg[/img][/url]   [url=http://i.imgur.com/9lrrVhd.jpg][img]http://i.imgur.com/J1EJ7At.jpg[/img][/url]

[url=http://i.imgur.com/BmnWeRI.jpg][img]http://i.imgur.com/BNotp1j.jpg[/img][/url]   [url=http://i.imgur.com/C61uXhf.jpg][img]http://i.imgur.com/b6oW7ku.jpg[/img][/url]   [url=http://i.imgur.com/y96Ceej.jpg][img]http://i.imgur.com/zop9TWD.jpg[/img][/url]   [url=http://i.imgur.com/twI3q6a.jpg][img]http://i.imgur.com/tWcn3Li.jpg[/img][/url]   
Fillini33
Стаж: 12 лет 8 мес.
Сообщений: 39
Ratio: 14.919
100%
ussr.gif
Это единственные люди, которых Америка боится больше, чем атомной бомбы!
Эх,сейчас бы таких коммунистов, и Америка бы обосралась своими же санкциями. У неё бы началась реальная паника. Жаль только, что современные коммунисты это просто дешёвые клоуны(.
Раздающему спасибо!
hammah
Стаж: 13 лет
Сообщений: 201
Ratio: 4.159
100%
russia.gif
Пересмотрел в компании с юным поколением.. Впечатлило в который раз!
Топик был перенесен из форума Старые Отечественные Фильмы (SD) в форум Архив Классики кино и Старых фильмов до 90-х

Причина переноса: Длительное отсутствие сида на протяжении более 6 месяцев.

Исправил релиз - напиши ЛС Alone_Kedr, дав ссылку на релиз.
Если нет ответа 24 часа - нажми на кнопку "Обратить внимание модераторов".
Показать сообщения:   
Начать новую тему   Ответить на тему    Торрент-трекер NNM-Club -> Архив торрентов -> Архив Классики кино и Старых фильмов до 90-х Часовой пояс: GMT + 3
Страница 1 из 1