Классический форум-трекер
canvas not supported
Нас вместе: 4 234 982

Миссия / The Mission (1986) DVD9


 
 
RSS
Начать новую тему   Ответить на тему    Торрент-трекер NNM-Club -> Архив торрентов -> Архив Классики кино и Старых фильмов до 90-х
Автор Сообщение
MamonTSan ®
Uploaders 500+
 
Стаж: 14 лет 3 мес.
Сообщений: 1258
Ratio: 3769.233
Раздал: 935.1 TB
Поблагодарили: 43305
100%
Миссия / The Mission (1986) DVD9
Производство: Великобритания, Франция / Goldcrest Films International, Kingsmere Production, Warner Brosers
Жанр: драма, приключения, история

Режиссер: Роланд Жоффе
Актеры: Роберт Де Ниро, Джереми Айронс, Рэй МакЭнэлли, Айдан Куинн, Шери Лунги, Рональд Пикап, Чак Лоу, Лиам Нисон, Берселио Мойя

Описание:
18 век. Испанский священник-миссионер отец Габриэль пытается со смирением и любовью завоевать доверие индейцев и создать в джунглях христианскую общину. Его помощник - Родриго Мендоса, бывший охотник за рабами-индейцами, давно разочаровавшийся в своей прошлой жизни, через покаяние пришел к истинной вере. Отказ Габриэля и Мендосы подчиниться воле испанского епископа, вступившего в соглашение с португальскими колонизаторами, приводит к кровопролитию...



Возраст: 16+ (зрителям, достигшим 16 лет)
Рейтинг MPAA: PG (рекомендуется присутствие родителей)

Продолжительность: 02:04:55
Качество: DVD
Перевод: Профессиональный многоголосный
Субтитры: Русские
Дополнительные материалы: - Каталог, - Смотрите на DVD, - Создатели и исполнители, - Фотогалерея,

Видео кодек: MPEG-2, 720x480@853x480 NTSC 16:9, 5782 Kbps
Аудио#1: AC3, 6 ch, 448 Kbps - Русский
Аудио#2: AC3, 6 ch, 448 Kbps - Английский

Title: Missiya_DVD9
Size: 7.02 Gb ( 7 356 166,00 KBytes ) - DVD-9
Enabled regions: 1, 2, 3, 4, 5, 6, 7, 8

VTS_01 :
Play Length: 00:00:05
Video: NTSC 4:3 (720x480) VBR

VTS_02 :
Play Length: 00:00:15
Video: NTSC 16:9 (720x480) VBR, Auto Letterboxed
Audio:
Not specified (Dolby AC3, 6 ch)
Not specified (Dolby AC3, 6 ch)
Subtitles:
Not specified

VTS_03 :
Play Length: 00:02:00
Video: NTSC 16:9 (720x480) VBR, Auto Letterboxed
Audio:
Not specified (Dolby AC3, 2 ch)
Not specified (Dolby AC3, 2 ch)
Subtitles:
Not specified

VTS_04 :
Play Length: 00:01:55
Video: NTSC 16:9 (720x480) VBR, Auto Letterboxed
Audio:
Not specified (Dolby AC3, 6 ch)
Not specified (Dolby AC3, 6 ch)
Subtitles:
Not specified

VTS_05 :
Play Length: 02:04:55
Video: NTSC 16:9 (720x480) VBR, Auto Letterboxed
Audio:
Russian (Dolby AC3, 6 ch)
English (Dolby AC3, 6 ch)
Subtitles:
Russian

VTS_06 :
Play Length: 00:02:20
Video: NTSC 16:9 (720x480) VBR, Auto Letterboxed
Audio:
Not specified (Dolby AC3, 2 ch)
Subtitles:
Not specified

VTS_07 :
Play Length: 00:01:32
Video: NTSC 16:9 (720x480) VBR, Auto Letterboxed
Audio:
Not specified (Dolby AC3, 6 ch)
Subtitles:
Not specified

VTS_08 :
Play Length: 00:02:20
Video: NTSC 16:9 (720x480) VBR, Auto Letterboxed
Audio:
Not specified (Dolby AC3, 2 ch)
Subtitles:
Not specified

VTS_09 :
Play Length: 00:02:07
Video: NTSC 4:3 (720x480) VBR
Audio:
Not specified (Dolby AC3, 2 ch)
Subtitles:
Not specified

VTS_10 :
Play Length: 00:01:07
Video: NTSC 16:9 (720x480) VBR, Auto Letterboxed
Audio:
Not specified (Dolby AC3, 2 ch)
Subtitles:
Not specified

VTS_11 :
Play Length: 00:02:01
Video: NTSC 16:9 (720x480) VBR, Auto Letterboxed
Audio:
Not specified (Dolby AC3, 2 ch)
Subtitles:
Not specified

VTS_12 :
Play Length: 00:02:46
Video: NTSC 16:9 (720x480) VBR, Auto Letterboxed
Audio:
Not specified (Dolby AC3, 2 ch)

Общее
Полное имя : M:\Missiya_DVD9\VIDEO_TS\VTS_05_1.VOB
Формат : MPEG-PS
Размер файла : 1024 Мбайт
Продолжительность : 21 м.
Режим общего битрейта : Переменный
Общий поток : 6814 Кбит/сек

Видео
Идентификатор : 224 (0xE0)
Формат : MPEG Video
Версия формата : Version 2
Профиль формата : Main@Main
Параметр BVOP формата : Да
Параметр матрицы формата : Выборочная
Параметр GOP формата : M=3, N=12
Продолжительность : 21 м.
Вид битрейта : Переменный
Битрейт : 5782 Кбит/сек
Максимальный битрейт : 8000 Кбит/сек
Ширина : 720 пикселей
Высота : 480 пикселей
Соотношение сторон : 16:9
Частота кадров : 23,976 кадра/сек
Стандарт вещания : NTSC
Цветовое пространство : YUV
Субдискретизация насыщенности : 4:2:0
Битовая глубина : 8 бит
Тип развёртки : Прогрессивная
Порядок развёртки : 2:3 Pulldown
Метод сжатия : С потерями
Бит/(Пиксели*Кадры) : 0.698
TimeCode_FirstFrame : 01:00:00:11
TimeCode_Source : Group of pictures header
Размер потока : 869 Мбайт (85%)

Аудио #1
Идентификатор : 189 (0xBD)-128 (0x80)
Формат : AC-3
Формат/Информация : Audio Coding 3
Расширение режима : CM (complete main)
Параметр Endianness формата : Big
Режим смешивания : DVD-Video
Продолжительность : 21 м.
Вид битрейта : Постоянный
Битрейт : 448 Кбит/сек
Каналы : 6 каналов
Расположение каналов : Front: L C R, Side: L R, LFE
Частота : 48,0 КГц
Битовая глубина : 16 бит
Метод сжатия : С потерями
Задержка видео : -83 мс.
Размер потока : 67,3 Мбайт (7%)

Аудио #2
Идентификатор : 189 (0xBD)-129 (0x81)
Формат : AC-3
Формат/Информация : Audio Coding 3
Расширение режима : CM (complete main)
Параметр Endianness формата : Big
Режим смешивания : DVD-Video
Продолжительность : 21 м.
Вид битрейта : Постоянный
Битрейт : 448 Кбит/сек
Каналы : 6 каналов
Расположение каналов : Front: L C R, Side: L R, LFE
Частота : 48,0 КГц
Битовая глубина : 16 бит
Метод сжатия : С потерями
Задержка видео : -83 мс.
Размер потока : 67,3 Мбайт (7%)

Текст #1
Идентификатор : 189 (0xBD)-32 (0x20)
Формат : RLE
Формат/Информация : Run-length encoding
Режим смешивания : DVD-Video
Продолжительность : 20 м.
Задержка видео : 15 с.

Текст #2
Идентификатор : 224 (0xE0)-CC3
Формат : EIA-608
Режим смешивания, доп. информация : Muxed in Video #1
Вид битрейта : Постоянный
Размер потока : 0,00 байт (0%)

Меню
Скриншоты:



Все одноименные релизы в Клубе

Время раздачи: 24/7 (по возможности)
[NNM-Club.ru]_Missiya_DVD9.torrent
 Торрент: Платиновая раздача  Зарегистрирован
 
Скачать


 Зарегистрирован:   19 Май 2013 18:40:28
 Размер:   7.02 GB  (
 Рейтинг:   4.6 (Голосов: 19)
 Поблагодарили:   56
 Проверка:   Оформление проверено модератором 20 Май 2013 22:54:44
Как cкачать  ·  Как раздать  ·  Правильно оформить  ·  Поднять ратио!  
megane34
Стаж: 14 лет 6 мес.
Сообщений: 77
Ratio: 9.832
Поблагодарили: 1
100%
ussr.gif
Спасибо !.Пересмотрел на прошлой неделе ,отличное кино жаль такого сейчас не снимают.теперь в почете Нелюди или Сверхлюди
Топик был перенесен из форума Старые Зарубежные Фильмы (DVD) в форум Архив Классики кино и Старых фильмов до 90-х

Причина переноса: На трекере доступна новая версия: Seeder fr.dim last seen: 2021-11-24

Исправил релиз - напиши ЛС Magnit Rus, дав ссылку на релиз.
Если нет ответа 24 часа - нажми на кнопку "Обратить внимание модераторов".
Показать сообщения:   
Начать новую тему   Ответить на тему    Торрент-трекер NNM-Club -> Архив торрентов -> Архив Классики кино и Старых фильмов до 90-х Часовой пояс: GMT + 3
Страница 1 из 1