Классический форум-трекер
canvas not supported
Нас вместе: 4 235 011

Воля Вселенной (1988) TVRip


 
 
RSS
Начать новую тему   Ответить на тему    Торрент-трекер NNM-Club -> Архив торрентов -> Архив Классики кино и Старых фильмов до 90-х
Автор Сообщение
ornellit ®
Стаж: 14 лет 7 мес.
Сообщений: 1776
Ratio: 343.875
Поблагодарили: 105248
100%
ukraine.gif
Воля Вселенной (1988) TVRip
Русское название: Воля Вселенной
Год выпуска: 1988
Жанр: Приключения, Семейный
Выпущено: СССР, Беларусьфильм

Описание фильма:
Как-то один семиклассник нагадал своему однокласснику Диме Коноплеву по «Книге Судьбы», что суждено тому погибнуть в ближайшее воскресенье. Только не сказал от чего. Как не хочется погибать семикласснику в расцвете лет! Тем более что влюблен он в самую прекрасную на свете девушку Лену. А в воскресенье сосед-летчик предлагает мальчику слетать в Ленинград и обратно в пилотской кабине. Дима отправляет прощальное письмо Лене и назло неблагоприятному стечению обстоятельств и «воле Вселенной» принимает мужественное решение…

Режиссер: Дмитрий Михлеев
Актеры: Вячеслав Илющенко, Наталья Гусева, Андрей Бабошкин, Любовь Германова, Сергей Векслер, Александр Денисов, Виктор Ильичёв, Мария Виноградова, Александра Климова, Александр Лабуш, Иван Мацкевич, Валерия Богук, Денис Германов, Игорь Жигалов, Сергей Савчук, Валентин Букин, Елена Данилкина, Оксана Мархелевич

Продолжительность: 01:06:13



Видеокодек: Xvid
Битрейт видео: ~2183 kb/s
Размер кадра: 720 x 544
Качество видео: TVRip
Аудиокодек: MP3, 2 ch
Битрейт аудио: 128 kb/s
Общее
Полное имя : Volja.Vselennoi.1988.XviD.TVRip.avi
Формат : AVI
Формат/Информация : Audio Video Interleave
Размер файла : 1,07 Гбайт
Продолжительность : 1 ч. 6 м.
Общий поток : 2322 Кбит/сек
Программа кодирования : VirtualDubMod 1.5.10.2 (build 2540/release)
Библиотека кодирования : VirtualDubMod build 2540/release

Видео
Идентификатор : 0
Формат : MPEG-4 Visual
Профиль формата : Advanced Simple@L5
Параметр BVOP формата : 1
Параметр QPel формата : Нет
Параметр GMC формата : Без точки перехода
Параметр матрицы формата : Default (H.263)
Идентификатор кодека : XVID
Идентификатор кодека/Подсказка : XviD
Продолжительность : 1 ч. 6 м.
Битрейт : 2184 Кбит/сек
Ширина : 720 пикселей
Высота : 544 пикселя
Соотношение сторон : 4:3
Частота кадров : 25,000 кадров/сек
Цветовое пространство : YUV
Субдискретизация насыщенности : 4:2:0
Битовая глубина : 8 бит
Тип развёртки : Прогрессивная
Метод сжатия : С потерями
Бит/(Пиксели*Кадры) : 0.223
Размер потока : 1,01 Гбайт (94%)
Библиотека кодирования : XviD 1.2.1 (UTC 2008-12-04)

Аудио
Идентификатор : 1
Формат : MPEG Audio
Версия формата : Version 1
Профиль формата : Layer 3
Режим : Joint stereo
Расширение режима : MS Stereo
Идентификатор кодека : 55
Идентификатор кодека/Подсказка : MP3
Продолжительность : 1 ч. 6 м.
Вид битрейта : Постоянный
Битрейт : 128 Кбит/сек
Каналы : 2 канала
Частота : 48,0 КГц
Метод сжатия : С потерями
Размер потока : 60,6 Мбайт (6%)
Выравнивание : Соединение по промежуткам
Продолжительность промежутка : 40 мс. (1,00 видеокадр)
Время предзагрузки промежутка : 504 мс.
Библиотека кодирования : LAME3.98.2UUUUUUUUU
Скриншоты:


Время раздачи: С 13:00 до 21:00 (до 5 скачавших)
Приятного просмотра!
[NNM-Club.ru]_Volja.Vselennoi.1988.XviD.TVRip.avi.torrent
 Торрент: Платиновая раздача  Зарегистрирован
 
Скачать


Примагнититься
 Зарегистрирован:   23 Сен 2012 00:30:49
 Размер:   1.07 GB  (
 Рейтинг:   4.3 (Голосов: 20)
 Поблагодарили:   63
 Проверка:   Оформление проверено модератором 23 Сен 2012 09:08:41
Как cкачать  ·  Как раздать  ·  Правильно оформить  ·  Поднять ратио!  
Топик был перенесен из форума Старые Отечественные Фильмы (SD) в форум Архив Классики кино и Старых фильмов до 90-х

Причина переноса: Длительное отсутствие сида на протяжении более 6 месяцев.

Исправил релиз - напиши ЛС Аlехаndr, дав ссылку на релиз.
Если нет ответа 24 часа - нажми на кнопку "Обратить внимание модераторов".
Показать сообщения:   
Начать новую тему   Ответить на тему    Торрент-трекер NNM-Club -> Архив торрентов -> Архив Классики кино и Старых фильмов до 90-х Часовой пояс: GMT + 3
Страница 1 из 1