Классический форум-трекер
canvas not supported
Нас вместе: 4 234 978

Освобождение - Фильм первый — «Огненная дуга», (1968) DVD5


 
 
RSS
Начать новую тему   Ответить на тему    Торрент-трекер NNM-Club -> Архив торрентов -> Архив Классики кино и Старых фильмов до 90-х
Автор Сообщение
boroda2k7 ®
Релизер
 
Стаж: 17 лет 2 мес.
Сообщений: 832
Ratio: 84.583
Раздал: 43.03 TB
Поблагодарили: 13192
100%
Откуда: Оттуда.
pirates.png
Освобождение / Фильм первый — «Огненная дуга», (1969) DVD5
Год выпуска: 1969
Жанр: Военный, Документальный, Драма

Описание:
Картина рассказывает о Курском сражении июля 1943 года. Съёмки проводились в окрестностях Переяслава-Залесского. Разрешение на проведение съёмок на месте реальных событий так и не было получено. Хотя группа и выезжала в Курск. Проблема заключалась в том, что места былых сражений содержали в себе огромное количество неразорвавшихся бомб и снарядов. Которые могли сдетонировать в любой момент при проведении пиротехнических эффектов.

Режиссер: Юрий Озеров
Актеры:
Н. Олялин (Цветаев), Л. Голубкина (Зоя), Б. Зайденберг (Орлов), С. Никоненко (Сашка), В. Санаев (Лукин), В. Самойлов (Громов), Ю. Каморный (Васильев), В. Носик (Дорожкин), М. Ножкин (Ярцев), В. Коренев (Неустроев), Э. Изотов (Берест), Х. Гизе (Геббельс), Х. Крюгер (Кребс), Ян Энглерт (Янек, Польша), В. Авдюшко (Максимов), И. Озеров (Леонтьев), М. Ульянов (Жуков), В. Давыдов (Рокоссовский), Е. Буренков (Василевский) и др.




Продолжительность: 1:27:54
Качество видео: DVD
Видео кодек: MPEG-2 Video
Размер кадра: 720x576 (4/3)
Битрейт видео:~5500 Kbps
Аудиокодек:
AC3 6 ch, 448 Kbps; AC3 2 ch , 224 Kbps; AC3 1ch, 224 Kbps
Перевод: Оригинальный
IMDB-рейтинг: 8.5/10 (184 votes)
Код: выделить все
Общее
Полное имя                               : dvd1\VTS_02_1.VOB
Формат                                   : MPEG-PS
Размер файла                             : 1024 Мбайт
Продолжительность                        : 21 м. 59 с.
Режим общего битрейта                    : Постоянный
Общий поток                              : 6510 Кбит/сек

Видео
Идентификатор                            : 224 (0xE0)
Формат                                   : MPEG Video
Версия формата                           : Version 2
Профиль формата                          : Main@Main
Настройки формата                        : CustomMatrix / BVOP
Параметр BVOP формата                    : Да
Параметр матрицы формата                 : Выборочная
Параметр GOP формата                     : M=3, N=12
Структура изображения                    : Frame
Продолжительность                        : 21 м. 59 с.
Вид битрейта                             : Постоянный
Битрейт                                  : 5500 Кбит/сек
Ширина                                   : 720 пикселей
Высота                                   : 576 пикселей
Соотношение сторон                       : 4:3
Частота кадров                           : 25,000 кадров/сек
Стандарт вещания                         : PAL
Цветовое пространство                    : YUV
Субдискретизация насыщенности            : 4:2:0
Битовая глубина                          : 8 бит
Тип развёртки                            : Чересстрочная
Порядок развёртки                        : Верхнее поле первое
Метод сжатия                             : С потерями
Бит/(Пиксели*Кадры)                      : 0.530
Временной код первого кадра              : 00:00:00:01
Оригинал временного кода                 : Group of pictures header
GOP, открыто/закрыто                     : Открыто
GOP, открыто/закрыто на первом кадре     : Закрыто
Размер потока                            : 863 Мбайт (84%)

Аудио #1
Идентификатор                            : 189 (0xBD)-128 (0x80)
Формат                                   : AC-3
Формат/Информация                        : Audio Coding 3
Коммерческое название                    : Dolby Digital
Режим смешивания                         : DVD-Video
Продолжительность                        : 21 м. 58 с.
Вид битрейта                             : Постоянный
Битрейт                                  : 448 Кбит/сек
Каналы                                   : 6 каналов
ChannelLayout                            : L R C LFE Ls Rs
Частота                                  : 48,0 КГц
Частота кадров                           : 31,250 кадров/сек (1536 SPF)
Метод сжатия                             : С потерями
Размер потока                            : 70,4 Мбайт (7%)
ServiceKind/String                       : Complete Main

Аудио #2
Идентификатор                            : 189 (0xBD)-129 (0x81)
Формат                                   : AC-3
Формат/Информация                        : Audio Coding 3
Коммерческое название                    : Dolby Digital
Режим смешивания                         : DVD-Video
Продолжительность                        : 21 м. 59 с.
Вид битрейта                             : Постоянный
Битрейт                                  : 224 Кбит/сек
Каналы                                   : 2 канала
ChannelLayout                            : L R
Частота                                  : 48,0 КГц
Частота кадров                           : 31,250 кадров/сек (1536 SPF)
Метод сжатия                             : С потерями
Размер потока                            : 35,2 Мбайт (3%)
ServiceKind/String                       : Complete Main

Аудио #3
Идентификатор                            : 189 (0xBD)-130 (0x82)
Формат                                   : AC-3
Формат/Информация                        : Audio Coding 3
Коммерческое название                    : Dolby Digital
Режим смешивания                         : DVD-Video
Продолжительность                        : 21 м. 59 с.
Вид битрейта                             : Постоянный
Битрейт                                  : 224 Кбит/сек
Каналы                                   : 1 канал
ChannelLayout                            : C
Частота                                  : 48,0 КГц
Частота кадров                           : 31,250 кадров/сек (1536 SPF)
Метод сжатия                             : С потерями
Размер потока                            : 35,2 Мбайт (3%)
ServiceKind/String                       : Complete Main

Меню
Скриншоты




Освобождение - Фильм первый — «Огненная дуга», (1969) DVD5
Освобождение - Фильм второй — «Прорыв»,(1969) DVD5
Освобождение - Фильм третий — «Направление главного удара», (1969) DVD5
Освобождение - Фильм четвертый — «Битва за Берлин», (1971) DVD5
Освобождение - Фильм пятый — «Последний штурм», (1971) DVD5

dvd1.torrent
 Торрент: Платиновая раздача  Зарегистрирован
 
Скачать


Примагнититься
 Зарегистрирован:   11 Май 2020 15:47:56
 Размер:   4.12 GB  (
 Рейтинг:   4.9 (Голосов: 88)
 Поблагодарили:   328
 Проверка:   Оформление проверено модератором 11 Май 2020 15:49:13
Как cкачать  ·  Как раздать  ·  Правильно оформить  ·  Поднять ратио!  

_________________
Anton42
Стаж: 16 лет 4 мес.
Сообщений: 25
Ratio: 5.348
Поблагодарили: 49
1.36%
Спасибо за хороший фильм.
Kaylang
Стаж: 16 лет 6 мес.
Сообщений: 79
Ratio: 1.628
Поблагодарили: 405
100%
ussr.gif
Благодарю!
Алексей08
Стаж: 16 лет 4 мес.
Сообщений: 149
Ratio: 14.13
Поблагодарили: 1000
100%
Откуда: Ленинград
russia.gif
Спасибо!
sanjauzh
Стаж: 14 лет 11 мес.
Сообщений: 15
Ratio: 1.728
100%
ukraine.gif
большое спасибо за фильм!!!!!!!!!
KupYurik
Стаж: 13 лет 7 мес.
Сообщений: 75
Ratio: 68.777
100%
ussr.gif
Впечатляющие площадные съёмки танковых сражений под Прохоровкой!!!
zorohowich
Стаж: 13 лет 7 мес.
Сообщений: 10
Ratio: 0.911
100%
ukraine.gif
Отличное видео. Звук 5.1
fire31
Стаж: 9 лет 6 мес.
Сообщений: 3
100%
лучше б не новую шляпу снимали под тем же названием, а этот перевыпустили в blu-ray издании, так нет ведь, не дождешься от прав-ва. Но встречал один из советских военных чб-фильмов в хд, поищу, что-то с танком связано. картинка очень красивая и звук обадленный. выстрел танка сразу саб напрягает)
azur007
Стаж: 8 лет 8 мес.
Сообщений: 3
Ratio: 2.455
0%
Будут эти фильмы в другом разрешении?
Nils39
Стаж: 7 лет 6 мес.
Сообщений: 1
75%
ussr.gif
Спасибо вам, други, кто откликнулся и раздал мне этот фильм! Не болейте!
Топик был перенесен из форума Старые Отечественные Фильмы (DVD) в форум Архив Классики кино и Старых фильмов до 90-х

Причина переноса: Длительное отсутствие сида.

Исправил релиз - напиши ЛС Alone_Kedr, дав ссылку на релиз.
Если нет ответа 24 часа - нажми на кнопку "Обратить внимание модераторов".
Показать сообщения:   
Начать новую тему   Ответить на тему    Торрент-трекер NNM-Club -> Архив торрентов -> Архив Классики кино и Старых фильмов до 90-х Часовой пояс: GMT + 3
Страница 1 из 1