Классический форум-трекер
canvas not supported
Нас вместе: 4 234 966

Горбун / Le Bossu (1959) DVDRip


 
 
RSS
Начать новую тему   Ответить на тему    Торрент-трекер NNM-Club -> Архив торрентов -> Архив Классики кино и Старых фильмов до 90-х
Автор Сообщение
Николай Анатольевич ®
   
Почетный релизер
Стаж: 14 лет 6 мес.
Сообщений: 46540
Ratio: 9.97
Раздал: 8.745 TB
Поблагодарили: 2676829
100%
estonia.gif
Горбун / Le Bossu (1959) DVDRip
Русское название: Горбун
Оригинальное название: Le Bossu
Год выпуска: 1959
Производство: Франция, Италия, Globe Films International, P.A.C.
Жанр: Боевик, приключения
Перевод:
Перевод 1: Советский дубляж
Перевод 2: Профессиональный (многоголосый, закадровый)
Субтитры: Отсутствуют

Режиссер: Андре Юнебелль
Актеры: Жан Марэ, Бурвиль, Забине Зессельманн, Жан Ле Пулен, Юбер Ноэль, Полетт Дюбо, Эдмон Бошан, Александр Ригно, Поль Камбо, Жорж Дукинг, Анни Андерсон, Франсуа Шометт, Рауль Бийре, Барбара Круз, Клод Карлиез, Розита Фернандез, Ги Делорм, Джульетта Вильно, Пакеретт, Жан Ружери, Эдмонд Тамиз, Алан Нобис, Кристиан Брюкар, Рене Руссель, Жан-Мишель Рузьер, Франсуаз Делдик, Моника Жюст

Описание фильма:
Эта история началась в 1701 году, когда Францией правил «Король-Солнце» Людовик XIV. Шевалье Лагардер спасает от расправы слуг короля незаконнорожденную дочь смертельно раненного принца Филиппа де Невер и скрывается с грудным ребенком от преследования в Испании.
Он и его верный слуга Паскуаль воспитывают девочку Аврору в течение пятнадцати лет. В 1716 году, вернувшись в Париж, шевалье переодевается горбуном, чтобы войти в доверие к высокопоставленным вельможам во дворце короля, ведь его горб приносит счастье.
Благодаря своей хитрости, умению перевоплощаться и острому клинку шпаги, герой разрушает все коварные замыслы врагов и спасает честь семьи своей приемной дочери…


Дата мировой премьеры: 26 ноября 1959
Продолжительность: 01:40:22
Качество видео: DVDRip

Видеокодек: XviD
Битрейт видео: 1553 Кбит/сек
Размер кадра: 688x288
Аудио:
Аудио 1: Русский, 48 kHz, AC3 Dolby Digital, 2/0 (L,R) ch, 192 Кбит/сек /Советский дубляж/
Аудио 2: Русский, 48 kHz, AC3 Dolby Digital, 2/0 (L,R) ch, 192 Кбит/сек /Профессиональный (многоголосый, закадровый)/
  • Фильм занимает 28-е место по посещаемости среди зарубежных лент в советском кинопрокате.
    Историко-приключенческий фильм

    Роман «Горбун» французского писателя Поля Феваля, изданный ещё в 1857 году, переносился на экран около десятка раз за время существования кино. Версия Андре Юнебеля, снятая в 1959 году, пользовалась большой популярностью (второе место по итогам года, а в целом она находится до сих пор в сотне суперкассовых лент за всю историю кинопроката во Франции), также став «самым зрительским» произведением этого режиссёра на его родине. Интересно, что и в СССР, будучи выпущенной только 20 лет спустя, картина Юнебеля привлекла 44,9 млн. человек, почти сравнявшись по результатам с его же «Фантомасом», более пародийным по своей сути.

    Вообще-то Андре Юнебель на протяжении тридцатилетней карьеры в кино испытывал наибольший интерес именно к этим двум жанрам — комедийному и историко-приключенческому. Ранее он уже обращался к экранизации «Трёх мушкетёров» Александра Дюма, а после «Горбуна» снял подряд ещё три авантюрных фильма на материале минувших времён — «Капитан», «Чудо волков» (в советском прокате — «Тайна Бургундского двора») и «Парижские тайны». Причём во всех четырёх упомянутых лентах главные роли сыграл Жан Маре, оказавшийся кумиром для многих поклонников именно как «маэстро плаща и шпаги».

    В «Горбуне», действие которого происходит в блестящую эпоху короля Людовика XIV, этот актёр исполнил роль благородного дворянина Анри де Лагардера, ставшего случайным свидетелем убийства Филиппом де Гонзагом своего кузена, герцога Филиппа де Невера. Поклявшись отомстить за герцога и позаботиться о его дочери Авроре, романтический герой принимает в целях конспирации облик горбуна и совершает дерзкие поступки, отстаивая честь и справедливость. И Маре в качестве де Лагардера нет равных ни во владении шпагой, ни собственным натренированным телом (исполнителю во время съёмок было уже 45 лет!) — он выходит победителем даже в безнадёжных ситуациях, распутывая хитросплетения придворных интриг. А комедийный актёр Бурвиль, сыграв Паспуаля, верного спутника Анри де Лагардера, вносит дополнительные юмористические краски в этот приключенческий сюжет.

    1992/2006
Код:
Общее
Полное имя                               : F:\Раздачи\Раздачи Видео\Горбун (1959) DVDRip.avi
Формат                                   : AVI
Формат/Информация                        : Audio Video Interleave
Размер файла                             : 1,37 Гбайт
Продолжительность                        : 1 ч. 40 м.
Общий поток                              : 1951 Кбит/сек
Программа кодирования                    : FairUse Wizard
Библиотека кодирования                   : The best and REALLY easy backup tool

Видео
Идентификатор                            : 0
Формат                                   : MPEG-4 Visual
Параметр BVOP формата                    : 1
Параметр QPel формата                    : Нет
Параметр GMC формата                     : Без точки перехода
Параметр матрицы формата                 : Default (H.263)
Режим смешивания                         : Сжатый битовый поток
Идентификатор кодека                     : DX50
Идентификатор кодека/Подсказка           : DivX 5
Продолжительность                        : 1 ч. 40 м.
Битрейт                                  : 1553 Кбит/сек
Ширина                                   : 688 пикселей
Высота                                   : 288 пикселей
Соотношение сторон                       : 2,40:1
Частота кадров                           : 25,000 кадров/сек
Цветовое пространство                    : YUV
Субдискретизация насыщенности            : 4:2:0
Битовая глубина                          : 8 бит
Тип развёртки                            : Прогрессивная
Метод сжатия                             : С потерями
Бит/(Пиксели*Кадры)                      : 0.313
Размер потока                            : 1,09 Гбайт (80%)
Библиотека кодирования                   : DivX 6.8.3-6.8.4 (UTC 2008-06-07)

Аудио #1
Идентификатор                            : 1
Формат                                   : AC-3
Формат/Информация                        : Audio Coding 3
Профиль формата                          : Dolby Digital
Расширение режима                        : CM (complete main)
Параметр Endianness формата              : Big
Идентификатор кодека                     : 2000
Продолжительность                        : 1 ч. 40 м.
Вид битрейта                             : Постоянный
Битрейт                                  : 192 Кбит/сек
Каналы                                   : 2 канала
Расположение каналов                     : Front: L R
Частота                                  : 48,0 КГц
Битовая глубина                          : 16 бит
Метод сжатия                             : С потерями
Размер потока                            : 138 Мбайт (10%)
Выравнивание                             : Разделение по промежуткам
Продолжительность промежутка             : 40  мс. (1,00 видеокадр)
Время предзагрузки промежутка            : 500  мс.

Аудио #2
Идентификатор                            : 2
Формат                                   : AC-3
Формат/Информация                        : Audio Coding 3
Профиль формата                          : Dolby Digital
Расширение режима                        : CM (complete main)
Параметр Endianness формата              : Big
Идентификатор кодека                     : 2000
Продолжительность                        : 1 ч. 40 м.
Вид битрейта                             : Постоянный
Битрейт                                  : 192 Кбит/сек
Каналы                                   : 2 канала
Расположение каналов                     : Front: L R
Частота                                  : 48,0 КГц
Битовая глубина                          : 16 бит
Метод сжатия                             : С потерями
Размер потока                            : 138 Мбайт (10%)
Выравнивание                             : Разделение по промежуткам
Продолжительность промежутка             : 40  мс. (1,00 видеокадр)
Время предзагрузки промежутка            : 500  мс.
Скриншоты:


Время раздачи: 9.00 - 23.00 (по мере возможности...)
[NNM-Club.ru]_Gorbun (1959) DVDRip.avi.torrent
 Торрент: Платиновая раздача  Зарегистрирован
 
Скачать


Примагнититься
 Зарегистрирован:   15 Май 2012 17:01:18
 Размер:   1.37 GB  (
 Рейтинг:   4.8 (Голосов: 60)
 Поблагодарили:   186
 Проверка:   Оформление проверено модератором 15 Май 2012 19:18:49
Как cкачать  ·  Как раздать  ·  Правильно оформить  ·  Поднять ратио!  
Топик был перенесен из форума Зарубежная Классика (SD) в форум Архив Классики кино и Старых фильмов до 90-х

Причина переноса: Длительное отсутствие сида на протяжении более 6 месяцев.

Исправил релиз - напиши ЛС Alone_Kedr, дав ссылку на релиз.
Если нет ответа 24 часа - нажми на кнопку "Обратить внимание модераторов".
Показать сообщения:   
Начать новую тему   Ответить на тему    Торрент-трекер NNM-Club -> Архив торрентов -> Архив Классики кино и Старых фильмов до 90-х Часовой пояс: GMT + 3
Страница 1 из 1