Классический форум-трекер
canvas not supported
Нас вместе: 4 151 218

Среди песков Древнего Египта. /Egypt Detectives/ (2004) TVRip


 
 
RSS
Начать новую тему   Ответить на тему    Торрент-трекер NNM-Club -> Документалистика и Телепередачи -> История
Автор Сообщение
Desperado2000 ®
Стаж: 13 лет 10 мес.
Сообщений: 38
Ratio: 305.367
Поблагодарили: 1014
100%
Откуда: Москва
russia.gif
Среди песков Древнего Египта. /Egypt Detectives/ (2004) TVRip
Жанр: Документальный, история

Описание:
Цивилизации Древнего Египта посвящено множество книг, статей, фильмов. Мы знаем, каким было египетское общество во времена своего расцвета, и знаем, чем все завершилось. Но как все начиналось?
В фильме - рассказ о том, как зарождалась цивилизация Древнего Египта, о тайнах пирамид и фараонов, об удивительных находках археологов.

Продолжительность: 6 х 23 мин.
Видеокодек: DivX 5
Битрейт видео: 1300 kbps avg
Размер кадра: 512x384
Качество видео: TVRip
Аудиокодек: MP3
Битрейт аудио: 64 kbps, mono
Перевод: Профессиональный

1. Тайна первых египтян / The Mystery of The First Egyptians
О том, как были заложены основы великой цивилизации. Происхождение египетского народа и его культуры исследуют ученые. Они выяснили, что шесть тысяч лет назад, то есть за тысячу лет до строительства пирамид, в долине Нила жили люди.

2. Тайна пирамид / The Mystery of The Pyramids
Пять тысяч лет назад египтяне создали нечто удивительное - пирамиду. На протяжении ста лет они строили пирамиды. Однажды все строительство было перенесено в совершенно новое место.

3. Тайна статуи фараона / The Mystery of The Pharaoh's Stone
Недалеко от величественных пирамид Гизы археологи обнаружили прекрасно сохранившуюся статую фараона Хефрена. Она сделана из цельного камня, который был привезен издалека. Каким образом египтянам удалось доставить в Гизу массивный камень?

4. Тайна фараона-реформатора / The Mystery of Rebel Pharaoh
Самый загадочный из древнеегипетских фараонов - Эхнатон. Он совершил невероятное, отказавшись от религии своих предков, закрыв храмы и начав грандиозное строительство новой столицы посреди пустыни. Что им руководило?

5. Тайна сокровищ Тутанхамона / The Mystery of Tutankhamun's Treasure
Находка гробницы Тутанхамона стала крупнейшим событием в египетской археологии ХХ столетия. Ее сокровища стали главной достопримечательностью Каирского музея. Недавнее открытие археологов в корне меняет представления о жизни и смерти фараона, ведь 80 процентов вещей, найденных в гробнице, не имеют к Тутанхамону никакого отношения. Почему его похоронили с чужими сокровищами?

6. Тайна мумий животных / The Mystery of The Animal Mummies
Три тысячелетия египтяне мумифицировали своих усопших перед захоронением, причем не только людей. В лабиринтах под пирамидами египтяне создали мир, заполненный мумиями животных. Почему они поступали с умершими животными, как с людьми?
Код: выделить все
General
Complete name                            : Среди песков Древнего Египта\Среди песков Древнего Египта. 1. Тайна первых египтян.avi
Format                                   : AVI
Format/Info                              : Audio Video Interleave
File size                                : 235 MiB
Duration                                 : 23mn 34s
Overall bit rate                         : 1 392 Kbps
Writing application                      : VirtualDubMod 1.5.10.2 (build 2542/release)
Writing library                          : VirtualDubMod build 2542/release

Video
ID                                       : 0
Format                                   : MPEG-4 Visual
Format settings, BVOP                    : No
Format settings, QPel                    : No
Format settings, GMC                     : No warppoints
Format settings, Matrix                  : Default (H.263)
Codec ID                                 : DX50
Codec ID/Hint                            : DivX 5
Duration                                 : 23mn 34s
Bit rate                                 : 1 319 Kbps
Width                                    : 512 pixels
Height                                   : 384 pixels
Display aspect ratio                     : 5:4
Original display aspect ratio            : 4:3
Frame rate                               : 25.000 fps
Color space                              : YUV
Chroma subsampling                       : 4:2:0
Bit depth                                : 8 bits
Scan type                                : Progressive
Compression mode                         : Lossy
Bits/(Pixel*Frame)                       : 0.268
Stream size                              : 222 MiB (95%)
Writing library                          : DivX 5.2.1 (DrDivX 106) (UTC 2004-09-08)

Audio
ID                                       : 1
Format                                   : MPEG Audio
Format version                           : Version 1
Format profile                           : Layer 3
Codec ID                                 : 55
Codec ID/Hint                            : MP3
Duration                                 : 23mn 34s
Bit rate mode                            : Constant
Bit rate                                 : 64.0 Kbps
Channel(s)                               : 1 channel
Sampling rate                            : 48.0 KHz
Compression mode                         : Lossy
Stream size                              : 10.8 MiB (5%)
Alignment                                : Split accross interleaves
Interleave, duration                     : 40 ms (1.00 video frame)
Interleave, preload duration             : 500 ms
ED.torrent
 Торрент: Платиновая раздача  Зарегистрирован
 
Скачать


 Зарегистрирован:   19 Июл 2007 21:01:45
 Размер:   1.36 GB  (
 Рейтинг:   4.8 (Голосов: 32)
 Поблагодарили:   180
 Проверка:   Оформление проверено модератором 20 Июл 2007 04:30:56
Как cкачать  ·  Как раздать  ·  Правильно оформить  ·  Поднять ратио!  
alexfisher
Стаж: 14 лет 6 мес.
Сообщений: 13
Ratio: 6.522
0.93%
Нельзя ли сидера вернуть на место ненадолго?
Kalex
Администратор
Стаж: 13 лет 8 мес.
Сообщений: 37616
Ratio: 133.997
Поблагодарили: 14046
100%
nnm-club.gif
alexfisher
Отправьте нескольким скачавшим просьбу в личку, может откликнутся.

_________________
NNMClub и IPv6/Teredo
... если преступников недостаточно, их надо создавать. Кому нужна нация, состоящая сплошь из законопослушных граждан? Какая от нее польза? А вот издайте законы, которые нельзя ни соблюдать, ни проводить в жизнь, ни объективно трактовать, и вы получите нацию нарушителей, а значит, сможете заработать на преступлениях... /Айн Рэнд, «Атлант расправил плечи»/
Sergey2008g
Стаж: 13 лет 4 мес.
Сообщений: 4
Ratio: 1.444
ukraine.gif
У кого есть - дайте докачать, пожалуйста.
Dimch
Стаж: 14 лет
Сообщений: 2
Ratio: 2.236
0%
russia.gif
пожалуйте вам, качайте на здоровье!
Sergey2008g
Стаж: 13 лет 4 мес.
Сообщений: 4
Ratio: 1.444
ukraine.gif
Dimch
БОЛЬШОЕ СПАСИБО
pollis
Стаж: 13 лет 9 мес.
Сообщений: 5
Ratio: 2.292
16%
как фильм, стоит качать?
TV-Time
Стаж: 13 лет 4 мес.
Сообщений: 863
Ratio: 115.16
Поблагодарили: 3648
100%
nnm-club.gif
вернитесь на роздачу плиз!
Joker152
Стаж: 10 лет 5 мес.
Сообщений: 21
Ratio: 1.158
Поблагодарили: 11
45.65%
Откуда: Нижний Новгород
russia.gif
Ау, народ! Встаньте кто нибудь на раздачу...
angelmetal
Стаж: 9 лет 11 мес.
Сообщений: 1
Ratio: 5.978
5.26%
Народ!!! ОООчень нужно!!! Вернитесь на раздачу, плиииз!!!
Показать сообщения:   
Начать новую тему   Ответить на тему    Торрент-трекер NNM-Club -> Документалистика и Телепередачи -> История Часовой пояс: GMT + 3
Страница 1 из 1