Классический форум-трекер
canvas not supported
Нас вместе: 4 216 502

Заражение / Contagion (2011) HDRip


 
 
RSS
Начать новую тему   Ответить на тему    Торрент-трекер NNM-Club -> Зарубежное кино -> Зарубежные Фильмы (SD)
Автор Сообщение
GIU ®
Uploader 100+
Стаж: 12 лет 8 мес.
Сообщений: 3474
Ratio: 4669.905
Поблагодарили: 775360
100%
ussr.gif
Заражение / Contagion (2011) HDRip
«Скоро мир будет инфицирован.»

Русское название: Заражение
Оригинальное название: Contagion
Год выпуска: 2011
Производство: США, ОАЭ | Warner Bros. Pictures, Participant Media, Imagenation Abu Dhabi FZ
Жанр: Триллер, Драма
Перевод: Дублированный [Лицензия]
Субтитры: Отсутствуют

Дата мировой премьеры: 3 сентября 2011
Дата российской премьеры: 13 октября 2011, «Каро-Премьер»
Дата выхода DVD релиза: 26 января 2012, «CP-Digital»
Режиссер: Стивен Содерберг
Продюсер: Грегори Джейкобс, Майкл Шамберг, Стейси Шер
Актеры: Мэтт Дэймон, Марион Котийяр, Джуд Лоу, Гвинет Пэлтроу, Кейт Уинслет, Дженнифер Эль, Лоренс Фишбёрн, Брайан Крэнстон, Джон Хоукс, Санаа Лэтэн, Тинг Яу Цуй, Джози Хо, Дарья Строкоус, Моника Карнен, Гриффин Кэйн и др
Роли дублировали: Рамиля Искандер, Борис Шувалов, Алексей Рязанцев, Василий Дахненко, Людмила Шувалова, Марианна Шульц, Татьяна Шитова, Елена Борзунова, Станислав Стрелков и др
Описание фильма:
Международная организация врачей совместно с Центром по контролю и профилактике заболеваний США пытается помешать распространению смертельного вируса.



Продолжительность: 01:46:25
Качество видео: HDRip [Рип с BDRip 1080p]

Видеокодек: Xvid
Битрейт видео: ~ 1501 Кбит/сек
Размер кадра: 720 x 400 (1.778) at 23.976 fps
Аудиокодек: AC3 5.1
Битрейт аудио: 448 Кбит/сек, , 48,0 КГц
Сэмпл: Скачать

Заражение / Contagion (2011) [720p] BDRip
Заражение / Contagion (2011) [1080p] BDRip
Полное имя : H:\Заражение Contagion.2011.BDRip.1080p.x264.DTS-HDChina\Zarazhenie.2011.D.HDRip.1.45Gb.NNM-Club.avi
Формат : AVI
Формат/Информация : Audio Video Interleave
Размер файла : 1,46 Гбайт
Продолжительность : 1 ч. 46 м.
Общий поток : 1958 Кбит/сек
Программа кодирования : VirtualDubModRus 1.5.10.2 (build 2542/release)
Библиотека кодирования : VirtualDubMod build 2542/release

Видео
Идентификатор : 0
Формат : MPEG-4 Visual
Профиль формата : Advanced Simple@L5
Параметр BVOP формата : 1
Параметр QPel формата : Нет
Параметр GMC формата : Без точки перехода
Параметр матрицы формата : Default (MPEG)
Идентификатор кодека : XVID
Идентификатор кодека/Подсказка : XviD
Продолжительность : 1 ч. 46 м.
Битрейт : 1501 Кбит/сек
Ширина : 720 пикс.
Высота : 400 пикс.
Соотношение сторон : 16:9
Частота кадров : 23,976 кадр/сек
Цветовое пространство : YUV
Подвыборка цветности : 4:2:0
Битовая глубина : 8 бит
Тип развёртки : Прогрессивная
Метод сжатия : С потерями
Бит/(Пиксели*Кадры) : 0.217
Размер потока : 1,12 Гбайт (77%)
Библиотека кодирования : XviD 64

Аудио
Идентификатор : 1
Формат : AC-3
Формат/Информация : Audio Coding 3
Расширение режима : CM (complete main)
Идентификатор кодека : 2000
Продолжительность : 1 ч. 46 м.
Вид битрейта : Постоянный
Битрейт : 448 Кбит/сек
Каналы : 6 каналов
Расположение каналов : Front: L C R, Side: L R, LFE
Частота : 48,0 КГц
Битовая глубина : 16 бит
Метод сжатия : С потерями
Задержка видео : 14 мс.
Размер потока : 341 Мбайт (23%)
Выравнивание : Разделение по промежуткам
Продолжительность промежутка : 42 мс. (1,00 видеокадр)
Время предзагрузки промежутка : 500 ms

Скриншоты:


Время раздачи: 24/7 (до 10 скачавших)
Zarazhenie.2011.D.HDRip.1.45Gb.NNM-Club.avi.torrent
 Торрент: Платиновая раздача  Зарегистрирован
 
Скачать


Примагнититься
 Зарегистрирован:   20 Дек 2011 19:47:35
 Размер:   1.46 GB  (
 Рейтинг:   4.6 (Голосов: 102)
 Поблагодарили:   563
 Проверка:   Оформление проверено модератором 21 Дек 2011 05:54:55
Как cкачать  ·  Как раздать  ·  Правильно оформить  ·  Поднять ратио!  
bombardir2705
Стаж: 11 лет 8 мес.
Сообщений: 356
Ratio: 23.637
Поблагодарили: 1
100%
ussr.gif
спасибо большое
Don10
Стаж: 12 лет 2 мес.
Сообщений: 6
Ratio: 5.401
25%
наконец то дождался! Спасибо огромное!
BrooTForce
Стаж: 15 лет 8 мес.
Сообщений: 277
Ratio: 1.477
46.32%
russia.gif
Джуди прям из Перми, ядрёныть
kmk
Стаж: 15 лет 3 мес.
Сообщений: 2049
Ratio: 14.492
Поблагодарили: 17684
100%
poland.gif
BrooTForce писал(а): Перейти к сообщению
Джуди прям из Перми, ядрёныть

Нееееее, во всем татары виноваты. На первом месте Казань. :лол:
Кроме шуток, качать не буду, ибо фильмов с таким сюжетом уже миллион. Все предсказуемо и неинтересно.
Sirin_K
Стаж: 14 лет 10 мес.
Сообщений: 29
Ratio: 6.396
100%
russia.gif
Так-то кинцо смотрибельное, но сцена на 13 минуте явно лишняя
kipatron
Стаж: 13 лет
Сообщений: 149
Ratio: 2.016
Поблагодарили: 868
100%
Откуда: Northern Venice
ussr.gif
Убил время...
333777
Стаж: 11 лет 8 мес.
Сообщений: 90
Ratio: 26.165
0%
russia.gif
Смотреть можно, тема есть, но снято прижимисто, не хватает масштабности, сцен. Например как 2012.
zlonix
Стаж: 13 лет 1 мес.
Сообщений: 56
Ratio: 11.051
100%
russia.gif
Филиал ТВ3 с вышедшими из моды голливудскими звездами =) (зомби, моря крови, гор мертвых людей, драйва, насилия, пострелушек, компьютерной графики, ощущения масштабности действия нет. Милы Йовович тоже нет. Совсем нет) Есть много пробирок, разговоров, непонятных терминов и драмы. Смотреть ну только сооовсем от нечего делать =)
Fluffy8000
Стаж: 12 лет 2 мес.
Сообщений: 219
Ratio: 75.383
100%
Откуда: Барнаул
Можно посмотреть разок,спасибо.
habs
Стаж: 12 лет 5 мес.
Сообщений: 50
Ratio: 14.121
100%
ukraine.gif
Хоть и не очень люблю такие фильмы, но этот понравился. можно смотреть - не треш!

_________________
Правосудия у нас нет. Его функции успешно выполняет медицина.
USV01
Стаж: 11 лет 1 мес.
Сообщений: 33
Ratio: 2.328
100%
zlonix писал(а): Перейти к сообщению
Филиал ТВ3 с вышедшими из моды голливудскими звездами =) (зомби, моря крови, гор мертвых людей, драйва, насилия, пострелушек, компьютерной графики, ощущения масштабности действия нет. Милы Йовович тоже нет. Совсем нет) Есть много пробирок, разговоров, непонятных терминов и драмы. Смотреть ну только сооовсем от нечего делать =)


А что ещё смотреть сидя на карантине?
янь
Стаж: 13 лет 11 мес.
Сообщений: 42
Ratio: 0.419
100%
russia.gif
Качну. Говорят актуальный на сегодня фильм. Кто бы мог подумать..
hmelkov
Стаж: 13 лет 10 мес.
Сообщений: 5
Ratio: 1.288
100%
russia.gif
Наконец-то все понятно
Показать сообщения:   
Начать новую тему   Ответить на тему    Торрент-трекер NNM-Club -> Зарубежное кино -> Зарубежные Фильмы (SD) Часовой пояс: GMT + 3
Страница 1 из 1