Классический форум-трекер
canvas not supported
Нас вместе: 4 216 205

Заражение / Contagion (2011) BDRip [H.264/720p]


 
 
RSS
Начать новую тему   Ответить на тему    Торрент-трекер NNM-Club -> Архив торрентов -> Архив Видео
Автор Сообщение
GIU ®
Uploader 100+
Стаж: 12 лет 8 мес.
Сообщений: 3474
Ratio: 4669.905
Поблагодарили: 775343
100%
ussr.gif
Заражение / Contagion (2011) BDRip [H.264/720p]
«Скоро мир будет инфицирован.»

Производство: США, ОАЭ | Warner Bros. Pictures, Participant Media, Imagenation Abu Dhabi FZ
Жанр: Триллер, Драма
Перевод: Дублированный [Лицензия]
Язык субтитров: Английский

Режиссер: Стивен Содерберг
Актеры: Мэтт Дэймон, Марион Котийяр, Джуд Лоу, Гвинет Пэлтроу, Кейт Уинслет, Дженнифер Эль, Лоренс Фишбёрн, Брайан Крэнстон, Джон Хоукс, Санаа Лэтэн и др
Роли дублировали: Рамиля Искандер, Борис Шувалов, Алексей Рязанцев, Василий Дахненко, Людмила Шувалова

Описание:
Международная организация врачей совместно с Центром по контролю и профилактике заболеваний США пытается помешать распространению смертельного вируса.



Дата мировой премьеры: 3 сентября 2011
Дата российской премьеры: 13 октября 2011, «Каро-Премьер»
Дата выхода DVD релиза: 26 января 2012, «CP-Digital»

Продолжительность: 01:46:25
Качество видео: BDRip 720p

Видеокодек: MPEG-4 AVC/H.264
Битрейт видео: ~4370 Кбит/сек
Размер кадра: 1280 x 720 (1.778) at 23.976 fps
Аудиокодек: AC3 5.1 | DTS
Aудио #1: AC-3 448 Кбит/сек, , 48,0 КГц [Русский]
Aудио #1: DTS 1510 Кбит/сек, , 48,0 КГц [Английский]
Сэмпл: Ссылка

Заражение / Contagion (2011) HDRip 1.45Gb
Заражение / Contagion (2011) [1080p] BDRip
Полное имя : E:\Заражение Contagion (2011BDRip 720p)\Zarajenie.2011.D.BDRip.720p.NNM-Club.mkv
Формат : Matroska
Размер файла : 4,70 Гбайт
Продолжительность : 1 ч. 46 м.
Общий поток : 6326 Кбит/сек
Название фильма : Contagion.BDRip.720p.UnionGang.tv
Дата кодирования : UTC 2011-12-20 11:45:04
Программа кодирования : mkvmerge v4.9.1 ('Ich will') сборка от Jul 11 2011 23:53:15
Библиотека кодирования : libebml v1.2.1 + libmatroska v1.1.1

Видео
Идентификатор : 1
Формат : AVC
Формат/Информация : Advanced Video Codec
Профиль формата : High@L4.1
Параметр CABAC формата : Да
Параметр ReFrames формата : 5 кадров
Режим смешивания : Header stripping
Идентификатор кодека : V_MPEG4/ISO/AVC
Продолжительность : 1 ч. 46 м.
Битрейт : 4370 Кбит/сек
Ширина : 1280 пикс.
Высота : 720 пикс.
Соотношение сторон : 16:9
Частота кадров : 23,976 кадр/сек
Цветовое пространство : YUV
Подвыборка цветности : 4:2:0
Битовая глубина : 8 бит
Тип развёртки : Прогрессивная
Бит/(Пиксели*Кадры) : 0.198
Размер потока : 3,15 Гбайт (67%)
Заголовок : Contagion.BDRip.720p.UnionGang.tv
Библиотека кодирования : x264 core 120 r2120 0c7dab9
Настройки программы : cabac=1 / ref=5 / deblock=1:0:0 / analyse=0x3:0x113 / me=umh / subme=8 / psy=1 / psy_rd=1.00:0.00 / mixed_ref=1 / me_range=16 / chroma_me=1 / trellis=1 / 8x8dct=1 / cqm=0 / deadzone=21,11 / fast_pskip=1 / chroma_qp_offset=-2 / threads=12 / sliced_threads=0 / nr=0 / decimate=1 / interlaced=0 / bluray_compat=0 / constrained_intra=0 / bframes=3 / b_pyramid=2 / b_adapt=2 / b_bias=0 / direct=3 / weightb=1 / open_gop=0 / weightp=2 / keyint=240 / keyint_min=24 / scenecut=40 / intra_refresh=0 / rc_lookahead=50 / rc=2pass / mbtree=1 / bitrate=4370 / ratetol=1.0 / qcomp=0.60 / qpmin=0 / qpmax=69 / qpstep=4 / cplxblur=20.0 / qblur=0.5 / ip_ratio=1.40 / aq=1:1.00
Язык : English

Аудио #1
Идентификатор : 2
Формат : AC-3
Формат/Информация : Audio Coding 3
Расширение режима : CM (complete main)
Режим смешивания : Header stripping
Идентификатор кодека : A_AC3
Продолжительность : 1 ч. 46 м.
Вид битрейта : Постоянный
Битрейт : 448 Кбит/сек
Каналы : 6 каналов
Расположение каналов : Front: L C R, Side: L R, LFE
Частота : 48,0 КГц
Битовая глубина : 16 бит
Метод сжатия : С потерями
Задержка видео : 14 мс.
Размер потока : 341 Мбайт (7%)

Аудио #2
Идентификатор : 3
Формат : DTS
Формат/Информация : Digital Theater Systems
Режим смешивания : Header stripping
Идентификатор кодека : A_DTS
Продолжительность : 1 ч. 46 м.
Вид битрейта : Постоянный
Битрейт : 1510 Кбит/сек
Каналы : 6 каналов
Расположение каналов : Front: L C R, Side: L R, LFE
Частота : 48,0 КГц
Битовая глубина : 24 бит
Метод сжатия : С потерями
Размер потока : 1,12 Гбайт (24%)
Язык : English

Текст
Идентификатор : 4
Формат : UTF-8
Идентификатор кодека : S_TEXT/UTF8
Идентификатор кодека/Информация : UTF-8 Plain Text
Язык : English

Меню
00:00:00.000 : en:00:00:00.000
00:04:33.356 : en:00:04:33.356
00:07:26.780 : en:00:07:26.780
00:11:08.960 : en:00:11:08.960
00:14:20.818 : en:00:14:20.818
00:16:01.043 : en:00:16:01.043
00:17:44.814 : en:00:17:44.814
00:20:15.464 : en:00:20:15.464
00:22:23.634 : en:00:22:23.634
00:24:11.909 : en:00:24:11.909
00:26:55.781 : en:00:26:55.781
00:30:31.997 : en:00:30:31.997
00:34:17.097 : en:00:34:17.097
00:36:35.026 : en:00:36:35.026
00:38:40.735 : en:00:38:40.735
00:41:28.236 : en:00:41:28.236
00:42:51.068 : en:00:42:51.068
00:46:55.146 : en:00:46:55.146
00:49:49.403 : en:00:49:49.403
00:52:00.951 : en:00:52:00.951
00:53:57.609 : en:00:53:57.609
00:57:30.364 : en:00:57:30.364
01:00:54.234 : en:01:00:54.234
01:03:22.716 : en:01:03:22.716
01:07:42.392 : en:01:07:42.392
01:10:21.259 : en:01:10:21.259
01:12:34.225 : en:01:12:34.225
01:15:35.322 : en:01:15:35.322
01:18:10.227 : en:01:18:10.227
01:22:34.032 : en:01:22:34.032
01:25:23.410 : en:01:25:23.410
01:31:28.358 : en:01:31:28.358
01:34:35.295 : en:01:34:35.295
01:36:10.556 : en:01:36:10.556
01:41:28.332 : en:01:41:28.332

Скриншоты:


Время раздачи: 24/7 (до 10 скачавших)
Zarajenie.2011.D.BDRip.720p.NNM-Club.mkv.torrent
 Торрент: Платиновая раздача  Зарегистрирован
 
Скачать


 Зарегистрирован:   20 Дек 2011 20:13:33
 Размер:   4.7 GB  (
 Рейтинг:   4.8 (Голосов: 23)
 Поблагодарили:   101
 Проверка:   Оформление проверено модератором 21 Дек 2011 22:53:06
Как cкачать  ·  Как раздать  ·  Правильно оформить  ·  Поднять ратио!  

_________________
Существует 2 бесконечности: Вселенная и Глупость. Впрочем, я не уверен насчет Вселенной.
©А.Эйнштейн
Топик был перенесен из форума Зарубежные Фильмы (HD, UHD-LQ) в форум Архив Видео



Исправил релиз - напиши ЛС karfagen1975, дав ссылку на релиз.
Если нет ответа 24 часа - нажми на кнопку "Обратить внимание модераторов".
Стас-77
Стаж: 10 лет
Сообщений: 149
Ratio: 0.187
77.18%
Тэриус у меня за спиной 2018 мне очень понравился!
Показать сообщения:   
Начать новую тему   Ответить на тему    Торрент-трекер NNM-Club -> Архив торрентов -> Архив Видео Часовой пояс: GMT + 3
Страница 1 из 1