Классический форум-трекер
canvas not supported
Нас вместе: 4 205 781

Клеточный город - Работа города / Cell City - City Works (2012) SATRip


 
 
RSS
Начать новую тему   Ответить на тему    Торрент-трекер NNM-Club -> Зарубежные TV-бренды -> Da Vinci Learning
Автор Сообщение
Bert ®
Стаж: 15 лет 6 мес.
Сообщений: 726
Ratio: 163.036
Раздал: 166.1 TB
Поблагодарили: 28555
100%
russia.gif
Клеточный город - Работа города / Cell City - City Works (2012) SATRip
Русское название: Клеточный город - Работа города
Оригинальное название: Cell City - City Works
Режиссер / Телекомпания:
Год выпуска: 2012
Жанр: Телепередача

Описание:
Между клеткой человека и структурой города есть много общего: внешние границы, концентрация энергии, связь с элементами других клеток и обмен информацией. С помощью сравнения клетки человека с инфраструктурой города ученые надеются сделать полезные открытия о таких болезнях, как диабет, а также продвинуться в своих исследованиях стволовых клеток.

Перевод: Двуголосый закадровый, профессиональный
Качество видео: SATRip
Продолжительность: 00:28:37
Видео: MPEG4, DivX 5, 768x576 (16:9), 25.000 fps, 1 201 Kbps (0.109 bit/pixel)
Аудио: MP3, 44.1 KHz, 2 ch, 128 Kbps, CBR
General
Complete name : D:\Рипы\Cell City - City Works.nnm-club.SATRip.avi
Format : AVI
Format/Info : Audio Video Interleave
File size : 275 MiB
Duration : 28mn 37s
Overall bit rate : 1 341 Kbps
Writing application : Lavf51.12.1

Video
ID : 0
Format : MPEG-4 Visual
Format profile : Simple@L1
Format settings, BVOP : No
Format settings, QPel : No
Format settings, GMC : No warppoints
Format settings, Matrix : Default (H.263)
Codec ID : DX50
Codec ID/Hint : DivX 5
Duration : 28mn 37s
Bit rate : 1 201 Kbps
Width : 768 pixels
Height : 576 pixels
Display aspect ratio : 16:9
Frame rate : 25.000 fps
Color space : YUV
Chroma subsampling : 4:2:0
Bit depth : 8 bits
Scan type : Progressive
Compression mode : Lossy
Bits/(Pixel*Frame) : 0.109
Stream size : 246 MiB (90%)
Writing library : Lavc51.40.4

Audio
ID : 1
Format : MPEG Audio
Format version : Version 1
Format profile : Layer 3
Mode : Joint stereo
Mode extension : MS Stereo
Codec ID : 55
Codec ID/Hint : MP3
Duration : 28mn 37s
Bit rate mode : Constant
Bit rate : 128 Kbps
Channel(s) : 2 channels
Sampling rate : 44.1 KHz
Compression mode : Lossy
Stream size : 26.2 MiB (10%)
Alignment : Aligned on interleaves
Interleave, duration : 26 ms (0.65 video frame)






Время раздачи: 24/7 - круглосуточно
Cell City - City Works.nnm-club.SATRip.avi.torrent
 Торрент: Платиновая раздача  Зарегистрирован
 
Скачать


Примагнититься
 Зарегистрирован:   01 Сен 2012 23:18:39
 Размер:   275 MB  (
 Рейтинг:   4.9 (Голосов: 13)
 Поблагодарили:   46
 Проверка:   Оформление проверено модератором 02 Сен 2012 20:21:06
Как cкачать  ·  Как раздать  ·  Правильно оформить  ·  Поднять ратио!  
Показать сообщения:   
Начать новую тему   Ответить на тему    Торрент-трекер NNM-Club -> Зарубежные TV-бренды -> Da Vinci Learning Часовой пояс: GMT + 3
Страница 1 из 1