Классический форум-трекер
canvas not supported
Нас вместе: 4 210 982

Street Fighter Alpha Generations / Уличный боец Альфа OVA-2 [2005, OVA, 1 из 1] DVDRip raw+rus


 
 
RSS
Начать новую тему   Ответить на тему    Торрент-трекер NNM-Club -> Архив торрентов -> Архив Аниме
Автор Сообщение
gdfhs6t6we ®
Стаж: 11 лет 7 мес.
Сообщений: 675
Ratio: 780.298
Поблагодарили: 12917
100%
albania.gif
ストリートファイターALPHAジェネレーション / Street Fighter Alpha Generations / Уличный боец Альфа OVA-2

Жанр: Боевые искусства, приключения
Тип: OVA
Продолжительность: OVA (1 эпизод), 45 мин
Дата премьеры / период выхода: 25.10.2005

Режиссер: Кувана Икуо
Автор оригинала: Ямада Мицухиро
Производство/студия:

Качество видео: DVDRip
Видео: AVC, 656x480, 29,970 кадра/сек, ~2174 кбит/с
Аудио #1: AC-3, 48 КГц, 6 ch, ~448 кбит/с Звук: Русский(поверх японского), Любительский (одноголосый). Озвучка: VadimNaz
Аудио #2: AC-3, 48 КГц, 6 ch, ~448 кбит/с Звук: Японский.
Тип субтитров: Русские и английские в контейнере.
Код:

Общее
Уникальный идентификатор                 : 172470264527461920479433319246673704627 (0x81C0908FFB40ABEBAE4230C7E46F76B3)
Полное имя                               : R:\torrent\Street Fighter\Street Fighter Alpha Generation.mkv
Формат                                   : Matroska
Версия формата                           : Version 1
Размер файла                             : 989 Мбайт
Продолжительность                        : 44 м.
Общий поток                              : 3072 Кбит/сек
Дата кодирования                         : UTC 2009-06-12 13:12:17
Программа кодирования                    : mkvmerge v2.4.1 ('Use Me') built on Dec 11 2008 15:41:36
Библиотека кодирования                   : libebml v0.7.7 + libmatroska v0.8.1

Видео
Идентификатор                            : 1
Формат                                   : AVC
Формат/Информация                        : Advanced Video Codec
Профиль формата                          : High@L3.1
Параметр CABAC формата                   : Да
Параметр ReFrames формата                : 8 кадров
Идентификатор кодека                     : V_MPEG4/ISO/AVC
Продолжительность                        : 44 м.
Битрейт                                  : 2174 Кбит/сек
Ширина                                   : 656 пикселей
Высота                                   : 480 пикселей
Соотношение сторон                       : 4:3
Соотношение сторон в оригинале           : 4:3
Режим частоты кадров                     : Постоянный
Частота кадров                           : 29,970 кадров/сек
Цветовое пространство                    : YUV
Субдискретизация насыщенности            : 4:2:0
Битовая глубина                          : 8 бит
Тип развёртки                            : Прогрессивная
Бит/(Пиксели*Кадры)                      : 0.230
Размер потока                            : 680 Мбайт (69%)
Библиотека кодирования                   : x264 core 66 r1109M 75b495f
Настройки программы                      : cabac=1 / ref=8 / deblock=1:1:1 / analyse=0x3:0x133 / me=umh / subme=6 / psy_rd=1.0:0.0 / mixed_ref=1 / me_range=16 / chroma_me=1 / trellis=2 / 8x8dct=1 / cqm=0 / deadzone=21,11 / chroma_qp_offset=-2 / threads=6 / nr=0 / decimate=0 / mbaff=0 / bframes=16 / b_pyramid=1 / b_adapt=1 / b_bias=0 / direct=3 / wpredb=0 / keyint=250 / keyint_min=25 / scenecut=40(pre) / rc=2pass / bitrate=2174 / ratetol=1.0 / qcomp=0.60 / qpmin=10 / qpmax=51 / qpstep=4 / cplxblur=20.0 / qblur=0.5 / ip_ratio=1.40 / pb_ratio=1.30 / aq=1:1.00
Default                                  : Да
Forced                                   : Нет

Аудио #1
Идентификатор                            : 2
Формат                                   : AC-3
Формат/Информация                        : Audio Coding 3
Расширение режима                        : CM (complete main)
Параметр Endianness формата              : Big
Идентификатор кодека                     : A_AC3
Продолжительность                        : 44 м.
Вид битрейта                             : Постоянный
Битрейт                                  : 448 Кбит/сек
Каналы                                   : 6 каналов
Расположение каналов                     : Front: L C R, Side: L R, LFE
Частота                                  : 48,0 КГц
Битовая глубина                          : 16 бит
Метод сжатия                             : С потерями
Размер потока                            : 144 Мбайт (15%)
Заголовок                                : Русский
Язык                                     : Russian
Default                                  : Да
Forced                                   : Нет

Аудио #2
Идентификатор                            : 3
Формат                                   : AC-3
Формат/Информация                        : Audio Coding 3
Расширение режима                        : CM (complete main)
Параметр Endianness формата              : Big
Идентификатор кодека                     : A_AC3
Продолжительность                        : 44 м.
Вид битрейта                             : Постоянный
Битрейт                                  : 448 Кбит/сек
Каналы                                   : 6 каналов
Расположение каналов                     : Front: L C R, Side: L R, LFE
Частота                                  : 48,0 КГц
Битовая глубина                          : 16 бит
Метод сжатия                             : С потерями
Размер потока                            : 144 Мбайт (15%)
Заголовок                                : Японский
Язык                                     : Japanese
Default                                  : Нет
Forced                                   : Нет

Текст #1
Идентификатор                            : 4
Формат                                   : VobSub
Режим смешивания                         : zlib
Идентификатор кодека                     : S_VOBSUB
Идентификатор кодека/Информация          : The same subtitle format used on DVDs
Язык                                     : English
Default                                  : Да
Forced                                   : Нет

Текст #2
Идентификатор                            : 5
Формат                                   : VobSub
Режим смешивания                         : zlib
Идентификатор кодека                     : S_VOBSUB
Идентификатор кодека/Информация          : The same subtitle format used on DVDs
Язык                                     : Russian
Default                                  : Нет
Forced                                   : Нет

Описание:
Когда Риу возвращается в места своего обучения, дабы отдать последнюю дань своему учителю Гоукену, его начинают мучать страшные воспоминания об убийце учителя. Стремясь стать истинным мастером боевых искусств, Риу начинает совершенствоваться в навыках уличного боя и пытается избавиться от ужасающего наследия Темной Хадоу. Но главной проверкой его вновь обретенных навыков станет судьбоносное столкновение с его заклятым противником, Гоуки.

Эта серия состоит из:
#1 Уличный боец II - Фильм - п/ф, адаптация игры, 1994
#2 Уличный боец II [ТВ] - ТВ (29 эп.), адаптация игры, 1995
#3 Уличный боец [ТВ] - ТВ (26 эп.), адаптация игры, 1995
#4 Уличный боец Альфа OVA-1 - OVA (2 эп.), адаптация игры, 1999
#5 Уличный боец Альфа OVA-2 - OVA (1 эп.), адаптация игры, 2005
#6 Уличный боец IV OVA-1 - OVA (1 эп.), адаптация игры, 2009
#7 Уличный боец IV OVA-2 - OVA (1 эп.), адаптация игры, 2010

Ссылки:
Ani-DB ::: World Art

Скриншоты:


Время раздачи: 24/7 до первых 3х скачавших
 Торрент: Платиновая раздача  Зарегистрирован
 
Скачать


Примагнититься
 Зарегистрирован:   13 Окт 2012 18:10:12
 Размер:   989 MB  (
 Рейтинг:   4.6 (Голосов: 20)
 Поблагодарили:   30
 Проверка:   Оформление проверено модератором 13 Окт 2012 18:31:01
Как cкачать  ·  Как раздать  ·  Правильно оформить  ·  Поднять ратио!  
Топик был перенесен из форума OVA с русской озвучкой в форум Архив Аниме

Причина переноса: Seeder last seen: 2015-08-31

Исправил релиз - напиши ЛС loki, дав ссылку на релиз.
Если нет ответа 24 часа - нажми на кнопку "Обратить внимание модераторов".
Показать сообщения:   
Начать новую тему   Ответить на тему    Торрент-трекер NNM-Club -> Архив торрентов -> Архив Аниме Часовой пояс: GMT + 3
Страница 1 из 1