Классический форум-трекер
canvas not supported
Нас вместе: 4 216 497

Street Fighter IV: Arata naru Kizuna / Уличный боец IV OVA-1 [2009, OVA] DVDRip 720p raw+rus+eng


 
 
RSS
Начать новую тему   Ответить на тему    Торрент-трекер NNM-Club -> Архив торрентов -> Архив Аниме
Автор Сообщение
gdfhs6t6we ®
Стаж: 11 лет 9 мес.
Сообщений: 675
Ratio: 780.298
Поблагодарили: 12940
100%
albania.gif
ストリートファイターIV 新たなる絆 / Street Fighter IV: Arata naru Kizuna / Уличный боец IV OVA-1

Жанр: Боевые искусства, приключения
Тип: OVA (1 эп.), 65 мин.
Продолжительность: 65 мин.
Дата премьеры / период выхода: 12.02.2009

Режиссер: Моримото Кодзи
Производство/студия:

Качество видео: DVDRip
Видео: AVC, 1280x720, 16:9, 23,976 кадра/сек, ~1660 кбит/с
Аудио #1: MPEG Audio, 48 КГц, 2 ch, ~128 кбит/с Звук: Русский(поверх английского), Профессиональный многоголосый.
Аудио #2: DTS, 48 КГц, 6 ch, ~1510 кбит/с Звук: Японский.
Аудио #3: DTS, 48 КГц, 6 ch, ~1510 кбит/с Звук: Английский.
Тип субтитров: Английские в контейнере.
Код:

Общее
Уникальный идентификатор                 : 200024448405965271414043157702114849159 (0x967B4EB6F94BD551BBBA422DDBF8B187)
Полное имя                               : R:\torrent\Street Fighter\Street Fighter IV Arata naru Kizuna BDRip.mkv
Формат                                   : Matroska
Версия формата                           : Version 1
Размер файла                             : 2,20 Гбайт
Продолжительность                        : 1 ч. 5 м.
Общий поток                              : 4811 Кбит/сек
Дата кодирования                         : UTC 2009-05-14 12:22:50
Программа кодирования                    : mkvmerge v2.1.0 ('Another Place To Fall') built on Aug 19 2007 13:40:07
Библиотека кодирования                   : libebml v0.7.7 + libmatroska v0.8.1

Видео
Идентификатор                            : 1
Формат                                   : AVC
Формат/Информация                        : Advanced Video Codec
Профиль формата                          : High@L4.1
Параметр CABAC формата                   : Да
Параметр ReFrames формата                : 4 кадра
Идентификатор кодека                     : V_MPEG4/ISO/AVC
Продолжительность                        : 1 ч. 5 м.
Битрейт                                  : 1568 Кбит/сек
Номинальный битрейт                      : 1660 Кбит/сек
Ширина                                   : 1280 пикселей
Высота                                   : 720 пикселей
Соотношение сторон                       : 16:9
Режим частоты кадров                     : Постоянный
Частота кадров                           : 23,976 кадра/сек
Цветовое пространство                    : YUV
Субдискретизация насыщенности            : 4:2:0
Битовая глубина                          : 8 бит
Тип развёртки                            : Прогрессивная
Бит/(Пиксели*Кадры)                      : 0.071
Размер потока                            : 734 Мбайт (33%)
Заголовок                                : www.anidub.com
Библиотека кодирования                   : x264 core 66 r1114M a933a3e
Настройки программы                      : cabac=1 / ref=4 / deblock=1:-1:-1 / analyse=0x3:0x113 / me=umh / subme=7 / psy_rd=0.6:0.0 / mixed_ref=1 / me_range=24 / chroma_me=1 / trellis=0 / 8x8dct=1 / cqm=0 / deadzone=21,11 / chroma_qp_offset=-2 / threads=3 / nr=0 / decimate=1 / mbaff=0 / bframes=3 / b_pyramid=0 / b_adapt=1 / b_bias=0 / direct=1 / wpredb=1 / keyint=250 / keyint_min=25 / scenecut=40(pre) / rc=2pass / bitrate=1660 / ratetol=1.0 / qcomp=0.60 / qpmin=10 / qpmax=51 / qpstep=4 / cplxblur=20.0 / qblur=0.5 / ip_ratio=1.40 / pb_ratio=1.30 / aq=0
Язык                                     : Japanese
Default                                  : Да
Forced                                   : Нет

Аудио #1
Идентификатор                            : 2
Формат                                   : MPEG Audio
Версия формата                           : Version 1
Профиль формата                          : Layer 3
Режим                                    : Joint stereo
Идентификатор кодека                     : A_MPEG/L3
Идентификатор кодека/Подсказка           : MP3
Продолжительность                        : 1 ч. 5 м.
Вид битрейта                             : Постоянный
Битрейт                                  : 128 Кбит/сек
Каналы                                   : 2 канала
Частота                                  : 48,0 КГц
Метод сжатия                             : С потерями
Размер потока                            : 59,9 Мбайт (3%)
Заголовок                                : Russian (VO English) 2.0 MP3
Язык                                     : Russian
Default                                  : Да
Forced                                   : Нет

Аудио #2
Идентификатор                            : 3
Формат                                   : DTS
Формат/Информация                        : Digital Theater Systems
Идентификатор кодека                     : A_DTS
Продолжительность                        : 1 ч. 5 м.
Вид битрейта                             : Постоянный
Битрейт                                  : 1510 Кбит/сек
Каналы                                   : 6 каналов
Расположение каналов                     : Front: L C R, Side: L R, LFE
Частота                                  : 48,0 КГц
Битовая глубина                          : 24 бит
Метод сжатия                             : С потерями
Размер потока                            : 706 Мбайт (31%)
Заголовок                                : Original 5.1 DTS
Язык                                     : Japanese
Default                                  : Нет
Forced                                   : Нет

Аудио #3
Идентификатор                            : 4
Формат                                   : DTS
Формат/Информация                        : Digital Theater Systems
Идентификатор кодека                     : A_DTS
Продолжительность                        : 1 ч. 5 м.
Вид битрейта                             : Постоянный
Битрейт                                  : 1510 Кбит/сек
Каналы                                   : 6 каналов
Расположение каналов                     : Front: L C R, Side: L R, LFE
Частота                                  : 48,0 КГц
Битовая глубина                          : 24 бит
Метод сжатия                             : С потерями
Размер потока                            : 706 Мбайт (31%)
Заголовок                                : English 5.1 DTS
Язык                                     : English
Default                                  : Нет
Forced                                   : Нет

Текст
Идентификатор                            : 5
Формат                                   : UTF-8
Идентификатор кодека                     : S_TEXT/UTF8
Идентификатор кодека/Информация          : UTF-8 Plain Text
Заголовок                                : English SRT
Язык                                     : English
Default                                  : Да
Forced                                   : Нет

Описание:
Террористическая организация Шадоу Лоу во главе с главным злодеем майором Бизоном, владеющим мощной психической силой, использует для своих злобных целей выдающихся бойцов, предварительно промывая им мозги. Поиски бойцов ведутся по всему миру киборгами. Два друга, которые обучались в школе боевых искусств в молодости и уже давно не виделись оказываются в центре этой истории.

Эта серия состоит из:
#1 Уличный боец II - Фильм - п/ф, адаптация игры, 1994
#2 Уличный боец II [ТВ] - ТВ (29 эп.), адаптация игры, 1995
#3 Уличный боец [ТВ] - ТВ (26 эп.), адаптация игры, 1995
#4 Уличный боец Альфа OVA-1 - OVA (2 эп.), адаптация игры, 1999
#5 Уличный боец Альфа OVA-2 - OVA (1 эп.), адаптация игры, 2005
#6 Уличный боец IV OVA-1 - OVA (1 эп.), адаптация игры, 2009
#7 Уличный боец IV OVA-2 - OVA (1 эп.), адаптация игры, 2010

Ссылки:
Ani-DB ::: World Art

Скриншоты:


Время раздачи: 24/7 до первых 3х скачавших
[NNM-Club.ru]_Street Fighter IV Arata naru Kizuna BDRip.mkv.torrent
 Торрент: Платиновая раздача  Зарегистрирован
 
Скачать


Примагнититься
 Зарегистрирован:   13 Окт 2012 18:11:05
 Размер:   2.2 GB  (
 Рейтинг:   4.4 (Голосов: 14)
 Поблагодарили:   42
 Проверка:   Оформление проверено модератором 13 Окт 2012 18:39:59
Как cкачать  ·  Как раздать  ·  Правильно оформить  ·  Поднять ратио!  
lordkunsaid
 
Стаж: 11 лет 6 мес.
Сообщений: 765
Ratio: 8.744
Поблагодарили: 3456
100%
Откуда: русь
russia.gif
Спасибо одному единственному сидеру, благодаря которому получилось скачать мультфильм. gdfhs6t6we ® - спасибо тебе огромное! =)

_________________
QuadCore Intel Core i5-750 2.67GHz, Asus P7P55 LX, PLEXTOR PX-128M6S, GIGABYTE GTX 1660 Super 6 Gb, 460.79, 12 Gb RAM, Windows 10 2004
Топик был перенесен из форума OVA с русской озвучкой в форум Архив Аниме

Причина переноса: Seeder last seen: 2015-05-30
vados loki
Показать сообщения:   
Начать новую тему   Ответить на тему    Торрент-трекер NNM-Club -> Архив торрентов -> Архив Аниме Часовой пояс: GMT + 3
Страница 1 из 1