Классический форум-трекер
canvas not supported
Нас вместе: 4 210 986

Street Fighter II Victory / Уличный боец II [ТВ][1995, TV, 29 из 29] DVDRip eng


 
 
RSS
Начать новую тему   Ответить на тему    Торрент-трекер NNM-Club -> Аниме с субтитрами -> Аниме (SD)
Автор Сообщение
gdfhs6t6we ®
Стаж: 11 лет 7 мес.
Сообщений: 675
Ratio: 780.298
Поблагодарили: 12917
100%
albania.gif
ストリートファイターIIV / Street Fighter II Victory / Уличный боец II [ТВ]

Жанр: Боевые искусства, приключения
Тип: TV-сериал
Продолжительность: ТВ (29 эп.), 25 мин.
Дата премьеры / период выхода: c 10.04.1995 по 27.11.1995

Режиссер: Сугии Гисабуро
Автор оригинала: Имай Кэнъити
Производство/студия:

Качество видео: DVDRip
Видео: MPEG-4, 624x480, 29,970 кадра/сек, ~900 кбит/с
Аудио: MPEG Audio, 48 КГц, 2 ch, ~128 кбит/с Звук: Англйский.
Тип субтитров: Русские подключаемые.
Код:

Общее
Полное имя                               : R:\torrent\Street Fighter\Street Fighter II V - ТВ\Street Fighter II EP#01.divx
Формат                                   : DivX
Формат/Информация                        : Hack of AVI
Размер файла                             : 175 Мбайт
Продолжительность                        : 23 м.
Общий поток                              : 1040 Кбит/сек

Видео
Идентификатор                            : 0
Формат                                   : MPEG-4 Visual
Параметр BVOP формата                    : 1
Параметр QPel формата                    : Нет
Параметр GMC формата                     : Без точки перехода
Параметр матрицы формата                 : Default (H.263)
Режим смешивания                         : Сжатый битовый поток
Идентификатор кодека                     : DX50
Идентификатор кодека/Подсказка           : DivX 5
Продолжительность                        : 23 м.
Битрейт                                  : 900 Кбит/сек
Ширина                                   : 624 пикселя
Высота                                   : 480 пикселей
Соотношение сторон                       : 4:3
Частота кадров                           : 29,970 кадров/сек
Цветовое пространство                    : YUV
Субдискретизация насыщенности            : 4:2:0
Битовая глубина                          : 8 бит
Тип развёртки                            : Прогрессивная
Метод сжатия                             : С потерями
Бит/(Пиксели*Кадры)                      : 0.100
Размер потока                            : 151 Мбайт (87%)
Заголовок                                : Main
Библиотека кодирования                   : DivX 6.4.0 (UTC 2006-10-03)

Аудио
Идентификатор                            : 1
Формат                                   : MPEG Audio
Версия формата                           : Version 1
Профиль формата                          : Layer 3
Режим                                    : Joint stereo
Расширение режима                        : MS Stereo
Идентификатор кодека                     : 55
Идентификатор кодека/Подсказка           : MP3
Продолжительность                        : 23 м.
Вид битрейта                             : Постоянный
Битрейт                                  : 128 Кбит/сек
Каналы                                   : 2 канала
Частота                                  : 48,0 КГц
Метод сжатия                             : С потерями
Размер потока                            : 21,5 Мбайт (12%)
Выравнивание                             : Разделение по промежуткам
Продолжительность промежутка             : 33  мс. (1,00 видеокадр)
Время предзагрузки промежутка            : 500  мс.
Заголовок                                : Audio
Библиотека кодирования                   : LAME3.97 (beta)
01. The Beginning of a Journey: Inviation from San Francisco
02. The King of the Air Force: An Explosion of Menacing Military Combat
03. Landing in Hong Kong: Sneaking in... the Invitation from Devil's Battle Cave
04. Darkness at Kowloon Palace: Their Great Escapte from the Lawless Zone
05. Hot Blooded Fei Long: Super Battle Action Movie
06. Appearance of the Secret Technique: The Ki begins to rise, the Awakening of Hadou
07. The Revenge of Ashura: The attcking Muay Thai Assassin
08. Trap Prison and the Scream of Truth: Proud Ryu
09. The Superstar of Muay Thai: The Grand Prison Battle Symphony
10. Dark Omen: The Veiled Rightful Ruler
11. Visitation of the Beasts: The Fierce, Holy Monk, Advice to Young Warriors
12. The Deadly Phantom Faceoff: The Battle Spirit Hidden Between Body and Soul
13. The Legend of Hadou Ken: All Creation, Source of Energy
14. The Bloodthirsty Prince: A Lust for Beauty and a Love Potion for Chun Li
15. Clash of the Titans: Mortal Combat for Pride, Life and Cinderella
16. The Unveiled Ruler: The Rampage of the Fearful Thrist for Conquest Begins
17. Shudder! The Despot's Commander: Infiltration Strategem - An Approaching Crisis
18. The Beautiful Assassin: Green eyes, Terror of the Cross
19. Special Orders to Iron Men: The Mightiest Rescuers Launch the Sheltering Skies
20. Unknown Explosive Force, The full Extent of Unbelievable Power
21. Compulsion Towards Vengeance: Cyberchip - The Challenge to Mind Control
22. Rising Dragon Into the Sky: The Extremes of Rage - the Awakening of Hadou
23. The Icy Light of their Eyes: Heros Possessed by Evil
24. Nightmare Reunion: An Anguished Cry, A Mind Sealed away
25. Fight to the Finish:The Grand Triple Battle Command
26. Fight to the Finish:The Final Moments of an Exhausted True Friend
27. Fight to the Finish: Crtitical Point - The Limits of the Smashing Hadou Energy
28. Fight to the Finish: Master Bison, The Overwhelming Destructive Power
29. Fight to the Finish: Risking all of Body and Soul

Описание:
Мультфильм моего детства. Помню, в свое время, когда были популярны видеомагнитофоны, у моего друга была кассета с «Уличным бойцом». Мне пришлось переписать у него на кассету, чтобы пересматривать. Повторных просмотров уже и не перечислить…
Я обратил пристальное внимание, прежде всего, на характер главных героев: в их жилах течет настоящая бойцовская кровь. Особенно мне понравился Рио. Воин-одиночка, который странствует по миру босиком и зарабатывает на жизнь, участвуя в схватках, а иногда просто медитируя. Он постоянно ищет свой путь.
С другой стороны, есть не менее важный персонаж всей этой картины: его имя Кен. Долгое время он практиковал боевые искусства вместе с Рио. Более общительный и веселый, Кен по-прежнему участвует в поединках, но при этом живет светской жизнью. У него свой мир, хотя этот мир в мыслях всегда пересекается с Рио.
И как результат 2 друга объединяются в борьбе с силами зла. Сюжет замечателен: местами он интригует, особенно в момент, когда Кена заставляют драться против Рио. Кроме того, здесь сочетается отличная анимация с правильно подобранной музыкой.
(c)T.J vlasov kinopoisk.ru

Эта серия состоит из:
#1 Уличный боец II - Фильм - п/ф, адаптация игры, 1994
#2 Уличный боец II [ТВ] - ТВ (29 эп.), адаптация игры, 1995
#3 Уличный боец [ТВ] - ТВ (26 эп.), адаптация игры, 1995
#4 Уличный боец Альфа OVA-1 - OVA (2 эп.), адаптация игры, 1999
#5 Уличный боец Альфа OVA-2 - OVA (1 эп.), адаптация игры, 2005
#6 Уличный боец IV OVA-1 - OVA (1 эп.), адаптация игры, 2009
#7 Уличный боец IV OVA-2 - OVA (1 эп.), адаптация игры, 2010

Ссылки:
Ani-DB ::: World Art

Скриншоты:



Время раздачи: 24/7 до первых 3х скачавших
 Торрент: Платиновая раздача  Зарегистрирован
 
Скачать


Примагнититься
 Зарегистрирован:   13 Окт 2012 18:11:29
 Размер:   4.99 GB  (
 Рейтинг:   4.4 (Голосов: 21)
 Поблагодарили:   31
 Проверка:   Оформление проверено модератором 13 Окт 2012 18:45:14
Как cкачать  ·  Как раздать  ·  Правильно оформить  ·  Поднять ратио!  
Показать сообщения:   
Начать новую тему   Ответить на тему    Торрент-трекер NNM-Club -> Аниме с субтитрами -> Аниме (SD) Часовой пояс: GMT + 3
Страница 1 из 1