Классический форум-трекер
canvas not supported
Нас вместе: 4 178 339

Селестина (Селестина - горничная для всех) / Celestine... bonne a tout faire (1974) DVDRip [VO]


 
 
RSS
Начать новую тему   Ответить на тему    Торрент-трекер NNM-Club -> Классика кино и Старые фильмы до 90-х -> Старые Зарубежные Фильмы (HD*Rip/LQ, DVDRip, SATRip, VHSRip)
Автор Сообщение
VA_Lev ®
Стаж: 10 лет 5 мес.
Сообщений: 18
Ratio: 12.099
Поблагодарили: 1382
0%
ussr.gif
Селестина (Селестина - горничная для всех) / Célestine... bonne à tout faire (1974) DVDRip
Производство: Франция / Comptoir Français du Film Production (CFFP)
Жанр: Комедия, Эротика

Режиссер: Хесус Франко
Актеры: Лина Ромай, Говард Вернон, Оливье Мато, Памела Стэнфорд, Ришар Биготини, Надин Паскаль, Анна Гладысек, Раймон Арди

Описание:
Во время полицейской облавы на бордель двум проституткам удается улизнуть от преследования. Девушки разбегаются в разные стороны, и одна из них, по имени Селестина (Л. Ромей), попадает в графское имение. Она в спринтерском стиле производит приятное впечатление на тамошних садовника и дворецкого, после чего те, как честные мужчины, не могут не замолвить за нее словечко перед своими хозяевами. Под видом кузины Селестину устраивают на место горничной. Покладистая девушка тотчас же начинает избавлять вельможных хозяев от сексуальных комплексов.
Пустячковая жизнерадостная эротическая комедия от Франко на ретро-материале выглядит странноватым симбиозом баварских секс-комедий и нашей «Здравствуйте, я ваша тетя». Пейзане на сеновале, чопорные леди и много суетливой возни, в том числе и постельной. Очень хорош Говард Вернон в роли патриарха, которому Селестина читает порнороманы: кто бы мог подумать, что «доктор Орлофф» обладает таким комическим талантом! Лиина Ромей еще молода, свежа и в финале, покидая графский особняк, вполне искренне увлажняет свои черные очи.


Возраст: 18+ (зрителям, достигшим 18 лет. запрещено для детей)

Релиз от: DVDRip by VA_Lev

Продолжительность: 01:34:18
Качество видео: DVDRip
Перевод: Одноголосый закадровый

Видео: Xvid, 720x432, ~1900 Kbps
Аудио: AC3, 2 ch, 192 Kbps
Рип собственного производства, сделан с DVD 9.
Фильм довольно редкий и в таком качестве я его нигде не встречал.
Формат                           : AVI
Формат/Информация : Audio Video Interleave
Размер файла : 2,05 Гбайт
Продолжительность : 23 м.
Общий поток : 12,2 Мбит/сек
Библиотека кодирования : VirtualDub build 32507/release

Видео
Идентификатор : 0
Формат : MPEG-4 Visual
Профиль формата : Advanced Simple@L5
Параметр BVOP формата : 2
Параметр QPel формата : Нет
Параметр GMC формата : Без точки перехода
Параметр матрицы формата : Default (H.263)
Режим смешивания : Сжатый битовый поток
Идентификатор кодека : XVID
Идентификатор кодека/Подсказка : XviD
Продолжительность : 23 м.
Битрейт : 1896 Кбит/сек
Ширина : 720 пикс.
Высота : 432 пикс.
Соотношение сторон : 16:9
Частота кадров : 25,000 кадр/сек
Цветовое пространство : YUV
Подвыборка цветности : 4:2:0
Битовая глубина : 8 бит
Тип развёртки : Прогрессивная
Метод сжатия : С потерями
Бит/(Пиксели*Кадры) : 0.269
Размер потока : 325 Мбайт (15%)
Библиотека кодирования : XviD 1.1.2 (UTC 2006-11-01)

Аудио
Идентификатор : 1
Формат : AC-3
Формат/Информация : Audio Coding 3
Расширение режима : CM (complete main)
Идентификатор кодека : 2000
Продолжительность : 23 м.
Вид битрейта : Постоянный
Битрейт : 192 Кбит/сек
Каналы : 2 канала
Расположение каналов : Front: L R
Частота : 48,0 КГц
Битовая глубина : 16 бит
Метод сжатия : С потерями
Размер потока : 32,9 Мбайт (2%)
Выравнивание : Соединение по промежуткам
Продолжительность промежутка : 40 мс. (1,00 видеокадр)
Время предзагрузки промежутка : 512 ms
Скриншоты:

Все одноименные релизы в Клубе

Время раздачи: Так как рип мой, то поддержка обеспечивается постоянно до 10 сидов, далее всегда, но не круглосуточно.
[NNM-Club.ru]_Selestina - gornichnaya dlya vseh.DVD-Rip by VA_Lev.avi.torrent
 Торрент: Платиновая раздача  Зарегистрирован
 
Скачать


Примагнититься
 Зарегистрирован:   08 Июн 2013 17:10:55
 Размер:   2.05 GB  (
 Рейтинг:   4.6 (Голосов: 214)
 Поблагодарили:   1090
 Проверка:   Оформление проверено модератором 09 Июн 2013 12:55:12
Как cкачать  ·  Как раздать  ·  Правильно оформить  ·  Поднять ратио!  
jg71
Стаж: 9 лет 4 мес.
Сообщений: 1610
Ratio: 4.133
100%
Откуда: Из счастливого прошлого
pirates.png
Памела Стэнфорд .

_________________
Если у меня другое мнение, это не значит, что я ваш враг или идиот. Это просто значит, что у меня другое мнение.
lianx
Стаж: 11 лет 3 мес.
Сообщений: 175
Ratio: 204.45
Раздал: 103.5 TB
100%
ussr.gif
Селестина няшка такая
Bacha
Стаж: 12 лет 3 мес.
Сообщений: 1533
Ratio: 129.865
Поблагодарили: 2567
100%
Откуда: СССР
nnm-club.gif
Прикольное кинцо!Главная героиня конечно,как уже писали "няшка"!Хороший вариант отдохнуть от всех душещипательных боевиков,драм,триллеров итд. :D

_________________
Не старость сама по себе уважается, а прожитая жизнь. Если она была. /В. Шукшин/
AlexiSSG
Uploader 100+
 

Online
Стаж: 11 лет 4 мес.
Сообщений: 5462
Ratio: 167.061
Раздал: 339.2 TB
Поблагодарили: 9744
100%
ussr.gif
Bacha писал(а): Перейти к сообщению
Прикольное кинцо!Главная героиня конечно,как уже писали "няшка"!Хороший вариант отдохнуть от всех душещипательных боевиков,драм,триллеров итд. :D

Полностью согласен :да:
Спс релизеру
Показать сообщения:   
Начать новую тему   Ответить на тему    Торрент-трекер NNM-Club -> Классика кино и Старые фильмы до 90-х -> Старые Зарубежные Фильмы (HD*Rip/LQ, DVDRip, SATRip, VHSRip) Часовой пояс: GMT + 3
Страница 1 из 1