Классический форум-трекер
canvas not supported
Нас вместе: 4 172 705

Джанго освобожденный / Django Unchained (2012) [ALAC|Lossless]<Soundtrack>


 
 
RSS
Начать новую тему   Ответить на тему    Торрент-трекер NNM-Club -> Аудио и Видео -> Музыка Lossless (ALAC)
Автор Сообщение
CafeTea ®
Покровитель талантов
Стаж: 10 лет 5 мес.
Сообщений: 513
Ratio: 6.698
Поблагодарили: 20421
100%
Джанго освобожденный Django Unchained (2012)
Год: 2012
Жанр: Soundtrack
Продолжительность: 00:54:31
Издатель (лейбл): Universal Republic
Кодек: ALAC
Битрейт: Lossless

Трек лист:
1. James Russo - Winged (0:09)
2. Luis Bacalov & Rocky Roberts - Django (2:54)
3. Ennio Morricone - The Braying Mule (2:33)
4. Christoph Waltz & Jamie Foxx - "In That Case Django, After You..." (0:39)
5. Luis Bacalov & Edda Orso - Lo Chiamavano King (His Name Is King) (1:59)
6. Anthony Hamilton & Elayna Boynton - Freedom (3:57)
7. Don Johnson & Christoph Waltz - Five-Thousand-Dollar Nigga's and Gummy Mouth Bitches (0:56)
8. Luis Bacalov - La Corsa (2nd Version) (2:19)
9. Don Straud - Sneaky Schultz and the Demise of Sharp (0:34)
10. Jim Croce - I Got a Name (3:15)
11. Riziero Ortolani - I Giorni Dell'ira (3:06)
12. Rick Ross - 100 Black Coffins (3:44)
13. Jerry Goldsmith feat. Pat Metheny - Nicaragua (3:29)
14. Samuel L. Jackson, Leonardo DiCaprio & Christoph Waltz - Hildi's Hot Box (1:16)
15. Ennio Morricone - Sister Sara's Theme (1:27)
16. Elisa Toffoli - Ancora Qui (5:08)
17. James Brown & 2Pac - Unchained (The Payback / Untouchable) (2:52)
18. John Legend - Who Did That to You? (3:49)
19. Brother Dege (AKA Dege Legg) - Too Old to Die Young (3:43)
20. Samuel L. Jackson & Jamie Foxx - Stephen the Poker Player (1:02)
21. Ennio Morricone - Un Monumento (2:31)
22. Samuel L. Jackson & Jamie Foxx - Six Shots Two Guns (0:05)
23. Annibale E I Cantori Moderni - Trinity: Titoli (3:04)
Код:
Общее
Полное имя                               : C:\Users\User\Desktop\Various Artists-Django Unchained (2012) [ALAC]\''In That Case Django, After You...''.m4a
Формат                                   : MPEG-4
Профиль формата                          : Apple audio with iTunes info
Идентификатор кодека                     : M4A
Размер файла                             : 2,50 Мбайт
Продолжительность                        : 38 с.
Режим общего битрейта                    : Переменный
Общий поток                              : 541 Кбит/сек
Альбом                                   : Django Unchained
Альбом/Исполнитель                       : Django Unchained
Трек                                     : "In That Case Django, After You..."
Трек/Положение                           : 4
Трек/Всего                               : 23
Исполнитель                              : Christoph Waltz & Jamie Foxx
Жанр                                     : Soundtrack
Дата записи                              : 2012
Дата кодирования                         : UTC 2013-02-03 13:01:19
Дата пометки                             : UTC 2013-02-03 13:07:41
Программа кодирования                    : iTunes 11.0.1.12
Обложка                                  : Yes
Encoding Params                          : vers

Аудио
Идентификатор                            : 1
Формат                                   : ALAC
Идентификатор кодека                     : alac
Идентификатор кодека/Информация          : Apple Lossless Audio Codec
Продолжительность                        : 38 с.
Duration_LastFrame                       : -64 мс.
Вид битрейта                             : Переменный
Битрейт                                  : 517 Кбит/сек
Каналы                                   : 2 канала
Частота                                  : 44,1 КГц
Битовая глубина                          : 16 бит
Размер потока                            : 2,39 Мбайт (96%)
Дата кодирования                         : UTC 2013-02-03 13:01:19
Дата пометки                             : UTC 2013-02-03 13:07:41

Общее
Полное имя                               : C:\Users\User\Desktop\Various Artists-Django Unchained (2012) [ALAC]\100 Black Coffins.m4a
Формат                                   : MPEG-4
Профиль формата                          : Apple audio with iTunes info
Идентификатор кодека                     : M4A
Размер файла                             : 25,1 Мбайт
Продолжительность                        : 3 м. 43 с.
Режим общего битрейта                    : Переменный
Общий поток                              : 941 Кбит/сек
Альбом                                   : Django Unchained
Альбом/Исполнитель                       : Django Unchained
Трек                                     : 100 Black Coffins
Трек/Положение                           : 12
Трек/Всего                               : 23
Исполнитель                              : Rick Ross
Жанр                                     : Soundtrack
Дата записи                              : 2012
Дата кодирования                         : UTC 2013-02-03 13:03:30
Дата пометки                             : UTC 2013-02-03 13:07:46
Программа кодирования                    : iTunes 11.0.1.12
Обложка                                  : Yes
Encoding Params                          : vers

Аудио
Идентификатор                            : 1
Формат                                   : ALAC
Идентификатор кодека                     : alac
Идентификатор кодека/Информация          : Apple Lossless Audio Codec
Продолжительность                        : 3 м. 43 с.
Duration_LastFrame                       : -40 мс.
Вид битрейта                             : Переменный
Битрейт                                  : 937 Кбит/сек
Каналы                                   : 2 канала
Частота                                  : 44,1 КГц
Битовая глубина                          : 16 бит
Размер потока                            : 25,0 Мбайт (100%)
Дата кодирования                         : UTC 2013-02-03 13:03:30
Дата пометки                             : UTC 2013-02-03 13:07:46

Общее
Полное имя                               : C:\Users\User\Desktop\Various Artists-Django Unchained (2012) [ALAC]\Ancora Qui.m4a
Формат                                   : MPEG-4
Профиль формата                          : Apple audio with iTunes info
Идентификатор кодека                     : M4A
Размер файла                             : 27,8 Мбайт
Продолжительность                        : 5 м. 8 с.
Режим общего битрейта                    : Переменный
Общий поток                              : 757 Кбит/сек
Альбом                                   : Django Unchained
Альбом/Исполнитель                       : Django Unchained
Трек                                     : Ancora Qui
Трек/Положение                           : 16
Трек/Всего                               : 23
Исполнитель                              : Elisa Toffoli
Жанр                                     : Soundtrack
Дата записи                              : 2012
Дата кодирования                         : UTC 2013-02-03 13:00:32
Дата пометки                             : UTC 2013-02-03 13:07:42
Программа кодирования                    : iTunes 11.0.1.12
Обложка                                  : Yes
Encoding Params                          : vers

Аудио
Идентификатор                            : 1
Формат                                   : ALAC
Идентификатор кодека                     : alac
Идентификатор кодека/Информация          : Apple Lossless Audio Codec
Продолжительность                        : 5 м. 8 с.
Duration_LastFrame                       : -14 мс.
Вид битрейта                             : Переменный
Битрейт                                  : 754 Кбит/сек
Каналы                                   : 2 канала
Частота                                  : 44,1 КГц
Битовая глубина                          : 16 бит
Размер потока                            : 27,7 Мбайт (100%)
Дата кодирования                         : UTC 2013-02-03 13:00:32
Дата пометки                             : UTC 2013-02-03 13:07:42

Общее
Полное имя                               : C:\Users\User\Desktop\Various Artists-Django Unchained (2012) [ALAC]\Ancora Qui.m4a.png
Формат                                   : PNG
Формат/Информация                        : Portable Network Graphic
Размер файла                             : 81,7 Кбайт

Изображения
Формат                                   : PNG
Формат/Информация                        : Portable Network Graphic
Ширина                                   : 544 пикселя
Высота                                   : 357 пикселей
Битовая глубина                          : 8 бит
Метод сжатия                             : Без потерь
Размер потока                            : 81,7 Кбайт (100%)

Общее
Полное имя                               : C:\Users\User\Desktop\Various Artists-Django Unchained (2012) [ALAC]\Cover.jpg
Формат                                   : JPEG
Размер файла                             : 97,2 Кбайт

Изображения
Формат                                   : JPEG
Ширина                                   : 600 пикселей
Высота                                   : 600 пикселей
Цветовое пространство                    : YUV
Субдискретизация насыщенности            : 4:4:4
Битовая глубина                          : 8 бит
Метод сжатия                             : С потерями
Размер потока                            : 97,2 Кбайт (100%)

Общее
Полное имя                               : C:\Users\User\Desktop\Various Artists-Django Unchained (2012) [ALAC]\Django.m4a
Формат                                   : MPEG-4
Профиль формата                          : Apple audio with iTunes info
Идентификатор кодека                     : M4A
Размер файла                             : 20,0 Мбайт
Продолжительность                        : 2 м. 54 с.
Режим общего битрейта                    : Переменный
Общий поток                              : 962 Кбит/сек
Альбом                                   : Django Unchained
Альбом/Исполнитель                       : Django Unchained
Трек                                     : Django
Трек/Положение                           : 2
Трек/Всего                               : 23
Исполнитель                              : Luis Bacalov & Rocky Roberts
Жанр                                     : Soundtrack
Дата записи                              : 2012
Дата кодирования                         : UTC 2013-02-03 13:00:03
Дата пометки                             : UTC 2013-02-03 13:07:46
Программа кодирования                    : iTunes 11.0.1.12
Обложка                                  : Yes
Encoding Params                          : vers

Аудио
Идентификатор                            : 1
Формат                                   : ALAC
Идентификатор кодека                     : alac
Идентификатор кодека/Информация          : Apple Lossless Audio Codec
Продолжительность                        : 2 м. 54 с.
Duration_LastFrame                       : -30 мс.
Вид битрейта                             : Переменный
Битрейт                                  : 957 Кбит/сек
Каналы                                   : 2 канала
Частота                                  : 44,1 КГц
Битовая глубина                          : 16 бит
Размер потока                            : 19,8 Мбайт (99%)
Дата кодирования                         : UTC 2013-02-03 13:00:03
Дата пометки                             : UTC 2013-02-03 13:07:46

Общее
Полное имя                               : C:\Users\User\Desktop\Various Artists-Django Unchained (2012) [ALAC]\Five-Thousand-Dollar Nigga's and Gummy Mouth Bitches.m4a
Формат                                   : MPEG-4
Профиль формата                          : Apple audio with iTunes info
Идентификатор кодека                     : M4A
Размер файла                             : 4,64 Мбайт
Продолжительность                        : 56 с.
Режим общего битрейта                    : Переменный
Общий поток                              : 690 Кбит/сек
Альбом                                   : Django Unchained
Альбом/Исполнитель                       : Django Unchained
Трек                                     : Five-Thousand-Dollar Nigga's and Gummy Mouth Bitches
Трек/Положение                           : 7
Трек/Всего                               : 23
Исполнитель                              : Don Johnson & Christoph Waltz
Жанр                                     : Soundtrack
Дата записи                              : 2012
Дата кодирования                         : UTC 2013-02-03 13:01:46
Дата пометки                             : UTC 2013-02-03 13:07:41
Программа кодирования                    : iTunes 11.0.1.12
Обложка                                  : Yes
Encoding Params                          : vers

Аудио
Идентификатор                            : 1
Формат                                   : ALAC
Идентификатор кодека                     : alac
Идентификатор кодека/Информация          : Apple Lossless Audio Codec
Продолжительность                        : 56 с.
Duration_LastFrame                       : -84 мс.
Вид битрейта                             : Переменный
Битрейт                                  : 673 Кбит/сек
Каналы                                   : 2 канала
Частота                                  : 44,1 КГц
Битовая глубина                          : 16 бит
Размер потока                            : 4,53 Мбайт (98%)
Дата кодирования                         : UTC 2013-02-03 13:01:46
Дата пометки                             : UTC 2013-02-03 13:07:41

Общее
Полное имя                               : C:\Users\User\Desktop\Various Artists-Django Unchained (2012) [ALAC]\Folder.auCDtect.txt
Размер файла                             : 9,00 Кбайт

Общее
Полное имя                               : C:\Users\User\Desktop\Various Artists-Django Unchained (2012) [ALAC]\Freedom.m4a
Формат                                   : MPEG-4
Профиль формата                          : Apple audio with iTunes info
Идентификатор кодека                     : M4A
Размер файла                             : 23,0 Мбайт
Продолжительность                        : 3 м. 56 с.
Режим общего битрейта                    : Переменный
Общий поток                              : 814 Кбит/сек
Альбом                                   : Django Unchained
Альбом/Исполнитель                       : Django Unchained
Трек                                     : Freedom
Трек/Положение                           : 6
Трек/Всего                               : 23
Исполнитель                              : Anthony Hamilton & Elayna Boynton
Жанр                                     : Soundtrack
Дата записи                              : 2012
Дата кодирования                         : UTC 2013-02-03 13:02:23
Дата пометки                             : UTC 2013-02-03 13:07:40
Программа кодирования                    : iTunes 11.0.1.12
Обложка                                  : Yes
Encoding Params                          : vers

Аудио
Идентификатор                            : 1
Формат                                   : ALAC
Идентификатор кодека                     : alac
Идентификатор кодека/Информация          : Apple Lossless Audio Codec
Продолжительность                        : 3 м. 56 с.
Duration_LastFrame                       : -4 мс.
Вид битрейта                             : Переменный
Битрейт                                  : 810 Кбит/сек
Каналы                                   : 2 канала
Частота                                  : 44,1 КГц
Битовая глубина                          : 16 бит
Размер потока                            : 22,8 Мбайт (100%)
Дата кодирования                         : UTC 2013-02-03 13:02:23
Дата пометки                             : UTC 2013-02-03 13:07:40

Общее
Полное имя                               : C:\Users\User\Desktop\Various Artists-Django Unchained (2012) [ALAC]\Freedom.m4a.png
Формат                                   : PNG
Формат/Информация                        : Portable Network Graphic
Размер файла                             : 88,9 Кбайт

Изображения
Формат                                   : PNG
Формат/Информация                        : Portable Network Graphic
Ширина                                   : 544 пикселя
Высота                                   : 357 пикселей
Битовая глубина                          : 8 бит
Метод сжатия                             : Без потерь
Размер потока                            : 88,9 Кбайт (100%)

Общее
Полное имя                               : C:\Users\User\Desktop\Various Artists-Django Unchained (2012) [ALAC]\Hildi's Hot Box.m4a
Формат                                   : MPEG-4
Профиль формата                          : Apple audio with iTunes info
Идентификатор кодека                     : M4A
Размер файла                             : 5,04 Мбайт
Продолжительность                        : 1 м. 16 с.
Режим общего битрейта                    : Переменный
Общий поток                              : 555 Кбит/сек
Альбом                                   : Django Unchained
Альбом/Исполнитель                       : Django Unchained
Трек                                     : Hildi's Hot Box
Трек/Положение                           : 14
Трек/Всего                               : 23
Исполнитель                              : Samuel L. Jackson, Leonardo DiCaprio & Christoph Waltz
Жанр                                     : Soundtrack
Дата записи                              : 2012
Дата кодирования                         : UTC 2013-02-03 13:04:00
Дата пометки                             : UTC 2013-02-03 13:07:47
Программа кодирования                    : iTunes 11.0.1.12
Обложка                                  : Yes
Encoding Params                          : vers

Аудио
Идентификатор                            : 1
Формат                                   : ALAC
Идентификатор кодека                     : alac
Идентификатор кодека/Информация          : Apple Lossless Audio Codec
Продолжительность                        : 1 м. 16 с.
Duration_LastFrame                       : -15 мс.
Вид битрейта                             : Переменный
Битрейт                                  : 544 Кбит/сек
Каналы                                   : 2 канала
Частота                                  : 44,1 КГц
Битовая глубина                          : 16 бит
Размер потока                            : 4,93 Мбайт (98%)
Дата кодирования                         : UTC 2013-02-03 13:04:00
Дата пометки                             : UTC 2013-02-03 13:07:47

Общее
Полное имя                               : C:\Users\User\Desktop\Various Artists-Django Unchained (2012) [ALAC]\I Giorni Dell'ira.m4a
Формат                                   : MPEG-4
Профиль формата                          : Apple audio with iTunes info
Идентификатор кодека                     : M4A
Размер файла                             : 20,4 Мбайт
Продолжительность                        : 3 м. 5 с.
Режим общего битрейта                    : Переменный
Общий поток                              : 922 Кбит/сек
Альбом                                   : Django Unchained
Альбом/Исполнитель                       : Django Unchained
Трек                                     : I Giorni Dell'ira
Трек/Положение                           : 11
Трек/Всего                               : 23
Исполнитель                              : Riziero Ortolani
Жанр                                     : Soundtrack
Дата записи                              : 2012
Дата кодирования                         : UTC 2013-02-03 13:03:20
Дата пометки                             : UTC 2013-02-03 13:07:47
Программа кодирования                    : iTunes 11.0.1.12
Обложка                                  : Yes
Encoding Params                          : vers

Аудио
Идентификатор                            : 1
Формат                                   : ALAC
Идентификатор кодека                     : alac
Идентификатор кодека/Информация          : Apple Lossless Audio Codec
Продолжительность                        : 3 м. 5 с.
Duration_LastFrame                       : -53 мс.
Вид битрейта                             : Переменный
Битрейт                                  : 917 Кбит/сек
Каналы                                   : 2 канала
Частота                                  : 44,1 КГц
Битовая глубина                          : 16 бит
Размер потока                            : 20,3 Мбайт (99%)
Дата кодирования                         : UTC 2013-02-03 13:03:20
Дата пометки                             : UTC 2013-02-03 13:07:47

Общее
Полное имя                               : C:\Users\User\Desktop\Various Artists-Django Unchained (2012) [ALAC]\I Got a Name.m4a
Формат                                   : MPEG-4
Профиль формата                          : Apple audio with iTunes info
Идентификатор кодека                     : M4A
Размер файла                             : 21,2 Мбайт
Продолжительность                        : 3 м. 15 с.
Режим общего битрейта                    : Переменный
Общий поток                              : 913 Кбит/сек
Альбом                                   : Django Unchained
Альбом/Исполнитель                       : Django Unchained
Трек                                     : I Got a Name
Трек/Положение                           : 10
Трек/Всего                               : 23
Исполнитель                              : Jim Croce
Жанр                                     : Soundtrack
Дата записи                              : 2012
Дата кодирования                         : UTC 2013-02-03 13:00:29
Дата пометки                             : UTC 2013-02-03 13:07:44
Программа кодирования                    : iTunes 11.0.1.12
Обложка                                  : Yes
Encoding Params                          : vers

Аудио
Идентификатор                            : 1
Формат                                   : ALAC
Идентификатор кодека                     : alac
Идентификатор кодека/Информация          : Apple Lossless Audio Codec
Продолжительность                        : 3 м. 15 с.
Duration_LastFrame                       : -87 мс.
Вид битрейта                             : Переменный
Битрейт                                  : 907 Кбит/сек
Каналы                                   : 2 канала
Частота                                  : 44,1 КГц
Битовая глубина                          : 16 бит
Размер потока                            : 21,1 Мбайт (99%)
Дата кодирования                         : UTC 2013-02-03 13:00:29
Дата пометки                             : UTC 2013-02-03 13:07:44

Общее
Полное имя                               : C:\Users\User\Desktop\Various Artists-Django Unchained (2012) [ALAC]\La Corsa (2nd Version).m4a
Формат                                   : MPEG-4
Профиль формата                          : Apple audio with iTunes info
Идентификатор кодека                     : M4A
Размер файла                             : 14,1 Мбайт
Продолжительность                        : 2 м. 18 с.
Режим общего битрейта                    : Переменный
Общий поток                              : 851 Кбит/сек
Альбом                                   : Django Unchained
Альбом/Исполнитель                       : Django Unchained
Трек                                     : La Corsa (2nd Version)
Трек/Положение                           : 8
Трек/Всего                               : 23
Исполнитель                              : Luis Bacalov
Жанр                                     : Soundtrack
Дата записи                              : 2012
Дата кодирования                         : UTC 2013-02-03 13:02:46
Дата пометки                             : UTC 2013-02-03 13:07:45
Программа кодирования                    : iTunes 11.0.1.12
Обложка                                  : Yes
Encoding Params                          : vers

Аудио
Идентификатор                            : 1
Формат                                   : ALAC
Идентификатор кодека                     : alac
Идентификатор кодека/Информация          : Apple Lossless Audio Codec
Продолжительность                        : 2 м. 18 с.
Duration_LastFrame                       : -15 мс.
Вид битрейта                             : Переменный
Битрейт                                  : 845 Кбит/сек
Каналы                                   : 2 канала
Частота                                  : 44,1 КГц
Битовая глубина                          : 16 бит
Размер потока                            : 14,0 Мбайт (99%)
Дата кодирования                         : UTC 2013-02-03 13:02:46
Дата пометки                             : UTC 2013-02-03 13:07:45

Общее
Полное имя                               : C:\Users\User\Desktop\Various Artists-Django Unchained (2012) [ALAC]\Lo Chiamavano King (His Name Is King).m4a
Формат                                   : MPEG-4
Профиль формата                          : Apple audio with iTunes info
Идентификатор кодека                     : M4A
Размер файла                             : 12,4 Мбайт
Продолжительность                        : 1 м. 58 с.
Режим общего битрейта                    : Переменный
Общий поток                              : 880 Кбит/сек
Альбом                                   : Django Unchained
Альбом/Исполнитель                       : Django Unchained
Трек                                     : Lo Chiamavano King (His Name Is King)
Трек/Положение                           : 5
Трек/Всего                               : 23
Исполнитель                              : Luis Bacalov & Edda Orso
Жанр                                     : Soundtrack
Дата записи                              : 2012
Дата кодирования                         : UTC 2013-02-03 13:02:05
Дата пометки                             : UTC 2013-02-03 13:07:45
Программа кодирования                    : iTunes 11.0.1.12
Обложка                                  : Yes
Encoding Params                          : vers

Аудио
Идентификатор                            : 1
Формат                                   : ALAC
Идентификатор кодека                     : alac
Идентификатор кодека/Информация          : Apple Lossless Audio Codec
Продолжительность                        : 1 м. 58 с.
Duration_LastFrame                       : -48 мс.
Вид битрейта                             : Переменный
Битрейт                                  : 872 Кбит/сек
Каналы                                   : 2 канала
Частота                                  : 44,1 КГц
Битовая глубина                          : 16 бит
Размер потока                            : 12,3 Мбайт (99%)
Дата кодирования                         : UTC 2013-02-03 13:02:05
Дата пометки                             : UTC 2013-02-03 13:07:45

Общее
Полное имя                               : C:\Users\User\Desktop\Various Artists-Django Unchained (2012) [ALAC]\Nicaragua.m4a
Формат                                   : MPEG-4
Профиль формата                          : Apple audio with iTunes info
Идентификатор кодека                     : M4A
Размер файла                             : 22,8 Мбайт
Продолжительность                        : 3 м. 29 с.
Режим общего битрейта                    : Переменный
Общий поток                              : 916 Кбит/сек
Альбом                                   : Django Unchained
Альбом/Исполнитель                       : Django Unchained
Трек                                     : Nicaragua
Трек/Положение                           : 13
Трек/Всего                               : 23
Исполнитель                              : Jerry Goldsmith feat. Pat Metheny
Жанр                                     : Soundtrack
Дата записи                              : 2012
Дата кодирования                         : UTC 2013-02-03 13:03:51
Дата пометки                             : UTC 2013-02-03 13:07:44
Программа кодирования                    : iTunes 11.0.1.12
Обложка                                  : Yes
Encoding Params                          : vers

Аудио
Идентификатор                            : 1
Формат                                   : ALAC
Идентификатор кодека                     : alac
Идентификатор кодека/Информация          : Apple Lossless Audio Codec
Продолжительность                        : 3 м. 29 с.
Duration_LastFrame                       : -85 мс.
Вид битрейта                             : Переменный
Битрейт                                  : 911 Кбит/сек
Каналы                                   : 2 канала
Частота                                  : 44,1 КГц
Битовая глубина                          : 16 бит
Размер потока                            : 22,7 Мбайт (100%)
Дата кодирования                         : UTC 2013-02-03 13:03:51
Дата пометки                             : UTC 2013-02-03 13:07:44

Общее
Полное имя                               : C:\Users\User\Desktop\Various Artists-Django Unchained (2012) [ALAC]\Sister Sara's Theme.m4a
Формат                                   : MPEG-4
Профиль формата                          : Apple audio with iTunes info
Идентификатор кодека                     : M4A
Размер файла                             : 5,54 Мбайт
Продолжительность                        : 1 м. 27 с.
Режим общего битрейта                    : Переменный
Общий поток                              : 534 Кбит/сек
Альбом                                   : Django Unchained
Альбом/Исполнитель                       : Django Unchained
Трек                                     : Sister Sara's Theme
Трек/Положение                           : 15
Трек/Всего                               : 23
Исполнитель                              : Ennio Morricone
Жанр                                     : Soundtrack
Дата записи                              : 2012
Дата кодирования                         : UTC 2013-02-03 13:04:09
Дата пометки                             : UTC 2013-02-03 13:07:43
Программа кодирования                    : iTunes 11.0.1.12
Обложка                                  : Yes
Encoding Params                          : vers

Аудио
Идентификатор                            : 1
Формат                                   : ALAC
Идентификатор кодека                     : alac
Идентификатор кодека/Информация          : Apple Lossless Audio Codec
Продолжительность                        : 1 м. 27 с.
Duration_LastFrame                       : -81 мс.
Вид битрейта                             : Переменный
Битрейт                                  : 523 Кбит/сек
Каналы                                   : 2 канала
Частота                                  : 44,1 КГц
Битовая глубина                          : 16 бит
Размер потока                            : 5,43 Мбайт (98%)
Дата кодирования                         : UTC 2013-02-03 13:04:09
Дата пометки                             : UTC 2013-02-03 13:07:43

Общее
Полное имя                               : C:\Users\User\Desktop\Various Artists-Django Unchained (2012) [ALAC]\Six Shots Two Guns.m4a
Формат                                   : MPEG-4
Профиль формата                          : Apple audio with iTunes info
Идентификатор кодека                     : M4A
Размер файла                             : 535 Кбайт
Продолжительность                        : 5 с. 347 мс.
Режим общего битрейта                    : Переменный
Общий поток                              : 820 Кбит/сек
Альбом                                   : Django Unchained
Альбом/Исполнитель                       : Django Unchained
Трек                                     : Six Shots Two Guns
Трек/Положение                           : 22
Трек/Всего                               : 23
Исполнитель                              : Samuel L. Jackson & Jamie Foxx
Жанр                                     : Soundtrack
Дата записи                              : 2012
Дата кодирования                         : UTC 2013-02-03 13:00:39
Дата пометки                             : UTC 2013-02-03 13:07:47
Программа кодирования                    : iTunes 11.0.1.12
Обложка                                  : Yes
Encoding Params                          : vers

Аудио
Идентификатор                            : 1
Формат                                   : ALAC
Идентификатор кодека                     : alac
Идентификатор кодека/Информация          : Apple Lossless Audio Codec
Продолжительность                        : 5 с. 347 мс.
Duration_LastFrame                       : -40 мс.
Вид битрейта                             : Переменный
Битрейт                                  : 651 Кбит/сек
Каналы                                   : 2 канала
Частота                                  : 44,1 КГц
Битовая глубина                          : 16 бит
Размер потока                            : 428 Кбайт (80%)
Дата кодирования                         : UTC 2013-02-03 13:00:39
Дата пометки                             : UTC 2013-02-03 13:07:47

Общее
Полное имя                               : C:\Users\User\Desktop\Various Artists-Django Unchained (2012) [ALAC]\Sneaky Schultz and the Demise of Sharp.m4a
Формат                                   : MPEG-4
Профиль формата                          : Apple audio with iTunes info
Идентификатор кодека                     : M4A
Размер файла                             : 2,30 Мбайт
Продолжительность                        : 34 с.
Режим общего битрейта                    : Переменный
Общий поток                              : 564 Кбит/сек
Альбом                                   : Django Unchained
Альбом/Исполнитель                       : Django Unchained
Трек                                     : Sneaky Schultz and the Demise of Sharp
Трек/Положение                           : 9
Трек/Всего                               : 23
Исполнитель                              : Don Straud
Жанр                                     : Soundtrack
Дата записи                              : 2012
Дата кодирования                         : UTC 2013-02-03 13:03:03
Дата пометки                             : UTC 2013-02-03 13:07:41
Программа кодирования                    : iTunes 11.0.1.12
Обложка                                  : Yes
Encoding Params                          : vers

Аудио
Идентификатор                            : 1
Формат                                   : ALAC
Идентификатор кодека                     : alac
Идентификатор кодека/Информация          : Apple Lossless Audio Codec
Продолжительность                        : 34 с.
Duration_LastFrame                       : -6 мс.
Вид битрейта                             : Переменный
Битрейт                                  : 538 Кбит/сек
Каналы                                   : 2 канала
Частота                                  : 44,1 КГц
Битовая глубина                          : 16 бит
Размер потока                            : 2,20 Мбайт (95%)
Дата кодирования                         : UTC 2013-02-03 13:03:03
Дата пометки                             : UTC 2013-02-03 13:07:41

Общее
Полное имя                               : C:\Users\User\Desktop\Various Artists-Django Unchained (2012) [ALAC]\Stephen the Poker Player.m4a
Формат                                   : MPEG-4
Профиль формата                          : Apple audio with iTunes info
Идентификатор кодека                     : M4A
Размер файла                             : 4,76 Мбайт
Продолжительность                        : 1 м. 2 с.
Режим общего битрейта                    : Переменный
Общий поток                              : 639 Кбит/сек
Альбом                                   : Django Unchained
Альбом/Исполнитель                       : Django Unchained
Трек                                     : Stephen the Poker Player
Трек/Положение                           : 20
Трек/Всего                               : 23
Исполнитель                              : Samuel L. Jackson & Jamie Foxx
Жанр                                     : Soundtrack
Дата записи                              : 2012
Дата кодирования                         : UTC 2013-02-03 13:04:51
Дата пометки                             : UTC 2013-02-03 13:07:47
Программа кодирования                    : iTunes 11.0.1.12
Обложка                                  : Yes
Encoding Params                          : vers

Аудио
Идентификатор                            : 1
Формат                                   : ALAC
Идентификатор кодека                     : alac
Идентификатор кодека/Информация          : Apple Lossless Audio Codec
Продолжительность                        : 1 м. 2 с.
Duration_LastFrame                       : -55 мс.
Вид битрейта                             : Переменный
Битрейт                                  : 625 Кбит/сек
Каналы                                   : 2 канала
Частота                                  : 44,1 КГц
Битовая глубина                          : 16 бит
Размер потока                            : 4,66 Мбайт (98%)
Дата кодирования                         : UTC 2013-02-03 13:04:51
Дата пометки                             : UTC 2013-02-03 13:07:47

Общее
Полное имя                               : C:\Users\User\Desktop\Various Artists-Django Unchained (2012) [ALAC]\The Braying Mule.m4a
Формат                                   : MPEG-4
Профиль формата                          : Apple audio with iTunes info
Идентификатор кодека                     : M4A
Размер файла                             : 15,4 Мбайт
Продолжительность                        : 2 м. 33 с.
Режим общего битрейта                    : Переменный
Общий поток                              : 843 Кбит/сек
Альбом                                   : Django Unchained
Альбом/Исполнитель                       : Django Unchained
Трек                                     : The Braying Mule
Трек/Положение                           : 3
Трек/Всего                               : 23
Исполнитель                              : Ennio Morricone
Жанр                                     : Soundtrack
Дата записи                              : 2012
Дата кодирования                         : UTC 2013-02-03 13:00:27
Дата пометки                             : UTC 2013-02-03 13:07:42
Программа кодирования                    : iTunes 11.0.1.12
Обложка                                  : Yes
Encoding Params                          : vers

Аудио
Идентификатор                            : 1
Формат                                   : ALAC
Идентификатор кодека                     : alac
Идентификатор кодека/Информация          : Apple Lossless Audio Codec
Продолжительность                        : 2 м. 33 с.
Duration_LastFrame                       : -65 мс.
Вид битрейта                             : Переменный
Битрейт                                  : 837 Кбит/сек
Каналы                                   : 2 канала
Частота                                  : 44,1 КГц
Битовая глубина                          : 16 бит
Размер потока                            : 15,3 Мбайт (99%)
Дата кодирования                         : UTC 2013-02-03 13:00:27
Дата пометки                             : UTC 2013-02-03 13:07:42

Общее
Полное имя                               : C:\Users\User\Desktop\Various Artists-Django Unchained (2012) [ALAC]\Too Old to Die Young.m4a
Формат                                   : MPEG-4
Профиль формата                          : Apple audio with iTunes info
Идентификатор кодека                     : M4A
Размер файла                             : 23,1 Мбайт
Продолжительность                        : 3 м. 43 с.
Режим общего битрейта                    : Переменный
Общий поток                              : 869 Кбит/сек
Альбом                                   : Django Unchained
Альбом/Исполнитель                       : Django Unchained
Трек                                     : Too Old to Die Young
Трек/Положение                           : 19
Трек/Всего                               : 23
Исполнитель                              : Brother Dege (AKA Dege Legg)
Жанр                                     : Soundtrack
Дата записи                              : 2012
Дата кодирования                         : UTC 2013-02-03 13:04:38
Дата пометки                             : UTC 2013-02-03 13:07:41
Программа кодирования                    : iTunes 11.0.1.12
Обложка                                  : Yes
Encoding Params                          : vers

Аудио
Идентификатор                            : 1
Формат                                   : ALAC
Идентификатор кодека                     : alac
Идентификатор кодека/Информация          : Apple Lossless Audio Codec
Продолжительность                        : 3 м. 43 с.
Duration_LastFrame                       : -70 мс.
Вид битрейта                             : Переменный
Битрейт                                  : 865 Кбит/сек
Каналы                                   : 2 канала
Частота                                  : 44,1 КГц
Битовая глубина                          : 16 бит
Размер потока                            : 23,0 Мбайт (100%)
Дата кодирования                         : UTC 2013-02-03 13:04:38
Дата пометки                             : UTC 2013-02-03 13:07:41

Общее
Полное имя                               : C:\Users\User\Desktop\Various Artists-Django Unchained (2012) [ALAC]\Trinity- Titoli.m4a
Формат                                   : MPEG-4
Профиль формата                          : Apple audio with iTunes info
Идентификатор кодека                     : M4A
Размер файла                             : 19,8 Мбайт
Продолжительность                        : 3 м. 3 с.
Режим общего битрейта                    : Переменный
Общий поток                              : 904 Кбит/сек
Альбом                                   : Django Unchained
Альбом/Исполнитель                       : Django Unchained
Трек                                     : Trinity: Titoli
Трек/Положение                           : 23
Трек/Всего                               : 23
Исполнитель                              : Annibale E I Cantori Moderni
Жанр                                     : Soundtrack
Дата записи                              : 2012
Дата кодирования                         : UTC 2013-02-03 13:00:42
Дата пометки                             : UTC 2013-02-03 13:07:40
Программа кодирования                    : iTunes 11.0.1.12
Обложка                                  : Yes
Encoding Params                          : vers

Аудио
Идентификатор                            : 1
Формат                                   : ALAC
Идентификатор кодека                     : alac
Идентификатор кодека/Информация          : Apple Lossless Audio Codec
Продолжительность                        : 3 м. 3 с.
Duration_LastFrame                       : -9 мс.
Вид битрейта                             : Переменный
Битрейт                                  : 899 Кбит/сек
Каналы                                   : 2 канала
Частота                                  : 44,1 КГц
Битовая глубина                          : 16 бит
Размер потока                            : 19,7 Мбайт (99%)
Дата кодирования                         : UTC 2013-02-03 13:00:42
Дата пометки                             : UTC 2013-02-03 13:07:40

Общее
Полное имя                               : C:\Users\User\Desktop\Various Artists-Django Unchained (2012) [ALAC]\Un Monumento.m4a
Формат                                   : MPEG-4
Профиль формата                          : Apple audio with iTunes info
Идентификатор кодека                     : M4A
Размер файла                             : 17,0 Мбайт
Продолжительность                        : 2 м. 31 с.
Режим общего битрейта                    : Переменный
Общий поток                              : 943 Кбит/сек
Альбом                                   : Django Unchained
Альбом/Исполнитель                       : Django Unchained
Трек                                     : Un Monumento
Трек/Положение                           : 21
Трек/Всего                               : 23
Исполнитель                              : Ennio Morricone
Жанр                                     : Soundtrack
Дата записи                              : 2012
Дата кодирования                         : UTC 2013-02-03 13:00:36
Дата пометки                             : UTC 2013-02-03 13:07:43
Программа кодирования                    : iTunes 11.0.1.12
Обложка                                  : Yes
Encoding Params                          : vers

Аудио
Идентификатор                            : 1
Формат                                   : ALAC
Идентификатор кодека                     : alac
Идентификатор кодека/Информация          : Apple Lossless Audio Codec
Продолжительность                        : 2 м. 31 с.
Duration_LastFrame                       : -60 мс.
Вид битрейта                             : Переменный
Битрейт                                  : 936 Кбит/сек
Каналы                                   : 2 канала
Частота                                  : 44,1 КГц
Битовая глубина                          : 16 бит
Размер потока                            : 16,9 Мбайт (99%)
Дата кодирования                         : UTC 2013-02-03 13:00:36
Дата пометки                             : UTC 2013-02-03 13:07:43

Общее
Полное имя                               : C:\Users\User\Desktop\Various Artists-Django Unchained (2012) [ALAC]\Unchained (The Payback - Untouchable).m4a
Формат                                   : MPEG-4
Профиль формата                          : Apple audio with iTunes info
Идентификатор кодека                     : M4A
Размер файла                             : 19,2 Мбайт
Продолжительность                        : 2 м. 51 с.
Режим общего битрейта                    : Переменный
Общий поток                              : 937 Кбит/сек
Альбом                                   : Django Unchained
Альбом/Исполнитель                       : Django Unchained
Трек                                     : Unchained (The Payback / Untouchable)
Трек/Положение                           : 17
Трек/Всего                               : 23
Исполнитель                              : James Brown & 2Pac
Жанр                                     : Soundtrack
Дата записи                              : 2012
Дата кодирования                         : UTC 2013-02-03 13:04:18
Дата пометки                             : UTC 2013-02-03 13:07:43
Программа кодирования                    : iTunes 11.0.1.12
Обложка                                  : Yes
Encoding Params                          : vers

Аудио
Идентификатор                            : 1
Формат                                   : ALAC
Идентификатор кодека                     : alac
Идентификатор кодека/Информация          : Apple Lossless Audio Codec
Продолжительность                        : 2 м. 51 с.
Duration_LastFrame                       : -69 мс.
Вид битрейта                             : Переменный
Битрейт                                  : 932 Кбит/сек
Каналы                                   : 2 канала
Частота                                  : 44,1 КГц
Битовая глубина                          : 16 бит
Размер потока                            : 19,1 Мбайт (99%)
Дата кодирования                         : UTC 2013-02-03 13:04:18
Дата пометки                             : UTC 2013-02-03 13:07:43

Общее
Полное имя                               : C:\Users\User\Desktop\Various Artists-Django Unchained (2012) [ALAC]\Who Did That to You.m4a
Формат                                   : MPEG-4
Профиль формата                          : Apple audio with iTunes info
Идентификатор кодека                     : M4A
Размер файла                             : 25,1 Мбайт
Продолжительность                        : 3 м. 48 с.
Режим общего битрейта                    : Переменный
Общий поток                              : 922 Кбит/сек
Альбом                                   : Django Unchained
Альбом/Исполнитель                       : Django Unchained
Трек                                     : Who Did That to You?
Трек/Положение                           : 18
Трек/Всего                               : 23
Исполнитель                              : John Legend
Жанр                                     : Soundtrack
Дата записи                              : 2012
Дата кодирования                         : UTC 2013-02-03 13:04:26
Дата пометки                             : UTC 2013-02-03 13:07:45
Программа кодирования                    : iTunes 11.0.1.12
Обложка                                  : Yes
Encoding Params                          : vers

Аудио
Идентификатор                            : 1
Формат                                   : ALAC
Идентификатор кодека                     : alac
Идентификатор кодека/Информация          : Apple Lossless Audio Codec
Продолжительность                        : 3 м. 48 с.
Duration_LastFrame                       : -43 мс.
Вид битрейта                             : Переменный
Битрейт                                  : 918 Кбит/сек
Каналы                                   : 2 канала
Частота                                  : 44,1 КГц
Битовая глубина                          : 16 бит
Размер потока                            : 25,0 Мбайт (100%)
Дата кодирования                         : UTC 2013-02-03 13:04:26
Дата пометки                             : UTC 2013-02-03 13:07:45

Общее
Полное имя                               : C:\Users\User\Desktop\Various Artists-Django Unchained (2012) [ALAC]\Who Did That to You.m4a.png
Формат                                   : PNG
Формат/Информация                        : Portable Network Graphic
Размер файла                             : 89,6 Кбайт

Изображения
Формат                                   : PNG
Формат/Информация                        : Portable Network Graphic
Ширина                                   : 544 пикселя
Высота                                   : 357 пикселей
Битовая глубина                          : 8 бит
Метод сжатия                             : Без потерь
Размер потока                            : 89,6 Кбайт (100%)

Общее
Полное имя                               : C:\Users\User\Desktop\Various Artists-Django Unchained (2012) [ALAC]\Winged.m4a
Формат                                   : MPEG-4
Профиль формата                          : Apple audio with iTunes info
Идентификатор кодека                     : M4A
Размер файла                             : 683 Кбайт
Продолжительность                        : 8 с. 573 мс.
Режим общего битрейта                    : Переменный
Общий поток                              : 652 Кбит/сек
Альбом                                   : Django Unchained
Альбом/Исполнитель                       : Django Unchained
Трек                                     : Winged
Трек/Положение                           : 1
Трек/Всего                               : 23
Исполнитель                              : James Russo
Жанр                                     : Soundtrack
Дата записи                              : 2012
Дата кодирования                         : UTC 2013-02-03 12:59:44
Дата пометки                             : UTC 2013-02-03 13:07:43
Программа кодирования                    : iTunes 11.0.1.12
Обложка                                  : Yes
Encoding Params                          : vers

Аудио
Идентификатор                            : 1
Формат                                   : ALAC
Идентификатор кодека                     : alac
Идентификатор кодека/Информация          : Apple Lossless Audio Codec
Продолжительность                        : 8 с. 573 мс.
Duration_LastFrame                       : -64 мс.
Вид битрейта                             : Переменный
Битрейт                                  : 546 Кбит/сек
Каналы                                   : 2 канала
Частота                                  : 44,1 КГц
Битовая глубина                          : 16 бит
Размер потока                            : 575 Кбайт (84%)
Дата кодирования                         : UTC 2013-02-03 12:59:44
Дата пометки                             : UTC 2013-02-03 13:07:43

Код:
-----------------------

DON'T MODIFY THIS FILE

-----------------------

PERFORMER: auCDtect Task Manager, ver. 1.6.0 RC1 build 1.6.0.1
Copyright (c) 2008-2010 y-soft. All rights reserved
http://y-soft.org

ANALYZER: auCDtect: CD records authenticity detector, version 0.8.2
Copyright (c) 2004 Oleg Berngardt. All rights reserved.
Copyright (c) 2004 Alexander Djourik. All rights reserved.

FILE: Winged.m4a
  Size: 698916 Hash: 272D45BCF7BEBFF49FF3CD2286730352 Accuracy: -m0
  Conclusion: CDDA 100%
  Signature: C5281DB072DA82B93DC0A32E0D47152F3A4770F1
FILE: Who Did That to You.m4a
  Size: 26366879 Hash: 531377C0F835D3A794DC52073E428DD2 Accuracy: -m0
  Conclusion: MPEG 95%
  Signature: FD9F9D656FAA98550F4983DC30106514C6D8E6C8
FILE: Unchained (The Payback - Untouchable).m4a
  Size: 20104100 Hash: E94A1DC06519B40BAC3E81DAC0185936 Accuracy: -m0
  Conclusion: CDDA 100%
  Signature: FDB93FDC2A3D093483C5BF87970D644261E234BF
FILE: Un Monumento.m4a
  Size: 17844419 Hash: F2674578CAC5FB5D008838958ABE27EF Accuracy: -m0
  Conclusion: CDDA 100%
  Signature: A20BD9822FEC78BB78DF9C3FEFCAC0D5343A505A
FILE: Trinity- Titoli.m4a
  Size: 20766903 Hash: A4FD2656BF8028662B34AC49F87EC704 Accuracy: -m0
  Conclusion: CDDA 100%
  Signature: 5C073DEA334FFA43BCB98C99BD1DCF37D0542AE4
FILE: Too Old to Die Young.m4a
  Size: 24252723 Hash: FD28B3BE4863D8803D765C3F48178EB1 Accuracy: -m0
  Conclusion: CDDA 100%
  Signature: EA8D2858560FEE5C11B19DABCDF2B18E157F6110
FILE: The Braying Mule.m4a
  Size: 16147270 Hash: 825348D0CBFE8C74210C46A911E27F30 Accuracy: -m0
  Conclusion: CDDA 100%
  Signature: EEFB267590730E32BF1823C90ABFB18779CCCEF5
FILE: Stephen the Poker Player.m4a
  Size: 4992224 Hash: 1A8B0C9FEE963D90C84FD61BE78639FC Accuracy: -m0
  Conclusion: CDDA 99%
  Signature: 148CE9555AAD78B3EB970EC7033519C173ABD627
FILE: Sneaky Schultz and the Demise of Sharp.m4a
  Size: 2415822 Hash: 406427056FA634CB49CAE5F4EBB3389C Accuracy: -m0
  Conclusion: CDDA 100%
  Signature: 7456F1B36E8C22F9A44E082894417AF6400DE164
FILE: Six Shots Two Guns.m4a
  Size: 547925 Hash: D1BC51A2C6FB3AF54A0FBCE1010C2E89 Accuracy: -m0
  Conclusion: CDDA 100%
  Signature: C72A299DEF92D2F3977A986464D19984AE17DD12
FILE: Sister Sara's Theme.m4a
  Size: 5805657 Hash: E07197A8C147EFDDEBD787EF348DE2E6 Accuracy: -m0
  Conclusion: CDDA 100%
  Signature: 074797B4D8DBAD7F73F8D2A10F3945BF40D6ED62
FILE: Nicaragua.m4a
  Size: 23954909 Hash: B997851E08769B1B4BF4A72C6728482D Accuracy: -m0
  Conclusion: CDDA 100%
  Signature: DFD1E53538A473839492CC7C41E2D72700A67334
FILE: Lo Chiamavano King (His Name Is King).m4a
  Size: 13048160 Hash: 760B4AAB7EAF0ECA268896E72C407844 Accuracy: -m0
  Conclusion: CDDA 100%
  Signature: EA4EFA04ED50884BE7EBB6EA9C64C84344F46D1C
FILE: La Corsa (2nd Version).m4a
  Size: 14774965 Hash: EC39DC4CE03B64F8D0D685F289A9C605 Accuracy: -m0
  Conclusion: CDDA 100%
  Signature: 3078240D733C5EB11EB11F5B8E5AAC2C3AD49417
FILE: I Got a Name.m4a
  Size: 22253892 Hash: 20A3C98FBE716AE10FE14CF31F0E9568 Accuracy: -m0
  Conclusion: CDDA 100%
  Signature: B2B3A82A91E9100B1E994400C2D57B58DD825C63
FILE: I Giorni Dell'ira.m4a
  Size: 21421346 Hash: 66EBBE96369752E1E3A8CAE616DC307B Accuracy: -m0
  Conclusion: CDDA 100%
  Signature: 6D7653A366A39672E639425E0604009357AB85BF
FILE: Hildi's Hot Box.m4a
  Size: 5284538 Hash: FEABB9CF95C5A0BCBBAD7CC6FCE53428 Accuracy: -m0
  Conclusion: CDDA 100%
  Signature: 41743C62FD77BE093F1F0C3143B5EFCA2EE24D20
FILE: Freedom.m4a
  Size: 24074324 Hash: 028DD31F87E2E97B9D6AB464284D4B0D Accuracy: -m0
  Conclusion: MPEG 95%
  Signature: 4EE808706B8C64E1ABE21207B84F0A84BFB21C50
FILE: Five-Thousand-Dollar Nigga's and Gummy Mouth Bitches.m4a
  Size: 4863037 Hash: A1B8A9DA2C13EBE116D716EFF51C8B00 Accuracy: -m0
  Conclusion: CDDA 100%
  Signature: 7C3C346020CE65B0BE762866D8CF328841C74F9E
FILE: Django.m4a
  Size: 20929504 Hash: FD31AFA375A410BCFBC50A4665524C05 Accuracy: -m0
  Conclusion: CDDA 100%
  Signature: AF5D5F0E45454B90D4FF654D00D4FB801E5FC2B9
FILE: Ancora Qui.m4a
  Size: 29173010 Hash: 986BCCBAAFA0EFF6E4DD0BBA5D2CDFD2 Accuracy: -m0
  Conclusion: MPEG 95%
  Signature: DB058C62791BEDB487D76D1E5A52E3733073B58A
FILE: 100 Black Coffins.m4a
  Size: 26342703 Hash: A327A3261CA3FCEB782CB488521DD905 Accuracy: -m0
  Conclusion: CDDA 100%
  Signature: AFD451E992F68AB54B5EC5F8BC6B320786206C26
FILE: ''In That Case Django, After You...''.m4a
  Size: 2618756 Hash: 8C68889BC283CE9D2D41A4BCC6ECE58B Accuracy: -m0
  Conclusion: CDDA 100%
  Signature: FD56CBB62F9B0DC18A5EADDA0289A5CBB2378CAE
Время раздачи: 24/7 до 3 скачавших
[NNM-Club.ru]_Various Artists-Django Unchained (2012) [ALAC].torrent
 Торрент: Платиновая раздача  Зарегистрирован
 
Скачать


 Зарегистрирован:   25 Май 2013 13:54:13
 Размер:   333 MB  (
 Рейтинг:   4.8 (Голосов: 33)
 Поблагодарили:   109
 Проверка:   Оформление проверено модератором 25 Май 2013 17:44:51
Как cкачать  ·  Как раздать  ·  Правильно оформить  ·  Поднять ратио!  
lookonthemoon
Стаж: 9 лет 5 мес.
Сообщений: 106
Ratio: 3.353
100%
Отличнейшая музыка и в качестве - спасибо! ;)
drobovik12
Покровитель талантов
Стаж: 11 лет 5 мес.
Сообщений: 133
Ratio: 50.09
Поблагодарили: 2469
100%
Откуда: NetLab
+1
Именно после прослушивания данного сборника я открыл для себя Brother Dege =)

_________________
wv-99
Стаж: 9 лет 7 мес.
Сообщений: 5
Ratio: 2.545
100%
скорость 1 кб/с
Показать сообщения:   
Начать новую тему   Ответить на тему    Торрент-трекер NNM-Club -> Аудио и Видео -> Музыка Lossless (ALAC) Часовой пояс: GMT + 3
Страница 1 из 1