Классический форум-трекер
canvas not supported
Нас вместе: 4 233 375

Открытая дорога / Open Road (2013) BDRip [1080p] [VO]


 
 
RSS
Начать новую тему   Ответить на тему    Торрент-трекер NNM-Club -> Архив торрентов -> Архив Видео. Кино, Театра
Автор Сообщение
GIU ®
Uploader 100+
Стаж: 14 лет
Сообщений: 3474
Ratio: 4669.905
Поблагодарили: 777798
100%
ussr.gif
Открытая дорога / Open Road (2013) BDRip
Год выпуска: 2013
Производство: США, Бразилия | BB Film Productions, Society Entertainment, Marcio Garcia Producoes
Жанр: Боевик, Триллер, Драма
Перевод: Одноголосый закадровый, любительский [den904]
Субтитры: Вшитые отключаемые
Язык субтитров: Английский
Дата мировой премьеры: 12 апреля 2013
Режиссер: Марсиу Гарсия
Продюсер: Джулия Камара, Марсиу Гарсия, Черелл Джордж, Фабио Голомбек, Энн Гурсод
Актеры: Джульетт Льюис, Камилла Белле, Колин Эглсфилд, Энди Гарсиа, Джон Сэведж, Ингрид Роджерс, Кристи Клэйнос, Майкл Кинг, Крэйг Геллис, Теа Эмили Нельсон, Майкл Карделль, Крисси Гриффит, Дженифер Камбра, Кристиан Торлони, Карол Кастро
Описание фильма:
Молодая бразильская художница Анжи, пытаясь расстаться со свой прежней жизнью, отправляется в путешествие по стране. Убегая от своего прошлого в поисках смысла жизни, Анжи находит не только себя, но и любовь в ее многочисленных формах…


Продолжительность: 01:25:16
Качество видео: BDRip 1080p [CHD]

Видеокодек: MPEG-4 AVC/H.264
Битрейт видео: ~ 11,8 Мбит/сек
Размер кадра: 1920 x 816 (2.353) at 23.976 fps : 0.314 Bits/Pixel
Аудиокодек: AC3 5.1 | DTS
Аудио #1: AC3 448 Кбит/сек (6ch), 48,0 КГц, 16 бит [Русский, VO den904]
Аудио #2: DTS 1509 Кбит/сек (6ch), 48,0 КГц, 24 бит [Английский]
Дополнительно: Сохранены оригинальные чаптеры как на Blu-ray
Релиз:
Код: выделить все

Уникальный идентификатор                 : 224855474820314536645755583686035456200 (0xA92996D69209AB3B87E166F9EC2D40C8)
Полное имя                               : H:\Открытая дорога  Open Road (2013) BDRip [720-1080p]\Open Road.2013.BDRip.1080p.mkv
Формат                                   : Matroska
Версия формата                           : Version 2
Размер файла                             : 8,16 Гбайт
Продолжительность                        : 1 ч. 25 м.
Общий поток                              : 13,7 Мбит/сек
Название фильма                          : Open.Road.2012.BluRay.1080p.DTS.x264-CHD
Дата кодирования                         : UTC 2013-07-26 00:01:50
Программа кодирования                    : mkvmerge v2.9.9 ('Tutu') built on Nov 25 2009 21:13:32
Библиотека кодирования                   : libebml v0.7.9 + libmatroska v0.8.1

Видео
Идентификатор                            : 1
Формат                                   : AVC
Формат/Информация                        : Advanced Video Codec
Профиль формата                          : High@L4.1
Параметр CABAC формата                   : Да
Параметр ReFrames формата                : 5 кадров
Идентификатор кодека                     : V_MPEG4/ISO/AVC
Продолжительность                        : 1 ч. 25 м.
Битрейт                                  : 11,8 Мбит/сек
Ширина                                   : 1920 пикселей
Высота                                   : 816 пикселей
Соотношение сторон                       : 2,35:1
Режим частоты кадров                     : Постоянный
Частота кадров                           : 23,976 кадра/сек
Цветовое пространство                    : YUV
Субдискретизация насыщенности            : 4:2:0
Битовая глубина                          : 8 бит
Тип развёртки                            : Прогрессивная
Бит/(Пиксели*Кадры)                      : 0.314
Размер потока                            : 6,83 Гбайт (84%)
Заголовок                                : -=nnm-club.me=-
Библиотека кодирования                   : x264 core 129 r2245+729M 1a52e03
Настройки программы                      : cabac=1 / ref=5 / deblock=1:1:1 / analyse=0x3:0x113 / me=umh / subme=10 / psy=1 / fade_compensate=0.00 / psy_rd=1.05:0.10 / mixed_ref=1 / me_range=48 / chroma_me=1 / trellis=2 / 8x8dct=1 / cqm=0 / deadzone=21,11 / fast_pskip=0 / chroma_qp_offset=-2 / threads=12 / lookahead_threads=1 / sliced_threads=0 / nr=0 / decimate=1 / interlaced=0 / bluray_compat=0 / constrained_intra=0 / fgo=0 / bframes=6 / b_pyramid=2 / b_adapt=2 / b_bias=0 / direct=3 / weightb=1 / open_gop=0 / weightp=2 / keyint=250 / keyint_min=23 / scenecut=40 / intra_refresh=0 / rc=2pass / mbtree=0 / bitrate=11792 / ratetol=2.0 / qcomp=0.70 / qpmin=0 / qpmax=69 / qpstep=4 / cplxblur=20.0 / qblur=0.5 / ip_ratio=1.40 / pb_ratio=1.30 / aq=2:1.00
Язык                                     : English
Default                                  : Нет
Forced                                   : Нет

Аудио #1
Идентификатор                            : 2
Формат                                   : AC-3
Формат/Информация                        : Audio Coding 3
Расширение режима                        : CM (complete main)
Параметр Endianness формата              : Big
Идентификатор кодека                     : A_AC3
Продолжительность                        : 1 ч. 25 м.
Вид битрейта                             : Постоянный
Битрейт                                  : 448 Кбит/сек
Каналы                                   : 6 каналов
Расположение каналов                     : Front: L C R, Side: L R, LFE
Частота                                  : 48,0 КГц
Битовая глубина                          : 16 бит
Метод сжатия                             : С потерями
Размер потока                            : 273 Мбайт (3%)
Заголовок                                : AC3.448.Kbps (6ch) Russian [den904]
Язык                                     : Russian
Default                                  : Да
Forced                                   : Нет

Аудио #2
Идентификатор                            : 3
Формат                                   : DTS
Формат/Информация                        : Digital Theater Systems
Режим                                    : 16
Параметр Endianness формата              : Big
Идентификатор кодека                     : A_DTS
Продолжительность                        : 1 ч. 25 м.
Вид битрейта                             : Постоянный
Битрейт                                  : 1509 Кбит/сек
Каналы                                   : 6 каналов
Расположение каналов                     : Front: L C R, Side: L R, LFE
Частота                                  : 48,0 КГц
Битовая глубина                          : 24 бит
Метод сжатия                             : С потерями
Задержка видео                           : 11 мс.
Размер потока                            : 920 Мбайт (11%)
Заголовок                                : DTS.1509.Kbps (6ch) English
Язык                                     : English
Default                                  : Нет
Forced                                   : Нет

Текст
Идентификатор                            : 4
Формат                                   : UTF-8
Идентификатор кодека                     : S_TEXT/UTF8
Идентификатор кодека/Информация          : UTF-8 Plain Text
Заголовок                                : English (Full)
Язык                                     : English
Default                                  : Нет
Forced                                   : Нет

Меню
00:00:00.000                             : en:00:00:00.000
00:04:48.455                             : en:00:04:48.455
00:10:31.339                             : en:00:10:31.339
00:14:34.123                             : en:00:14:34.123
00:18:52.423                             : en:00:18:52.423
00:24:10.199                             : en:00:24:10.199
00:29:27.474                             : en:00:29:27.474
00:35:17.407                             : en:00:35:17.407
00:38:15.877                             : en:00:38:15.877
00:41:08.049                             : en:00:41:08.049
00:44:16.779                             : en:00:44:16.779
00:48:51.887                             : en:00:48:51.887
00:53:26.870                             : en:00:53:26.870
00:58:28.630                             : en:00:58:28.630
01:03:51.327                             : en:01:03:51.327
01:05:41.521                             : en:01:05:41.521
01:10:29.559                             : en:01:10:29.559
01:13:46.422                             : en:01:13:46.422
01:19:04.865                             : en:01:19:04.865
01:21:44.483                             : en:01:21:44.483

x264 [info]: frame I:771 Avg QP:11.90 size:185824
x264 [info]: frame P:27417 Avg QP:14.02 size: 83139
x264 [info]: frame B:94486 Avg QP:16.02 size: 38187
Скриншоты:









Все релизы Открытая дорога на NNM-CLUB
Время раздачи: 24/7 (до 10 скачавших)
[NNM-Club.ru]_Open Road.2013.BDRip.1080p.mkv.torrent
 Торрент: Платиновая раздача  Зарегистрирован
 
Скачать


Примагнититься
 Зарегистрирован:   26 Июл 2013 03:30:41
 Размер:   8.16 GB  (
 Рейтинг:   4.5 (Голосов: 31)
 Поблагодарили:   155
 Проверка:   Оформление проверено модератором 27 Июл 2013 09:57:01
Как cкачать  ·  Как раздать  ·  Правильно оформить  ·  Поднять ратио!  
Maximus
Вольный стрелок
Uploader 100+
Стаж: 17 лет 7 мес.
Сообщений: 5145
Ratio: 25.191
Поблагодарили: 13240
100%
nnm-club.gif
Красиво снятая и неплохо сделанная история, с правильной и, главное, ненавязчивой моралью и замечательной актёрской игрой. И что очень хорошо — фильм не затянут и смотрится, в общем, на одном дыхании.
Релизеру спасибо!

_________________
«Если ты ненавидишь, значит тебя победили» – Конфуций
zvon23
Стаж: 15 лет 2 мес.
Сообщений: 272
Ratio: 18.319
Поблагодарили: 65
3.72%
ukraine.gif
Любовь в многочисленных формах.... Это, наверное, к Родине, природе.....
atatree
Стаж: 13 лет 10 мес.
Сообщений: 198
Ratio: 3.867
75.56%
zvon23 писал(а): Перейти к сообщению
Любовь в многочисленных формах.... Это, наверное, к Родине, природе.....

Скорее всего на Родине, на природе... на полях и лугах.
Топик был перенесен из форума Зарубежные Фильмы (HD, UHD-LQ) в форум Архив Видео



Исправил релиз - напиши ЛС karfagen1975, дав ссылку на релиз.
Если нет ответа 24 часа - нажми на кнопку "Обратить внимание модераторов".
Показать сообщения:   
Начать новую тему   Ответить на тему    Торрент-трекер NNM-Club -> Архив торрентов -> Архив Видео. Кино, Театра Часовой пояс: GMT + 3
Страница 1 из 1