Классический форум-трекер
canvas not supported
Нас вместе: 4 233 394

Сезон убийц / Killing Season (2013) BDRemux [1080p] [VO]


 
 
RSS
Начать новую тему   Ответить на тему    Торрент-трекер NNM-Club -> Архив торрентов -> Архив Видео. Кино, Театра
Автор Сообщение
Луць ®
Стаж: 11 лет 5 мес.
Сообщений: 880
Ratio: 649.72
Раздал: 52.25 TB
Поблагодарили: 47589
100%
Откуда: г.Луцк
ukraine.gif
Сезон убийц / Killing Season (2013) BDRemux
Год выпуска: 2013
Производство: Бельгия, Corsan, Millennium Films
Жанр: Триллер, Драма, Боевик

Перевод: Одноголосый закадровый, любительский
Субтитры: Отсутствуют

Режиссер: Марк Стивен Джонсон
Продюсер: Пол Брюлс, Эд Кэйтелл III, Энтони Рулен
Актеры: Джон Траволта, Роберт Де Ниро, Майло Вентимилья, Элизабет Олин, Диана Любенова, Стефан Штерев

Описание фильма:
История о ветеранах войны в Боснии — американце и сербе, которые, спустя много лет после событий в Европе, устраивают свою личную Третью мировую войну, пытаясь свести счеты.


Рейтинг R - Подростки до 17 лет допускаются на фильм только в сопровождении одного из родителей, либо законного представителя

Дата мировой премьеры: 29 июня 2013
Дата российской премьеры: Октябрь 2013, «Top Film Distribution»
Продолжительность: 01:30:39
Качество видео: BDRemux

Видеокодек: MPEG-4 AVC/H.264
Контейнер: MKV
Размер кадра: 1920x1080p

Битрейт видео: 19659 Кбит/с
Аудио #1: Русский (AC3, 6 ch, 384 Кбит/с) [Одноголосый закадровый]
Аудио #2: Английский (AC3, 6 ch, 640 Кбит/с)
Общее
Уникальный идентификатор : 244034902924760120929765523740863432343 (0xB79769A6D3F5B8C3ADDF5DB8F62F0697)
Полное имя : D:\Sezon ubijc (2013) Blu-Ray Remux [1080p] [VO].mkv
Формат : Matroska
Версия формата : Version 4 / Version 2
Размер файла : 13,1 Гбайт
Продолжительность : 1 ч. 30 м.
Режим общего битрейта : Переменный
Общий поток : 20,7 Мбит/сек
Дата кодирования : UTC 2013-08-02 02:44:27
Программа кодирования : mkvmerge v6.0.0 ('Coming Up For Air') built on Jan 20 2013 09:52:00
Библиотека кодирования : libebml v1.3.0 + libmatroska v1.4.0

Видео
Идентификатор : 1
Формат : AVC
Формат/Информация : Advanced Video Codec
Профиль формата : High@L4.1
Параметр CABAC формата : Да
Параметр ReFrames формата : 2 кадра
Идентификатор кодека : V_MPEG4/ISO/AVC
Продолжительность : 1 ч. 30 м.
Вид битрейта : Переменный
Битрейт : 19,2 Мбит/сек
Ширина : 1920 пикселей
Высота : 1080 пикселей
Соотношение сторон : 16:9
Режим частоты кадров : Постоянный
Частота кадров : 23,976 кадра/сек
Цветовое пространство : YUV
Субдискретизация насыщенности : 4:2:0
Битовая глубина : 8 бит
Тип развёртки : Прогрессивная
Бит/(Пиксели*Кадры) : 0.387
Размер потока : 12,2 Гбайт (93%)
Default : Да
Forced : Нет

Аудио #1
Идентификатор : 2
Формат : AC-3
Формат/Информация : Audio Coding 3
Расширение режима : CM (complete main)
Параметр Endianness формата : Big
Идентификатор кодека : A_AC3
Продолжительность : 1 ч. 30 м.
Вид битрейта : Постоянный
Битрейт : 384 Кбит/сек
Каналы : 6 каналов
Расположение каналов : Front: L C R, Side: L R, LFE
Частота : 48,0 КГц
Битовая глубина : 16 бит
Метод сжатия : С потерями
Размер потока : 249 Мбайт (2%)
Язык : Russian
Default : Да
Forced : Да

Аудио #2
Идентификатор : 3
Формат : AC-3
Формат/Информация : Audio Coding 3
Расширение режима : CM (complete main)
Параметр Endianness формата : Big
Идентификатор кодека : A_AC3
Продолжительность : 1 ч. 30 м.
Вид битрейта : Постоянный
Битрейт : 640 Кбит/сек
Каналы : 6 каналов
Расположение каналов : Front: L C R, Side: L R, LFE
Частота : 48,0 КГц
Битовая глубина : 16 бит
Метод сжатия : С потерями
Размер потока : 415 Мбайт (3%)
Язык : English
Default : Нет
Forced : Нет

Скриншоты:


Релизы "Сезон убийц" на nnm-club.me

Время раздачи: с 10:00 до 23:00 (мск)
[NNM-Club.me]_Sezon ubijc (2013) Blu-Ray Remux [1080p] [VO].mkv.torrent
 Торрент: Платиновая раздача  Зарегистрирован
 
Скачать


Примагнититься
 Зарегистрирован:   07 Авг 2013 22:00:45
 Размер:   13.1 GB  (
 Рейтинг:   4.5 (Голосов: 73)
 Поблагодарили:   337
 Проверка:   Оформление проверено модератором 08 Авг 2013 10:37:53
Как cкачать  ·  Как раздать  ·  Правильно оформить  ·  Поднять ратио!  
Луць ®
Стаж: 11 лет 5 мес.
Сообщений: 880
Ratio: 649.72
Раздал: 52.25 TB
Поблагодарили: 47589
100%
Откуда: г.Луцк
ukraine.gif
Всем прятного просмотра!
Maximus
Вольный стрелок
Uploader 100+
Стаж: 17 лет 7 мес.
Сообщений: 5145
Ratio: 25.191
Поблагодарили: 13240
100%
nnm-club.gif
Неплохой фильм с замечательными актерами на переднем плане, которые и вытягивают его на себе.
Посмотреть на дуэт Де Ниро-Траволта всегда приятно. Эта картина хорошо подходит для вечернего
просмотра, просто, чтобы скоротать время, и не более.
Релизеру спасибо!

_________________
«Если ты ненавидишь, значит тебя победили» – Конфуций
masell
Стаж: 16 лет
Сообщений: 67
Ratio: 13.448
Раздал: 21.47 TB
Поблагодарили: 178
100%
Откуда: Из Питера
russia.gif
А нормальный перевод ожидается?
Rock`n_Roll
 
Стаж: 13 лет 7 мес.
Сообщений: 1895
Ratio: 2.31
Раздал: 634 GB
Поблагодарили: 744
100%
Откуда: Москва
russia.gif
Maximus писал(а): Перейти к сообщению
чтобы скоротать время, и не более.

Приз за деликатность :)
Sanchez moralez
Стаж: 14 лет 9 мес.
Сообщений: 131
Ratio: 4.935
100%
Rock`n_Roll писал(а): Перейти к сообщению
Maximus писал(а): Перейти к сообщению
чтобы скоротать время, и не более.

Приз за деликатность :)

А что за приз,товарищ меценат :подмигивание: ?
KuROni
Стаж: 12 лет 9 мес.
Сообщений: 244
Ratio: 9.783
100%
russia.gif
Sanchez moralez писал(а): Перейти к сообщению

А что за приз,товарищ меценат :подмигивание: ?

"АВТОМОБИИИЛЬ!!!"©

Я надеюсь серб вин.. хотя фильм американский, врятли :(
Milordk
Стаж: 17 лет 2 мес.
Сообщений: 184
Ratio: 107.643
Поблагодарили: 132
100%
Откуда: Рашка
russia.gif
муть)

_________________
Архитектор не должен или может не знать как это будет реализовываться
tdebug
Стаж: 17 лет 7 мес.
Сообщений: 104
Ratio: 2.316
11.58%
kazakhstan.gif
Это тот случай когда надо сказать что "трафик в опастности".
Муть редчайшая. Тупейшая американская тупилка. 20 баллов на metacritic.
slovilka
Стаж: 12 лет 6 мес.
Сообщений: 144
Ratio: 7.776
100%
Откуда: Москва
russia.gif
Спасибо! Классный фильм :новогоднее пиво:
johnny2222
Стаж: 11 лет 1 мес.
Сообщений: 5
Ratio: 57.035
96.34%
russia.gif
Высший класс!
Топик был перенесен из форума Зарубежные Фильмы (HD, UHD-LQ) в форум Архив Видео



Исправил релиз - напиши ЛС karfagen1975, дав ссылку на релиз.
Если нет ответа 24 часа - нажми на кнопку "Обратить внимание модераторов".
Показать сообщения:   
Начать новую тему   Ответить на тему    Торрент-трекер NNM-Club -> Архив торрентов -> Архив Видео. Кино, Театра Часовой пояс: GMT + 3
Страница 1 из 1