Классический форум-трекер
canvas not supported
Нас вместе: 4 172 085

Unanimated - In the Forest of the Dreaming Dead (1993) [ALAC|Lossless]<Melodic Death Metal>


 
 
RSS
Начать новую тему   Ответить на тему    Торрент-трекер NNM-Club -> Аудио и Видео -> Музыка Lossless (ALAC)
Автор Сообщение
Kozlice ®
 
Стаж: 14 лет 2 мес.
Сообщений: 106
Ratio: 3.322
Раздал: 2.322 TB
Поблагодарили: 1828
100%
Откуда: Moscow, Russia
russia.gif
Unanimated - In the Forest of the Dreaming Dead (1993)
Год: 1993
Жанр: Melodic Death Metal
Продолжительность: 00:43:38

Кодек: ALAC
Битрейт: Lossless
Тип битрейта: VBR

Треклист:
1. "At Dawn" – 4:27
2. "Whispering Shadows" – 4:17
3. "Blackness of the Fallen Star" – 5:28
4. "Fire Storm" – 3:38
5. "Storms from the Skies of Grief" – 3:54
6. "Through The Gates" – 3:57
7. "Winds of a Dismal Past" – 1:35
8. "Silence Ends" – 3:25
9. "Mournful Twilight" – 4:43
10. "In the Forest of the Dreaming Dead" – 4:43
11. "Cold Northern Breeze" – 3:28
Код:

General
Complete name          : /Users/kozlice/Music/iTunes/iTunes Media/Music/Unanimated/In the Forest of the Dreaming Dead/01 At Dawn.m4a
Format              : MPEG-4
Format profile            : Apple audio with iTunes info
Codec ID              : M4A
File size              : 29.3 MiB
Duration              : 4mn 27s
Overall bit rate mode        : Variable
Overall bit rate          : 918 Kbps
Album              : In the Forest of the Dreaming Dead
Album/Performer          : Unanimated
Track name            : At Dawn
Track name/Position        : 1
Track name/Total          : 11
Performer            : Unanimated
Genre              : Melodic Death Metal
Recorded date            : 1993
Encoded date            : UTC 2014-06-02 07:10:04
Tagged date            : UTC 2013-09-22 01:46:40
Writing application          : X Lossless Decoder 20121027, QuickTime 7.7.1
Cover              : Yes
iTunes_CDDB_1            : 8F0A370B+196275+11+150+20212+39517+64137+80450+97965+115757+122877+138232+159492+180690
iTunes_CDDB_TrackNumber        : 1

Audio
ID                : 1
Format              : ALAC
Codec ID              : alac
Codec ID/Info            : Apple Lossless Audio Codec
Duration              : 4mn 27s
Duration_LastFrame        : -1ms
Bit rate mode            : Variable
Bit rate              : 915 Kbps
Channel(s)            : 2 channels
Sampling rate            : 44.1 KHz
Bit depth              : 16 bits
Stream size            : 29.2 MiB (100%)
Language            : English
Encoded date            : UTC 2014-06-02 07:10:04
Tagged date            : UTC 2013-09-22 01:46:40

General
Complete name          : /Users/kozlice/Music/iTunes/iTunes Media/Music/Unanimated/In the Forest of the Dreaming Dead/02 Whispering Shadows.m4a
Format              : MPEG-4
Format profile            : Apple audio with iTunes info
Codec ID              : M4A
File size              : 30.2 MiB
Duration              : 4mn 17s
Overall bit rate mode        : Variable
Overall bit rate          : 983 Kbps
Album              : In the Forest of the Dreaming Dead
Album/Performer          : Unanimated
Track name            : Whispering Shadows
Track name/Position        : 2
Track name/Total          : 11
Performer            : Unanimated
Genre              : Melodic Death Metal
Recorded date            : 1993
Encoded date            : UTC 2016-01-05 20:10:52
Tagged date            : UTC 2013-09-22 01:46:40
Writing application          : X Lossless Decoder 20121027, QuickTime 7.7.1
Cover              : Yes
iTunes_CDDB_1            : 8F0A370B+196275+11+150+20212+39517+64137+80450+97965+115757+122877+138232+159492+180690
iTunes_CDDB_TrackNumber        : 2

Audio
ID                : 1
Format              : ALAC
Codec ID              : alac
Codec ID/Info            : Apple Lossless Audio Codec
Duration              : 4mn 17s
Duration_LastFrame        : -63ms
Bit rate mode            : Variable
Bit rate              : 980 Kbps
Channel(s)            : 2 channels
Sampling rate            : 44.1 KHz
Bit depth              : 16 bits
Stream size            : 30.1 MiB (100%)
Language            : English
Encoded date            : UTC 2016-01-05 20:10:52
Tagged date            : UTC 2013-09-22 01:46:40

General
Complete name          : /Users/kozlice/Music/iTunes/iTunes Media/Music/Unanimated/In the Forest of the Dreaming Dead/03 Blackness of the Fallen Star.m4a
Format              : MPEG-4
Format profile            : Apple audio with iTunes info
Codec ID              : M4A
File size              : 38.9 MiB
Duration              : 5mn 28s
Overall bit rate mode        : Variable
Overall bit rate          : 995 Kbps
Album              : In the Forest of the Dreaming Dead
Album/Performer          : Unanimated
Track name            : Blackness of the Fallen Star
Track name/Position        : 3
Track name/Total          : 11
Performer            : Unanimated
Genre              : Melodic Death Metal
Recorded date            : 1993
Encoded date            : UTC 2017-01-28 04:51:24
Tagged date            : UTC 2013-09-22 01:46:40
Writing application          : X Lossless Decoder 20121027, QuickTime 7.7.1
Cover              : Yes
iTunes_CDDB_1            : 8F0A370B+196275+11+150+20212+39517+64137+80450+97965+115757+122877+138232+159492+180690
iTunes_CDDB_TrackNumber        : 3

Audio
ID                : 1
Format              : ALAC
Codec ID              : alac
Codec ID/Info            : Apple Lossless Audio Codec
Duration              : 5mn 28s
Duration_LastFrame        : -63ms
Bit rate mode            : Variable
Bit rate              : 992 Kbps
Channel(s)            : 2 channels
Sampling rate            : 44.1 KHz
Bit depth              : 16 bits
Stream size            : 38.8 MiB (100%)
Language            : English
Encoded date            : UTC 2017-01-28 04:51:24
Tagged date            : UTC 2013-09-22 01:46:40

General
Complete name          : /Users/kozlice/Music/iTunes/iTunes Media/Music/Unanimated/In the Forest of the Dreaming Dead/04 Fire Storm.m4a
Format              : MPEG-4
Format profile            : Apple audio with iTunes info
Codec ID              : M4A
File size              : 22.4 MiB
Duration              : 3mn 37s
Overall bit rate mode        : Variable
Overall bit rate          : 864 Kbps
Album              : In the Forest of the Dreaming Dead
Album/Performer          : Unanimated
Track name            : Fire Storm
Track name/Position        : 4
Track name/Total          : 11
Performer            : Unanimated
Genre              : Melodic Death Metal
Recorded date            : 1993
Encoded date            : UTC 2013-05-09 22:29:32
Tagged date            : UTC 2013-09-22 01:46:40
Writing application          : X Lossless Decoder 20121027, QuickTime 7.7.1
Cover              : Yes
iTunes_CDDB_1            : 8F0A370B+196275+11+150+20212+39517+64137+80450+97965+115757+122877+138232+159492+180690
iTunes_CDDB_TrackNumber        : 4

Audio
ID                : 1
Format              : ALAC
Codec ID              : alac
Codec ID/Info            : Apple Lossless Audio Codec
Duration              : 3mn 37s
Duration_LastFrame        : -18ms
Bit rate mode            : Variable
Bit rate              : 861 Kbps
Channel(s)            : 2 channels
Sampling rate            : 44.1 KHz
Bit depth              : 16 bits
Stream size            : 22.3 MiB (100%)
Language            : English
Encoded date            : UTC 2013-05-09 22:29:32
Tagged date            : UTC 2013-09-22 01:46:40

General
Complete name          : /Users/kozlice/Music/iTunes/iTunes Media/Music/Unanimated/In the Forest of the Dreaming Dead/05 Storms From the Skies of Grief.m4a
Format              : MPEG-4
Format profile            : Apple audio with iTunes info
Codec ID              : M4A
File size              : 28.4 MiB
Duration              : 3mn 53s
Overall bit rate mode        : Variable
Overall bit rate          : 1 019 Kbps
Album              : In the Forest of the Dreaming Dead
Album/Performer          : Unanimated
Track name            : Storms From the Skies of Grief
Track name/Position        : 5
Track name/Total          : 11
Performer            : Unanimated
Genre              : Melodic Death Metal
Recorded date            : 1993
Encoded date            : UTC 2022-05-24 00:14:04
Tagged date            : UTC 2013-09-22 01:46:41
Writing application          : X Lossless Decoder 20121027, QuickTime 7.7.1
Cover              : Yes
iTunes_CDDB_1            : 8F0A370B+196275+11+150+20212+39517+64137+80450+97965+115757+122877+138232+159492+180690
iTunes_CDDB_TrackNumber        : 5

Audio
ID                : 1
Format              : ALAC
Codec ID              : alac
Codec ID/Info            : Apple Lossless Audio Codec
Duration              : 3mn 53s
Duration_LastFrame        : -59ms
Bit rate mode            : Variable
Bit rate              : 1 016 Kbps
Channel(s)            : 2 channels
Sampling rate            : 44.1 KHz
Bit depth              : 16 bits
Stream size            : 28.3 MiB (100%)
Language            : English
Encoded date            : UTC 2022-05-24 00:14:04
Tagged date            : UTC 2013-09-22 01:46:41

General
Complete name          : /Users/kozlice/Music/iTunes/iTunes Media/Music/Unanimated/In the Forest of the Dreaming Dead/06 Through the Gates.m4a
Format              : MPEG-4
Format profile            : Apple audio with iTunes info
Codec ID              : M4A
File size              : 27.9 MiB
Duration              : 3mn 57s
Overall bit rate mode        : Variable
Overall bit rate          : 988 Kbps
Album              : In the Forest of the Dreaming Dead
Album/Performer          : Unanimated
Track name            : Through the Gates
Track name/Position        : 6
Track name/Total          : 11
Performer            : Unanimated
Genre              : Melodic Death Metal
Recorded date            : 1993
Encoded date            : UTC 2023-06-16 08:54:36
Tagged date            : UTC 2013-09-22 01:46:41
Writing application          : X Lossless Decoder 20121027, QuickTime 7.7.1
Cover              : Yes
iTunes_CDDB_1            : 8F0A370B+196275+11+150+20212+39517+64137+80450+97965+115757+122877+138232+159492+180690
iTunes_CDDB_TrackNumber        : 6

Audio
ID                : 1
Format              : ALAC
Codec ID              : alac
Codec ID/Info            : Apple Lossless Audio Codec
Duration              : 3mn 57s
Duration_LastFrame        : -81ms
Bit rate mode            : Variable
Bit rate              : 985 Kbps
Channel(s)            : 2 channels
Sampling rate            : 44.1 KHz
Bit depth              : 16 bits
Stream size            : 27.9 MiB (100%)
Language            : English
Encoded date            : UTC 2023-06-16 08:54:36
Tagged date            : UTC 2013-09-22 01:46:41

General
Complete name          : /Users/kozlice/Music/iTunes/iTunes Media/Music/Unanimated/In the Forest of the Dreaming Dead/07 Wind of a Dismal Past.m4a
Format              : MPEG-4
Format profile            : Apple audio with iTunes info
Codec ID              : M4A
File size              : 7.50 MiB
Duration              : 1mn 34s
Overall bit rate mode        : Variable
Overall bit rate          : 662 Kbps
Album              : In the Forest of the Dreaming Dead
Album/Performer          : Unanimated
Track name            : Wind of a Dismal Past
Track name/Position        : 7
Track name/Total          : 11
Performer            : Unanimated
Genre              : Melodic Death Metal
Recorded date            : 1993
Encoded date            : UTC 2018-09-02 17:52:12
Tagged date            : UTC 2013-09-22 01:46:42
Writing application          : X Lossless Decoder 20121027, QuickTime 7.7.1
Cover              : Yes
iTunes_CDDB_1            : 8F0A370B+196275+11+150+20212+39517+64137+80450+97965+115757+122877+138232+159492+180690
iTunes_CDDB_TrackNumber        : 7

Audio
ID                : 1
Format              : ALAC
Codec ID              : alac
Codec ID/Info            : Apple Lossless Audio Codec
Duration              : 1mn 34s
Duration_LastFrame        : -83ms
Bit rate mode            : Variable
Bit rate              : 654 Kbps
Channel(s)            : 2 channels
Sampling rate            : 44.1 KHz
Bit depth              : 16 bits
Stream size            : 7.41 MiB (99%)
Language            : English
Encoded date            : UTC 2018-09-02 17:52:12
Tagged date            : UTC 2013-09-22 01:46:42

General
Complete name          : /Users/kozlice/Music/iTunes/iTunes Media/Music/Unanimated/In the Forest of the Dreaming Dead/08 Silence Ends.m4a
Format              : MPEG-4
Format profile            : Apple audio with iTunes info
Codec ID              : M4A
File size              : 23.8 MiB
Duration              : 3mn 24s
Overall bit rate mode        : Variable
Overall bit rate          : 974 Kbps
Album              : In the Forest of the Dreaming Dead
Album/Performer          : Unanimated
Track name            : Silence Ends
Track name/Position        : 8
Track name/Total          : 11
Performer            : Unanimated
Genre              : Melodic Death Metal
Recorded date            : 1993
Encoded date            : UTC 2026-08-24 10:56:12
Tagged date            : UTC 2013-09-22 01:46:42
Writing application          : X Lossless Decoder 20121027, QuickTime 7.7.1
Cover              : Yes
iTunes_CDDB_1            : 8F0A370B+196275+11+150+20212+39517+64137+80450+97965+115757+122877+138232+159492+180690
iTunes_CDDB_TrackNumber        : 8

Audio
ID                : 1
Format              : ALAC
Codec ID              : alac
Codec ID/Info            : Apple Lossless Audio Codec
Duration              : 3mn 24s
Duration_LastFrame        : -67ms
Bit rate mode            : Variable
Bit rate              : 970 Kbps
Channel(s)            : 2 channels
Sampling rate            : 44.1 KHz
Bit depth              : 16 bits
Stream size            : 23.7 MiB (100%)
Language            : English
Encoded date            : UTC 2026-08-24 10:56:12
Tagged date            : UTC 2013-09-22 01:46:42

General
Complete name          : /Users/kozlice/Music/iTunes/iTunes Media/Music/Unanimated/In the Forest of the Dreaming Dead/09 Mournful Twilight.m4a
Format              : MPEG-4
Format profile            : Apple audio with iTunes info
Codec ID              : M4A
File size              : 33.7 MiB
Duration              : 4mn 43s
Overall bit rate mode        : Variable
Overall bit rate          : 997 Kbps
Album              : In the Forest of the Dreaming Dead
Album/Performer          : Unanimated
Track name            : Mournful Twilight
Track name/Position        : 9
Track name/Total          : 11
Performer            : Unanimated
Genre              : Melodic Death Metal
Recorded date            : 1993
Encoded date            : UTC 2030-11-24 21:38:20
Tagged date            : UTC 2013-09-22 01:46:42
Writing application          : X Lossless Decoder 20121027, QuickTime 7.7.1
Cover              : Yes
iTunes_CDDB_1            : 8F0A370B+196275+11+150+20212+39517+64137+80450+97965+115757+122877+138232+159492+180690
iTunes_CDDB_TrackNumber        : 9

Audio
ID                : 1
Format              : ALAC
Codec ID              : alac
Codec ID/Info            : Apple Lossless Audio Codec
Duration              : 4mn 43s
Duration_LastFrame        : -3ms
Bit rate mode            : Variable
Bit rate              : 994 Kbps
Channel(s)            : 2 channels
Sampling rate            : 44.1 KHz
Bit depth              : 16 bits
Stream size            : 33.6 MiB (100%)
Language            : English
Encoded date            : UTC 2030-11-24 21:38:20
Tagged date            : UTC 2013-09-22 01:46:42

General
Complete name          : /Users/kozlice/Music/iTunes/iTunes Media/Music/Unanimated/In the Forest of the Dreaming Dead/10 In the Forest of the Dreaming Dead.m4a
Format              : MPEG-4
Format profile            : Apple audio with iTunes info
Codec ID              : M4A
File size              : 28.9 MiB
Duration              : 4mn 42s
Overall bit rate mode        : Variable
Overall bit rate          : 857 Kbps
Album              : In the Forest of the Dreaming Dead
Album/Performer          : Unanimated
Track name            : In the Forest of the Dreaming Dead
Track name/Position        : 10
Track name/Total          : 11
Performer            : Unanimated
Genre              : Melodic Death Metal
Recorded date            : 1993
Encoded date            : UTC 2031-12-18 06:18:52
Tagged date            : UTC 2013-09-22 01:46:42
Writing application          : X Lossless Decoder 20121027, QuickTime 7.7.1
Cover              : Yes
iTunes_CDDB_1            : 8F0A370B+196275+11+150+20212+39517+64137+80450+97965+115757+122877+138232+159492+180690
iTunes_CDDB_TrackNumber        : 10

Audio
ID                : 1
Format              : ALAC
Codec ID              : alac
Codec ID/Info            : Apple Lossless Audio Codec
Duration              : 4mn 42s
Duration_LastFrame        : -86ms
Bit rate mode            : Variable
Bit rate              : 855 Kbps
Channel(s)            : 2 channels
Sampling rate            : 44.1 KHz
Bit depth              : 16 bits
Stream size            : 28.8 MiB (100%)
Language            : English
Encoded date            : UTC 2031-12-18 06:18:52
Tagged date            : UTC 2013-09-22 01:46:42

General
Complete name          : /Users/kozlice/Music/iTunes/iTunes Media/Music/Unanimated/In the Forest of the Dreaming Dead/11 Cold Northern Breeze.m4a
Format              : MPEG-4
Format profile            : Apple audio with iTunes info
Codec ID              : M4A
File size              : 22.8 MiB
Duration              : 3mn 27s
Overall bit rate mode        : Variable
Overall bit rate          : 920 Kbps
Album              : In the Forest of the Dreaming Dead
Album/Performer          : Unanimated
Track name            : Cold Northern Breeze
Track name/Position        : 11
Track name/Total          : 11
Performer            : Unanimated
Genre              : Melodic Death Metal
Recorded date            : 1993
Encoded date            : UTC 2031-12-18 06:18:52
Tagged date            : UTC 2013-09-22 01:46:43
Writing application          : X Lossless Decoder 20121027, QuickTime 7.7.1
Cover              : Yes
iTunes_CDDB_1            : 8F0A370B+196275+11+150+20212+39517+64137+80450+97965+115757+122877+138232+159492+180690
iTunes_CDDB_TrackNumber        : 11

Audio
ID                : 1
Format              : ALAC
Codec ID              : alac
Codec ID/Info            : Apple Lossless Audio Codec
Duration              : 3mn 27s
Duration_LastFrame        : -65ms
Bit rate mode            : Variable
Bit rate              : 917 Kbps
Channel(s)            : 2 channels
Sampling rate            : 44.1 KHz
Bit depth              : 16 bits
Stream size            : 22.7 MiB (100%)
Language            : English
Encoded date            : UTC 2031-12-18 06:18:52
Время раздачи: 24/7
[NNM-Club.me]_Unanimated - In the Forest of the Dreaming Dead.torrent
 Торрент: Платиновая раздача  Зарегистрирован
 
Скачать


Примагнититься
 Зарегистрирован:   22 Сен 2013 00:57:57
 Размер:   294 MB  (
 Рейтинг:   4.4 (Голосов: 15)
 Поблагодарили:   21
 Проверка:   Оформление проверено модератором 22 Сен 2013 21:51:28
Как cкачать  ·  Как раздать  ·  Правильно оформить  ·  Поднять ратио!  
Показать сообщения:   
Начать новую тему   Ответить на тему    Торрент-трекер NNM-Club -> Аудио и Видео -> Музыка Lossless (ALAC) Часовой пояс: GMT + 3
Страница 1 из 1