Классический форум-трекер
canvas not supported
Нас вместе: 4 171 395

Witherscape - The Inheritance (2013) [ALAC|Lossless]<Progressive Death Metal>


 
 
RSS
Начать новую тему   Ответить на тему    Торрент-трекер NNM-Club -> Аудио и Видео -> Музыка Lossless (ALAC)
Автор Сообщение
Kozlice ®
 
Стаж: 14 лет 1 мес.
Сообщений: 106
Ratio: 3.322
Раздал: 2.322 TB
Поблагодарили: 1828
100%
Откуда: Moscow, Russia
russia.gif
Witherscape - The Inheritance (2013)
Год: 2013
Жанр: Progressive Death Metal
Продолжительность: 00:53:07

Кодек: ALAC
Битрейт: Lossless
Тип битрейта: VBR

Треклист:
01. "Mother Of The Soul" - 5:41
02. "Astrid Falls" - 6:56
03. "Dead For A Day" - 4:37
04. "Dying For The Sun" - 6:14
05. "To The Calling Of Blood And Dreams" - 4:37
06. "The Math Of The Myth" - 3:52
07. "Crawling From Validity" - 4:14
08. "The Wedlock Observation" - 6:13
09. "The Inheritance" - 1:18
10. "Last Rose of Summer" [Judas Priest cover] - 05:33
11. "A Cry for Everyone" [Gentle Giant cover] - 03:52
Код:

General
Complete name          : /Users/kozlice/Music/iTunes/iTunes Media/Music/Witherscape/The Inheritance/01 Mother of the Soul.m4a
Format              : MPEG-4
Format profile            : Apple audio with iTunes info
Codec ID              : M4A
File size              : 41.9 MiB
Duration              : 5mn 40s
Overall bit rate mode        : Variable
Overall bit rate          : 1 032 Kbps
Album              : The Inheritance
Album/Performer          : Witherscape
Part/Position            : 1
Part/Total            : 1
Track name            : Mother of the Soul
Track name/Position        : 1
Track name/Total          : 11
Performer            : Witherscape
Genre              : Progressive Death Metal
Recorded date            : 2013
Tagged date            : UTC 2013-09-29 01:47:19
Writing application          : X Lossless Decoder 20130720, QuickTime 7.7.1
Cover              : Yes
Comment            : ExactAudioCopy v1.0b3
iTunes_CDDB_1            : A512390C+239250+11+150+25718+56949+77729+105814+126623+144060+163080+191060+196885+221841
iTunes_CDDB_TrackNumber        : 1

Audio
ID                : 1
Format              : ALAC
Codec ID              : alac
Codec ID/Info            : Apple Lossless Audio Codec
Duration              : 5mn 40s
Duration_LastFrame        : -55ms
Bit rate mode            : Variable
Bit rate              : 1 030 Kbps
Channel(s)            : 2 channels
Sampling rate            : 44.1 KHz
Bit depth              : 16 bits
Stream size            : 41.8 MiB (100%)
Language            : English
Tagged date            : UTC 2013-09-29 01:47:19

General
Complete name          : /Users/kozlice/Music/iTunes/iTunes Media/Music/Witherscape/The Inheritance/02 Astrid Falls.m4a
Format              : MPEG-4
Format profile            : Apple audio with iTunes info
Codec ID              : M4A
File size              : 48.3 MiB
Duration              : 6mn 56s
Overall bit rate mode        : Variable
Overall bit rate          : 973 Kbps
Album              : The Inheritance
Album/Performer          : Witherscape
Part/Position            : 1
Part/Total            : 1
Track name            : Astrid Falls
Track name/Position        : 2
Track name/Total          : 11
Performer            : Witherscape
Genre              : Progressive Death Metal
Recorded date            : 2013
Writing application          : X Lossless Decoder 20130720, QuickTime 7.7.1
Cover              : Yes
Comment            : ExactAudioCopy v1.0b3
iTunes_CDDB_1            : A512390C+239250+11+150+25718+56949+77729+105814+126623+144060+163080+191060+196885+221841
iTunes_CDDB_TrackNumber        : 2

Audio
ID                : 1
Format              : ALAC
Codec ID              : alac
Codec ID/Info            : Apple Lossless Audio Codec
Duration              : 6mn 56s
Duration_LastFrame        : -60ms
Bit rate mode            : Variable
Bit rate              : 971 Kbps
Channel(s)            : 2 channels
Sampling rate            : 44.1 KHz
Bit depth              : 16 bits
Stream size            : 48.2 MiB (100%)
Language            : English

General
Complete name          : /Users/kozlice/Music/iTunes/iTunes Media/Music/Witherscape/The Inheritance/03 Dead for a Day.m4a
Format              : MPEG-4
Format profile            : Apple audio with iTunes info
Codec ID              : M4A
File size              : 33.5 MiB
Duration              : 4mn 37s
Overall bit rate mode        : Variable
Overall bit rate          : 1 014 Kbps
Album              : The Inheritance
Album/Performer          : Witherscape
Part/Position            : 1
Part/Total            : 1
Track name            : Dead for a Day
Track name/Position        : 3
Track name/Total          : 11
Performer            : Witherscape
Genre              : Progressive Death Metal
Recorded date            : 2013
Tagged date            : UTC 2013-09-29 01:47:24
Writing application          : X Lossless Decoder 20130720, QuickTime 7.7.1
Cover              : Yes
Comment            : ExactAudioCopy v1.0b3
iTunes_CDDB_1            : A512390C+239250+11+150+25718+56949+77729+105814+126623+144060+163080+191060+196885+221841
iTunes_CDDB_TrackNumber        : 3

Audio
ID                : 1
Format              : ALAC
Codec ID              : alac
Codec ID/Info            : Apple Lossless Audio Codec
Duration              : 4mn 37s
Duration_LastFrame        : -87ms
Bit rate mode            : Variable
Bit rate              : 1 012 Kbps
Channel(s)            : 2 channels
Sampling rate            : 44.1 KHz
Bit depth              : 16 bits
Stream size            : 33.4 MiB (100%)
Language            : English
Tagged date            : UTC 2013-09-29 01:47:24

General
Complete name          : /Users/kozlice/Music/iTunes/iTunes Media/Music/Witherscape/The Inheritance/04 Dying for the Sun.m4a
Format              : MPEG-4
Format profile            : Apple audio with iTunes info
Codec ID              : M4A
File size              : 40.2 MiB
Duration              : 6mn 14s
Overall bit rate mode        : Variable
Overall bit rate          : 900 Kbps
Album              : The Inheritance
Album/Performer          : Witherscape
Part/Position            : 1
Part/Total            : 1
Track name            : Dying for the Sun
Track name/Position        : 4
Track name/Total          : 11
Performer            : Witherscape
Genre              : Progressive Death Metal
Recorded date            : 2013
Tagged date            : UTC 2013-09-29 01:47:29
Writing application          : X Lossless Decoder 20130720, QuickTime 7.7.1
Cover              : Yes
Comment            : ExactAudioCopy v1.0b3
iTunes_CDDB_1            : A512390C+239250+11+150+25718+56949+77729+105814+126623+144060+163080+191060+196885+221841
iTunes_CDDB_TrackNumber        : 4

Audio
ID                : 1
Format              : ALAC
Codec ID              : alac
Codec ID/Info            : Apple Lossless Audio Codec
Duration              : 6mn 14s
Duration_LastFrame        : -25ms
Bit rate mode            : Variable
Bit rate              : 898 Kbps
Channel(s)            : 2 channels
Sampling rate            : 44.1 KHz
Bit depth              : 16 bits
Stream size            : 40.1 MiB (100%)
Language            : English
Tagged date            : UTC 2013-09-29 01:47:29

General
Complete name          : /Users/kozlice/Music/iTunes/iTunes Media/Music/Witherscape/The Inheritance/05 To the Calling of Blood and Dreams.m4a
Format              : MPEG-4
Format profile            : Apple audio with iTunes info
Codec ID              : M4A
File size              : 36.0 MiB
Duration              : 4mn 37s
Overall bit rate mode        : Variable
Overall bit rate          : 1 089 Kbps
Album              : The Inheritance
Album/Performer          : Witherscape
Part/Position            : 1
Part/Total            : 1
Track name            : To the Calling of Blood and Dreams
Track name/Position        : 5
Track name/Total          : 11
Performer            : Witherscape
Genre              : Progressive Death Metal
Recorded date            : 2013
Tagged date            : UTC 2013-09-29 01:47:37
Writing application          : X Lossless Decoder 20130720, QuickTime 7.7.1
Cover              : Yes
Comment            : ExactAudioCopy v1.0b3
iTunes_CDDB_1            : A512390C+239250+11+150+25718+56949+77729+105814+126623+144060+163080+191060+196885+221841
iTunes_CDDB_TrackNumber        : 5

Audio
ID                : 1
Format              : ALAC
Codec ID              : alac
Codec ID/Info            : Apple Lossless Audio Codec
Duration              : 4mn 37s
Duration_LastFrame        : -72ms
Bit rate mode            : Variable
Bit rate              : 1 086 Kbps
Channel(s)            : 2 channels
Sampling rate            : 44.1 KHz
Bit depth              : 16 bits
Stream size            : 35.9 MiB (100%)
Language            : English
Tagged date            : UTC 2013-09-29 01:47:37

General
Complete name          : /Users/kozlice/Music/iTunes/iTunes Media/Music/Witherscape/The Inheritance/06 The Math of the Myth.m4a
Format              : MPEG-4
Format profile            : Apple audio with iTunes info
Codec ID              : M4A
File size              : 28.7 MiB
Duration              : 3mn 52s
Overall bit rate mode        : Variable
Overall bit rate          : 1 034 Kbps
Album              : The Inheritance
Album/Performer          : Witherscape
Part/Position            : 1
Part/Total            : 1
Track name            : The Math of the Myth
Track name/Position        : 6
Track name/Total          : 11
Performer            : Witherscape
Genre              : Progressive Death Metal
Recorded date            : 2013
Tagged date            : UTC 2013-09-29 01:47:42
Writing application          : X Lossless Decoder 20130720, QuickTime 7.7.1
Cover              : Yes
Comment            : ExactAudioCopy v1.0b3
iTunes_CDDB_1            : A512390C+239250+11+150+25718+56949+77729+105814+126623+144060+163080+191060+196885+221841
iTunes_CDDB_TrackNumber        : 6

Audio
ID                : 1
Format              : ALAC
Codec ID              : alac
Codec ID/Info            : Apple Lossless Audio Codec
Duration              : 3mn 52s
Duration_LastFrame        : -78ms
Bit rate mode            : Variable
Bit rate              : 1 031 Kbps
Channel(s)            : 2 channels
Sampling rate            : 44.1 KHz
Bit depth              : 16 bits
Stream size            : 28.6 MiB (100%)
Language            : English
Tagged date            : UTC 2013-09-29 01:47:42

General
Complete name          : /Users/kozlice/Music/iTunes/iTunes Media/Music/Witherscape/The Inheritance/07 Crawling from Validity.m4a
Format              : MPEG-4
Format profile            : Apple audio with iTunes info
Codec ID              : M4A
File size              : 28.7 MiB
Duration              : 4mn 13s
Overall bit rate mode        : Variable
Overall bit rate          : 949 Kbps
Album              : The Inheritance
Album/Performer          : Witherscape
Part/Position            : 1
Part/Total            : 1
Track name            : Crawling from Validity
Track name/Position        : 7
Track name/Total          : 11
Performer            : Witherscape
Genre              : Progressive Death Metal
Recorded date            : 2013
Tagged date            : UTC 2013-09-29 01:47:47
Writing application          : X Lossless Decoder 20130720, QuickTime 7.7.1
Cover              : Yes
Comment            : ExactAudioCopy v1.0b3
iTunes_CDDB_1            : A512390C+239250+11+150+25718+56949+77729+105814+126623+144060+163080+191060+196885+221841
iTunes_CDDB_TrackNumber        : 7

Audio
ID                : 1
Format              : ALAC
Codec ID              : alac
Codec ID/Info            : Apple Lossless Audio Codec
Duration              : 4mn 13s
Duration_LastFrame        : -55ms
Bit rate mode            : Variable
Bit rate              : 946 Kbps
Channel(s)            : 2 channels
Sampling rate            : 44.1 KHz
Bit depth              : 16 bits
Stream size            : 28.6 MiB (100%)
Language            : English
Tagged date            : UTC 2013-09-29 01:47:47

General
Complete name          : /Users/kozlice/Music/iTunes/iTunes Media/Music/Witherscape/The Inheritance/08 The Wedlock Observation.m4a
Format              : MPEG-4
Format profile            : Apple audio with iTunes info
Codec ID              : M4A
File size              : 41.9 MiB
Duration              : 6mn 13s
Overall bit rate mode        : Variable
Overall bit rate          : 942 Kbps
Album              : The Inheritance
Album/Performer          : Witherscape
Part/Position            : 1
Part/Total            : 1
Track name            : The Wedlock Observation
Track name/Position        : 8
Track name/Total          : 11
Performer            : Witherscape
Genre              : Progressive Death Metal
Recorded date            : 2013
Writing application          : X Lossless Decoder 20130720, QuickTime 7.7.1
Cover              : Yes
Comment            : ExactAudioCopy v1.0b3
iTunes_CDDB_1            : A512390C+239250+11+150+25718+56949+77729+105814+126623+144060+163080+191060+196885+221841
iTunes_CDDB_TrackNumber        : 8

Audio
ID                : 1
Format              : ALAC
Codec ID              : alac
Codec ID/Info            : Apple Lossless Audio Codec
Duration              : 6mn 13s
Duration_LastFrame        : -32ms
Bit rate mode            : Variable
Bit rate              : 940 Kbps
Channel(s)            : 2 channels
Sampling rate            : 44.1 KHz
Bit depth              : 16 bits
Stream size            : 41.8 MiB (100%)
Language            : English

General
Complete name          : /Users/kozlice/Music/iTunes/iTunes Media/Music/Witherscape/The Inheritance/09 The Inheritance.m4a
Format              : MPEG-4
Format profile            : Apple audio with iTunes info
Codec ID              : M4A
File size              : 3.97 MiB
Duration              : 1mn 17s
Overall bit rate mode        : Variable
Overall bit rate          : 428 Kbps
Album              : The Inheritance
Album/Performer          : Witherscape
Part/Position            : 1
Part/Total            : 1
Track name            : The Inheritance
Track name/Position        : 9
Track name/Total          : 11
Performer            : Witherscape
Genre              : Progressive Death Metal
Recorded date            : 2013
Writing application          : X Lossless Decoder 20130720, QuickTime 7.7.1
Cover              : Yes
Comment            : ExactAudioCopy v1.0b3
iTunes_CDDB_1            : A512390C+239250+11+150+25718+56949+77729+105814+126623+144060+163080+191060+196885+221841
iTunes_CDDB_TrackNumber        : 9

Audio
ID                : 1
Format              : ALAC
Codec ID              : alac
Codec ID/Info            : Apple Lossless Audio Codec
Duration              : 1mn 17s
Duration_LastFrame        : -74ms
Bit rate mode            : Variable
Bit rate              : 420 Kbps
Channel(s)            : 2 channels
Sampling rate            : 44.1 KHz
Bit depth              : 16 bits
Stream size            : 3.89 MiB (98%)
Language            : English

General
Complete name          : /Users/kozlice/Music/iTunes/iTunes Media/Music/Witherscape/The Inheritance/10 Last Rose of Summer.m4a
Format              : MPEG-4
Format profile            : Apple audio with iTunes info
Codec ID              : M4A
File size              : 36.1 MiB
Duration              : 5mn 32s
Overall bit rate mode        : Variable
Overall bit rate          : 910 Kbps
Album              : The Inheritance
Album/Performer          : Witherscape
Part/Position            : 1
Part/Total            : 1
Track name            : Last Rose of Summer
Track name/Position        : 10
Track name/Total          : 11
Performer            : Witherscape
Genre              : Progressive Death Metal
Recorded date            : 2013
Tagged date            : UTC 2013-09-29 01:47:51
Writing application          : X Lossless Decoder 20130720, QuickTime 7.7.1
Cover              : Yes
Comment            : ExactAudioCopy v1.0b3
iTunes_CDDB_1            : A512390C+239250+11+150+25718+56949+77729+105814+126623+144060+163080+191060+196885+221841
iTunes_CDDB_TrackNumber        : 10

Audio
ID                : 1
Format              : ALAC
Codec ID              : alac
Codec ID/Info            : Apple Lossless Audio Codec
Duration              : 5mn 32s
Duration_LastFrame        : -42ms
Bit rate mode            : Variable
Bit rate              : 908 Kbps
Channel(s)            : 2 channels
Sampling rate            : 44.1 KHz
Bit depth              : 16 bits
Stream size            : 36.0 MiB (100%)
Language            : English
Tagged date            : UTC 2013-09-29 01:47:51

General
Complete name          : /Users/kozlice/Music/iTunes/iTunes Media/Music/Witherscape/The Inheritance/11 A Cry for Everyone.m4a
Format              : MPEG-4
Format profile            : Apple audio with iTunes info
Codec ID              : M4A
File size              : 27.4 MiB
Duration              : 3mn 52s
Overall bit rate mode        : Variable
Overall bit rate          : 990 Kbps
Album              : The Inheritance
Album/Performer          : Witherscape
Part/Position            : 1
Part/Total            : 1
Track name            : A Cry for Everyone
Track name/Position        : 11
Track name/Total          : 11
Performer            : Witherscape
Genre              : Progressive Death Metal
Recorded date            : 2013
Tagged date            : UTC 2013-09-29 01:47:56
Writing application          : X Lossless Decoder 20130720, QuickTime 7.7.1
Cover              : Yes
Comment            : ExactAudioCopy v1.0b3
iTunes_CDDB_1            : A512390C+239250+11+150+25718+56949+77729+105814+126623+144060+163080+191060+196885+221841
iTunes_CDDB_TrackNumber        : 11

Audio
ID                : 1
Format              : ALAC
Codec ID              : alac
Codec ID/Info            : Apple Lossless Audio Codec
Duration              : 3mn 52s
Duration_LastFrame        : -80ms
Bit rate mode            : Variable
Bit rate              : 987 Kbps
Channel(s)            : 2 channels
Sampling rate            : 44.1 KHz
Bit depth              : 16 bits
Stream size            : 27.3 MiB (100%)
Language            : English
Время раздачи: 24/7
[NNM-Club.me]_Witherscape - The Inheritance.torrent
 Торрент:   Зарегистрирован
 
Зарегистрируйтесь и скачайте торрент!
29.4 KB

Примагнититься
 Зарегистрирован:   29 Сен 2013 01:01:19
 Размер:   367 MB  (
 Рейтинг:    (Голосов: 8)
 Поблагодарили:   19
 Проверка:   Оформление проверено модератором 29 Сен 2013 12:25:54
Как cкачать  ·  Как раздать  ·  Правильно оформить  ·  Поднять ратио!  
Показать сообщения:   
Начать новую тему   Ответить на тему    Торрент-трекер NNM-Club -> Аудио и Видео -> Музыка Lossless (ALAC) Часовой пояс: GMT + 3
Страница 1 из 1