Классический форум-трекер
canvas not supported
Нас вместе: 4 172 815

Dissection - Storm of the Light's Bane (1995) [ALAC|Lossless]<Melodic Death Metal, Melodic Black Metal>


 
 
RSS
Начать новую тему   Ответить на тему    Торрент-трекер NNM-Club -> Аудио и Видео -> Музыка Lossless (ALAC)
Автор Сообщение
Kozlice ®
 
Стаж: 14 лет 2 мес.
Сообщений: 106
Ratio: 3.322
Раздал: 2.322 TB
Поблагодарили: 1828
100%
Откуда: Moscow, Russia
russia.gif
Dissection - Storm of the Light's Bane (1995)
Год: 1995
Жанр: Melodic Death Metal, Melodic Black Metal
Продолжительность: 00:44:06

Кодек: ALAC
Битрейт: Lossless
Тип битрейта: VBR

Треклист:
1. "At the Fathomless Depths" (Instrumental) - 1:57
2. "Night's Blood" - 6:40
3. "Unhallowed" - 7:28
4. "Where Dead Angels Lie" - 5:51
5. "The Fether's Fell" - 0:52
6. "Retribution - Storm of the Light's Bane" - 4:49
7. "Thorns of Crimson Death" - 8:07
8. "Soulreaper" - 6:56
9. "No Dreams Breed in Breathless Sleep" (Instrumental) - 1:26
Код:

General
Complete name          : /Users/kozlice/Music/iTunes/iTunes Media/Music/Dissection/Storm of the Light's Bane/01 At the Fathomless Depths.m4a
Format              : MPEG-4
Format profile            : Apple audio with iTunes info
Codec ID              : M4A
File size              : 12.0 MiB
Duration              : 1mn 57s
Overall bit rate mode        : Variable
Overall bit rate          : 857 Kbps
Album              : Storm of the Light's Bane
Album/Performer          : Dissection
Track name            : At the Fathomless Depths
Track name/Position        : 1
Track name/Total          : 9
Performer            : Dissection
Genre              : Melodic Death Metal
Recorded date            : 1995
Encoded date            : UTC 1993-01-28 19:43:08
Tagged date            : UTC 2013-10-06 17:05:40
Writing application          : X Lossless Decoder 20121027, QuickTime 7.7.1
Cover              : Yes
Comment            : Victor VICP-5636 japanese first pressing
iTunes_CDDB_1            : 750A5709+198724+9+187+8949+38979+72579+98922+102807+124519+161042+192237
iTunes_CDDB_TrackNumber        : 1

Audio
ID                : 1
Format              : ALAC
Codec ID              : alac
Codec ID/Info            : Apple Lossless Audio Codec
Duration              : 1mn 57s
Duration_LastFrame        : -80ms
Bit rate mode            : Variable
Bit rate              : 846 Kbps
Channel(s)            : 2 channels
Sampling rate            : 44.1 KHz
Bit depth              : 16 bits
Stream size            : 11.8 MiB (99%)
Language            : English
Encoded date            : UTC 1993-01-28 19:43:08
Tagged date            : UTC 2013-10-06 17:05:40

General
Complete name          : /Users/kozlice/Music/iTunes/iTunes Media/Music/Dissection/Storm of the Light's Bane/02 Night's Blood.m4a
Format              : MPEG-4
Format profile            : Apple audio with iTunes info
Codec ID              : M4A
File size              : 51.1 MiB
Duration              : 6mn 40s
Overall bit rate mode        : Variable
Overall bit rate          : 1 070 Kbps
Album              : Storm of the Light's Bane
Album/Performer          : Dissection
Track name            : Night's Blood
Track name/Position        : 2
Track name/Total          : 9
Performer            : Dissection
Genre              : Melodic Death Metal
Recorded date            : 1995
Encoded date            : UTC 2002-08-25 01:47:56
Tagged date            : UTC 2013-10-06 17:05:40
Writing application          : X Lossless Decoder 20121027, QuickTime 7.7.1
Cover              : Yes
Comment            : Victor VICP-5636 japanese first pressing
iTunes_CDDB_1            : 750A5709+198724+9+187+8949+38979+72579+98922+102807+124519+161042+192237
iTunes_CDDB_TrackNumber        : 2

Audio
ID                : 1
Format              : ALAC
Codec ID              : alac
Codec ID/Info            : Apple Lossless Audio Codec
Duration              : 6mn 40s
Duration_LastFrame        : -5ms
Bit rate mode            : Variable
Bit rate              : 1 067 Kbps
Channel(s)            : 2 channels
Sampling rate            : 44.1 KHz
Bit depth              : 16 bits
Stream size            : 50.9 MiB (100%)
Language            : English
Encoded date            : UTC 2002-08-25 01:47:56
Tagged date            : UTC 2013-10-06 17:05:40

General
Complete name          : /Users/kozlice/Music/iTunes/iTunes Media/Music/Dissection/Storm of the Light's Bane/03 Unhallowed.m4a
Format              : MPEG-4
Format profile            : Apple audio with iTunes info
Codec ID              : M4A
File size              : 58.0 MiB
Duration              : 7mn 28s
Overall bit rate mode        : Variable
Overall bit rate          : 1 086 Kbps
Album              : Storm of the Light's Bane
Album/Performer          : Dissection
Track name            : Unhallowed
Track name/Position        : 3
Track name/Total          : 9
Performer            : Dissection
Genre              : Melodic Death Metal
Recorded date            : 1995
Encoded date            : UTC 2005-04-21 23:29:16
Tagged date            : UTC 2013-10-06 17:05:40
Writing application          : X Lossless Decoder 20121027, QuickTime 7.7.1
Cover              : Yes
Comment            : Victor VICP-5636 japanese first pressing
iTunes_CDDB_1            : 750A5709+198724+9+187+8949+38979+72579+98922+102807+124519+161042+192237
iTunes_CDDB_TrackNumber        : 3

Audio
ID                : 1
Format              : ALAC
Codec ID              : alac
Codec ID/Info            : Apple Lossless Audio Codec
Duration              : 7mn 28s
Duration_LastFrame        : -52ms
Bit rate mode            : Variable
Bit rate              : 1 083 Kbps
Channel(s)            : 2 channels
Sampling rate            : 44.1 KHz
Bit depth              : 16 bits
Stream size            : 57.8 MiB (100%)
Language            : English
Encoded date            : UTC 2005-04-21 23:29:16
Tagged date            : UTC 2013-10-06 17:05:40

General
Complete name          : /Users/kozlice/Music/iTunes/iTunes Media/Music/Dissection/Storm of the Light's Bane/04 Where Dead Angels Lie.m4a
Format              : MPEG-4
Format profile            : Apple audio with iTunes info
Codec ID              : M4A
File size              : 43.2 MiB
Duration              : 5mn 51s
Overall bit rate mode        : Variable
Overall bit rate          : 1 031 Kbps
Album              : Storm of the Light's Bane
Album/Performer          : Dissection
Track name            : Where Dead Angels Lie
Track name/Position        : 4
Track name/Total          : 9
Performer            : Dissection
Genre              : Melodic Death Metal
Recorded date            : 1995
Encoded date            : UTC 1998-12-04 19:26:04
Tagged date            : UTC 2013-10-06 17:05:40
Writing application          : X Lossless Decoder 20121027, QuickTime 7.7.1
Cover              : Yes
Comment            : Victor VICP-5636 japanese first pressing
iTunes_CDDB_1            : 750A5709+198724+9+187+8949+38979+72579+98922+102807+124519+161042+192237
iTunes_CDDB_TrackNumber        : 4

Audio
ID                : 1
Format              : ALAC
Codec ID              : alac
Codec ID/Info            : Apple Lossless Audio Codec
Duration              : 5mn 51s
Duration_LastFrame        : -31ms
Bit rate mode            : Variable
Bit rate              : 1 027 Kbps
Channel(s)            : 2 channels
Sampling rate            : 44.1 KHz
Bit depth              : 16 bits
Stream size            : 43.0 MiB (100%)
Language            : English
Encoded date            : UTC 1998-12-04 19:26:04
Tagged date            : UTC 2013-10-06 17:05:40

General
Complete name          : /Users/kozlice/Music/iTunes/iTunes Media/Music/Dissection/Storm of the Light's Bane/05 The Fether's Fell.m4a
Format              : MPEG-4
Format profile            : Apple audio with iTunes info
Codec ID              : M4A
File size              : 3.49 MiB
Duration              : 51s 800ms
Overall bit rate mode        : Variable
Overall bit rate          : 565 Kbps
Album              : Storm of the Light's Bane
Album/Performer          : Dissection
Track name            : The Fether's Fell
Track name/Position        : 5
Track name/Total          : 9
Performer            : Dissection
Genre              : Melodic Death Metal
Recorded date            : 1995
Encoded date            : UTC 1994-09-03 08:43:56
Tagged date            : UTC 2013-10-06 17:05:40
Writing application          : X Lossless Decoder 20121027, QuickTime 7.7.1
Cover              : Yes
Comment            : Victor VICP-5636 japanese first pressing
iTunes_CDDB_1            : 750A5709+198724+9+187+8949+38979+72579+98922+102807+124519+161042+192237
iTunes_CDDB_TrackNumber        : 5

Audio
ID                : 1
Format              : ALAC
Codec ID              : alac
Codec ID/Info            : Apple Lossless Audio Codec
Duration              : 51s 800ms
Duration_LastFrame        : -27ms
Bit rate mode            : Variable
Bit rate              : 542 Kbps
Channel(s)            : 2 channels
Sampling rate            : 44.1 KHz
Bit depth              : 16 bits
Stream size            : 3.35 MiB (96%)
Language            : English
Encoded date            : UTC 1994-09-03 08:43:56
Tagged date            : UTC 2013-10-06 17:05:40

General
Complete name          : /Users/kozlice/Music/iTunes/iTunes Media/Music/Dissection/Storm of the Light's Bane/06 Retribution - Storm of the Light's Bane.m4a
Format              : MPEG-4
Format profile            : Apple audio with iTunes info
Codec ID              : M4A
File size              : 36.4 MiB
Duration              : 4mn 49s
Overall bit rate mode        : Variable
Overall bit rate          : 1 056 Kbps
Album              : Storm of the Light's Bane
Album/Performer          : Dissection
Track name            : Retribution - Storm of the Light's Bane
Track name/Position        : 6
Track name/Total          : 9
Performer            : Dissection
Genre              : Melodic Death Metal
Recorded date            : 1995
Encoded date            : UTC 2004-10-09 19:09:00
Tagged date            : UTC 2013-10-06 17:05:40
Writing application          : X Lossless Decoder 20121027, QuickTime 7.7.1
Cover              : Yes
Comment            : Victor VICP-5636 japanese first pressing
iTunes_CDDB_1            : 750A5709+198724+9+187+8949+38979+72579+98922+102807+124519+161042+192237
iTunes_CDDB_TrackNumber        : 6

Audio
ID                : 1
Format              : ALAC
Codec ID              : alac
Codec ID/Info            : Apple Lossless Audio Codec
Duration              : 4mn 49s
Duration_LastFrame        : -13ms
Bit rate mode            : Variable
Bit rate              : 1 052 Kbps
Channel(s)            : 2 channels
Sampling rate            : 44.1 KHz
Bit depth              : 16 bits
Stream size            : 36.3 MiB (100%)
Language            : English
Encoded date            : UTC 2004-10-09 19:09:00
Tagged date            : UTC 2013-10-06 17:05:40

General
Complete name          : /Users/kozlice/Music/iTunes/iTunes Media/Music/Dissection/Storm of the Light's Bane/07 Thorns of Crimson Death.m4a
Format              : MPEG-4
Format profile            : Apple audio with iTunes info
Codec ID              : M4A
File size              : 60.7 MiB
Duration              : 8mn 6s
Overall bit rate mode        : Variable
Overall bit rate          : 1 046 Kbps
Album              : Storm of the Light's Bane
Album/Performer          : Dissection
Track name            : Thorns of Crimson Death
Track name/Position        : 7
Track name/Total          : 9
Performer            : Dissection
Genre              : Melodic Death Metal
Recorded date            : 1995
Encoded date            : UTC 2013-10-23 20:53:32
Tagged date            : UTC 2013-10-06 17:05:40
Writing application          : X Lossless Decoder 20121027, QuickTime 7.7.1
Cover              : Yes
Comment            : Victor VICP-5636 japanese first pressing
iTunes_CDDB_1            : 750A5709+198724+9+187+8949+38979+72579+98922+102807+124519+161042+192237
iTunes_CDDB_TrackNumber        : 7

Audio
ID                : 1
Format              : ALAC
Codec ID              : alac
Codec ID/Info            : Apple Lossless Audio Codec
Duration              : 8mn 6s
Duration_LastFrame        : -88ms
Bit rate mode            : Variable
Bit rate              : 1 043 Kbps
Channel(s)            : 2 channels
Sampling rate            : 44.1 KHz
Bit depth              : 16 bits
Stream size            : 60.6 MiB (100%)
Language            : English
Encoded date            : UTC 2013-10-23 20:53:32
Tagged date            : UTC 2013-10-06 17:05:40

General
Complete name          : /Users/kozlice/Music/iTunes/iTunes Media/Music/Dissection/Storm of the Light's Bane/08 Soulreaper.m4a
Format              : MPEG-4
Format profile            : Apple audio with iTunes info
Codec ID              : M4A
File size              : 55.2 MiB
Duration              : 6mn 55s
Overall bit rate mode        : Variable
Overall bit rate          : 1 113 Kbps
Album              : Storm of the Light's Bane
Album/Performer          : Dissection
Track name            : Soulreaper
Track name/Position        : 8
Track name/Total          : 9
Performer            : Dissection
Genre              : Melodic Death Metal
Recorded date            : 1995
Encoded date            : UTC 2013-04-12 16:33:16
Tagged date            : UTC 2013-10-06 17:05:40
Writing application          : X Lossless Decoder 20121027, QuickTime 7.7.1
Cover              : Yes
Comment            : Victor VICP-5636 japanese first pressing
iTunes_CDDB_1            : 750A5709+198724+9+187+8949+38979+72579+98922+102807+124519+161042+192237
iTunes_CDDB_TrackNumber        : 8

Audio
ID                : 1
Format              : ALAC
Codec ID              : alac
Codec ID/Info            : Apple Lossless Audio Codec
Duration              : 6mn 55s
Duration_LastFrame        : -75ms
Bit rate mode            : Variable
Bit rate              : 1 109 Kbps
Channel(s)            : 2 channels
Sampling rate            : 44.1 KHz
Bit depth              : 16 bits
Stream size            : 55.0 MiB (100%)
Language            : English
Encoded date            : UTC 2013-04-12 16:33:16
Tagged date            : UTC 2013-10-06 17:05:40

General
Complete name          : /Users/kozlice/Music/iTunes/iTunes Media/Music/Dissection/Storm of the Light's Bane/09 No Dreams Breed in Breathless Sleep.m4a
Format              : MPEG-4
Format profile            : Apple audio with iTunes info
Codec ID              : M4A
File size              : 4.75 MiB
Duration              : 1mn 26s
Overall bit rate mode        : Variable
Overall bit rate          : 460 Kbps
Album              : Storm of the Light's Bane
Album/Performer          : Dissection
Track name            : No Dreams Breed in Breathless Sleep
Track name/Position        : 9
Track name/Total          : 9
Performer            : Dissection
Genre              : Melodic Death Metal
Recorded date            : 1995
Encoded date            : UTC 2010-02-02 14:31:40
Tagged date            : UTC 2013-10-06 17:05:40
Writing application          : X Lossless Decoder 20121027, QuickTime 7.7.1
Cover              : Yes
Comment            : Victor VICP-5636 japanese first pressing
iTunes_CDDB_1            : 750A5709+198724+9+187+8949+38979+72579+98922+102807+124519+161042+192237
iTunes_CDDB_TrackNumber        : 9

Audio
ID                : 1
Format              : ALAC
Codec ID              : alac
Codec ID/Info            : Apple Lossless Audio Codec
Duration              : 1mn 26s
Duration_LastFrame        : -71ms
Bit rate mode            : Variable
Bit rate              : 446 Kbps
Channel(s)            : 2 channels
Sampling rate            : 44.1 KHz
Bit depth              : 16 bits
Stream size            : 4.60 MiB (97%)
Language            : English
Encoded date            : UTC 2010-02-02 14:31:40
Время раздачи: 24/7
[NNM-Club.me]_Dissection - Storm of the Light's Bane.torrent
 Торрент:   Зарегистрирован
 
Зарегистрируйтесь и скачайте торрент!
51.5 KB

Примагнититься
 Зарегистрирован:   06 Окт 2013 16:28:03
 Размер:   325 MB  (
 Рейтинг:   5 (Голосов: 11)
 Поблагодарили:   22
 Проверка:   Оформление проверено модератором 08 Окт 2013 11:04:14
Как cкачать  ·  Как раздать  ·  Правильно оформить  ·  Поднять ратио!  
Показать сообщения:   
Начать новую тему   Ответить на тему    Торрент-трекер NNM-Club -> Аудио и Видео -> Музыка Lossless (ALAC) Часовой пояс: GMT + 3
Страница 1 из 1