Классический форум-трекер
canvas not supported
Нас вместе: 4 171 447

Broken Bells - After The Disco (2014) [ALAC|Tracks|WEB-DL]<Indie Rock / Experimental>


 
 
RSS
Начать новую тему   Ответить на тему    Торрент-трекер NNM-Club -> Аудио и Видео -> Музыка Lossless (ALAC)
Автор Сообщение
sseless ®
Меломан, Реставратор
Стаж: 9 лет 1 мес.
Сообщений: 3542
Ratio: 1386.827
Раздал: 45.33 TB
Поблагодарили: 160537
100%
north_korea.gif
Broken Bells - After The Disco (2014)
Год: 2014
Лейбл: Columbia Records, a Division of Sony Music Entertainment
Жанр: Indie Rock / Experimental
Продолжительность: 00:45:46

Кодек: ALAC
Битрейт: Lossless|WEB-DL
Тип раздачи: Tracks
Обложки: Вшиты
Кодирование: Easy CD-DA Extractor + iTunes

Треклист:
01. Perfect World (6:24)
02. After The Disco (3:39)
03. Holding On For Life (3:57)
04. Leave It Alone (5:31)
05. The Changing Lights (3:49)
06. Control (3:41)
07. Lazy Wonderland (3:22)
08. Medicine (3:29)
09. No Matter What You're Told (3:51)
10. The Angel And The Fool (3:15)
11. The Remains Of Rock & Roll (4:55)
Код:

Общее
Полное имя                               : C:\Broken Bells - After The Disco (2014)\01. Broken Bells - Perfect World.m4a
Формат                                   : MPEG-4
Профиль формата                          : Apple audio with iTunes info
Идентификатор кодека                     : M4A
Размер файла                             : 43,9 Мбайт
Продолжительность                        : 6 м. 24 с.
Режим общего битрейта                    : Переменный
Общий поток                              : 959 Кбит/сек
Альбом                                   : After The Disco
Альбом/Исполнитель                       : Broken Bells
Часть/Положение                          : 1
Часть/Всего                              : 1
Трек                                     : Perfect World
Трек/Положение                           : 1
Трек/Всего                               : 11
Исполнитель                              : Broken Bells
Жанр                                     : Indie Rock
Дата записи                              : 2014
Дата кодирования                         : UTC 2014-01-31 09:44:11
Дата пометки                             : UTC 2014-01-31 13:47:41
Программа кодирования                    : Easy CD-DA Extractor (http://www.poikosoft.com)
Обложка                                  : Yes
soal                                     : After The Disco
soar                                     : Broken Bells
soaa                                     : Broken Bells

Аудио
Идентификатор                            : 1
Формат                                   : ALAC
Идентификатор кодека                     : alac
Идентификатор кодека/Информация          : Apple Lossless Audio Codec
Продолжительность                        : 6 м. 24 с.
Duration_LastFrame                       : -3 мс.
Вид битрейта                             : Переменный
Битрейт                                  : 956 Кбит/сек
Каналы                                   : 2 канала
Частота                                  : 44,1 КГц
Битовая глубина                          : 16 бит
Размер потока                            : 43,8 Мбайт (100%)
Язык                                     : English
Дата кодирования                         : UTC 2014-01-31 09:44:11
Дата пометки                             : UTC 2014-01-31 13:47:41

Общее
Полное имя                               : C:\Broken Bells - After The Disco (2014)\02. Broken Bells - After The Disco.m4a
Формат                                   : MPEG-4
Профиль формата                          : Apple audio with iTunes info
Идентификатор кодека                     : M4A
Размер файла                             : 24,8 Мбайт
Продолжительность                        : 3 м. 39 с.
Режим общего битрейта                    : Переменный
Общий поток                              : 948 Кбит/сек
Альбом                                   : After The Disco
Альбом/Исполнитель                       : Broken Bells
Часть/Положение                          : 1
Часть/Всего                              : 1
Трек                                     : After The Disco
Трек/Положение                           : 2
Трек/Всего                               : 11
Исполнитель                              : Broken Bells
Жанр                                     : Indie Rock
Дата записи                              : 2014
Дата кодирования                         : UTC 2014-01-31 09:44:11
Дата пометки                             : UTC 2014-01-31 13:47:41
Программа кодирования                    : Easy CD-DA Extractor (http://www.poikosoft.com)
Обложка                                  : Yes
soal                                     : After The Disco
soar                                     : Broken Bells
soaa                                     : Broken Bells

Аудио
Идентификатор                            : 1
Формат                                   : ALAC
Идентификатор кодека                     : alac
Идентификатор кодека/Информация          : Apple Lossless Audio Codec
Продолжительность                        : 3 м. 39 с.
Duration_LastFrame                       : -89 мс.
Вид битрейта                             : Переменный
Битрейт                                  : 943 Кбит/сек
Каналы                                   : 2 канала
Частота                                  : 44,1 КГц
Битовая глубина                          : 16 бит
Размер потока                            : 24,7 Мбайт (99%)
Язык                                     : English
Дата кодирования                         : UTC 2014-01-31 09:44:11
Дата пометки                             : UTC 2014-01-31 13:47:41

Общее
Полное имя                               : C:\Broken Bells - After The Disco (2014)\03. Broken Bells - Holding On For Life.m4a
Формат                                   : MPEG-4
Профиль формата                          : Apple audio with iTunes info
Идентификатор кодека                     : M4A
Размер файла                             : 27,8 Мбайт
Продолжительность                        : 3 м. 56 с.
Режим общего битрейта                    : Переменный
Общий поток                              : 985 Кбит/сек
Альбом                                   : After The Disco
Альбом/Исполнитель                       : Broken Bells
Часть/Положение                          : 1
Часть/Всего                              : 1
Трек                                     : Holding On For Life
Трек/Положение                           : 3
Трек/Всего                               : 11
Исполнитель                              : Broken Bells
Жанр                                     : Indie Rock
Дата записи                              : 2014
Дата кодирования                         : UTC 2014-01-31 09:44:14
Дата пометки                             : UTC 2014-01-31 13:47:41
Программа кодирования                    : Easy CD-DA Extractor (http://www.poikosoft.com)
Обложка                                  : Yes
soal                                     : After The Disco
soar                                     : Broken Bells
soaa                                     : Broken Bells

Аудио
Идентификатор                            : 1
Формат                                   : ALAC
Идентификатор кодека                     : alac
Идентификатор кодека/Информация          : Apple Lossless Audio Codec
Продолжительность                        : 3 м. 56 с.
Duration_LastFrame                       : -70 мс.
Вид битрейта                             : Переменный
Битрейт                                  : 980 Кбит/сек
Каналы                                   : 2 канала
Частота                                  : 44,1 КГц
Битовая глубина                          : 16 бит
Размер потока                            : 27,7 Мбайт (100%)
Язык                                     : English
Дата кодирования                         : UTC 2014-01-31 09:44:14
Дата пометки                             : UTC 2014-01-31 13:47:41

Общее
Полное имя                               : C:\Broken Bells - After The Disco (2014)\04. Broken Bells - Leave It Alone.m4a
Формат                                   : MPEG-4
Профиль формата                          : Apple audio with iTunes info
Идентификатор кодека                     : M4A
Размер файла                             : 32,7 Мбайт
Продолжительность                        : 5 м. 30 с.
Режим общего битрейта                    : Переменный
Общий поток                              : 830 Кбит/сек
Альбом                                   : After The Disco
Альбом/Исполнитель                       : Broken Bells
Часть/Положение                          : 1
Часть/Всего                              : 1
Трек                                     : Leave It Alone
Трек/Положение                           : 4
Трек/Всего                               : 11
Исполнитель                              : Broken Bells
Жанр                                     : Indie Rock
Дата записи                              : 2014
Дата кодирования                         : UTC 2014-01-31 09:44:17
Дата пометки                             : UTC 2014-01-31 13:47:41
Программа кодирования                    : Easy CD-DA Extractor (http://www.poikosoft.com)
Обложка                                  : Yes
soal                                     : After The Disco
soar                                     : Broken Bells
soaa                                     : Broken Bells

Аудио
Идентификатор                            : 1
Формат                                   : ALAC
Идентификатор кодека                     : alac
Идентификатор кодека/Информация          : Apple Lossless Audio Codec
Продолжительность                        : 5 м. 30 с.
Duration_LastFrame                       : -77 мс.
Вид битрейта                             : Переменный
Битрейт                                  : 826 Кбит/сек
Каналы                                   : 2 канала
Частота                                  : 44,1 КГц
Битовая глубина                          : 16 бит
Размер потока                            : 32,6 Мбайт (100%)
Язык                                     : English
Дата кодирования                         : UTC 2014-01-31 09:44:17
Дата пометки                             : UTC 2014-01-31 13:47:41

Общее
Полное имя                               : C:\Broken Bells - After The Disco (2014)\05. Broken Bells - The Changing Lights.m4a
Формат                                   : MPEG-4
Профиль формата                          : Apple audio with iTunes info
Идентификатор кодека                     : M4A
Размер файла                             : 23,6 Мбайт
Продолжительность                        : 3 м. 48 с.
Режим общего битрейта                    : Переменный
Общий поток                              : 865 Кбит/сек
Альбом                                   : After The Disco
Альбом/Исполнитель                       : Broken Bells
Часть/Положение                          : 1
Часть/Всего                              : 1
Трек                                     : The Changing Lights
Трек/Положение                           : 5
Трек/Всего                               : 11
Исполнитель                              : Broken Bells
Жанр                                     : Indie Rock
Дата записи                              : 2014
Дата кодирования                         : UTC 2014-01-31 09:44:18
Дата пометки                             : UTC 2014-01-31 13:47:41
Программа кодирования                    : Easy CD-DA Extractor (http://www.poikosoft.com)
Обложка                                  : Yes
soal                                     : After The Disco
soar                                     : Broken Bells
soaa                                     : Broken Bells

Аудио
Идентификатор                            : 1
Формат                                   : ALAC
Идентификатор кодека                     : alac
Идентификатор кодека/Информация          : Apple Lossless Audio Codec
Продолжительность                        : 3 м. 48 с.
Duration_LastFrame                       : -31 мс.
Вид битрейта                             : Переменный
Битрейт                                  : 860 Кбит/сек
Каналы                                   : 2 канала
Частота                                  : 44,1 КГц
Битовая глубина                          : 16 бит
Размер потока                            : 23,4 Мбайт (99%)
Язык                                     : English
Дата кодирования                         : UTC 2014-01-31 09:44:18
Дата пометки                             : UTC 2014-01-31 13:47:41

Общее
Полное имя                               : C:\Broken Bells - After The Disco (2014)\06. Broken Bells - Control.m4a
Формат                                   : MPEG-4
Профиль формата                          : Apple audio with iTunes info
Идентификатор кодека                     : M4A
Размер файла                             : 24,5 Мбайт
Продолжительность                        : 3 м. 41 с.
Режим общего битрейта                    : Переменный
Общий поток                              : 927 Кбит/сек
Альбом                                   : After The Disco
Альбом/Исполнитель                       : Broken Bells
Часть/Положение                          : 1
Часть/Всего                              : 1
Трек                                     : Control
Трек/Положение                           : 6
Трек/Всего                               : 11
Исполнитель                              : Broken Bells
Жанр                                     : Indie Rock
Дата записи                              : 2014
Дата кодирования                         : UTC 2014-01-31 09:44:22
Дата пометки                             : UTC 2014-01-31 13:47:41
Программа кодирования                    : Easy CD-DA Extractor (http://www.poikosoft.com)
Обложка                                  : Yes
soal                                     : After The Disco
soar                                     : Broken Bells
soaa                                     : Broken Bells

Аудио
Идентификатор                            : 1
Формат                                   : ALAC
Идентификатор кодека                     : alac
Идентификатор кодека/Информация          : Apple Lossless Audio Codec
Продолжительность                        : 3 м. 41 с.
Duration_LastFrame                       : -92 мс.
Вид битрейта                             : Переменный
Битрейт                                  : 922 Кбит/сек
Каналы                                   : 2 канала
Частота                                  : 44,1 КГц
Битовая глубина                          : 16 бит
Размер потока                            : 24,3 Мбайт (99%)
Язык                                     : English
Дата кодирования                         : UTC 2014-01-31 09:44:22
Дата пометки                             : UTC 2014-01-31 13:47:41

Общее
Полное имя                               : C:\Broken Bells - After The Disco (2014)\07. Broken Bells - Lazy Wonderland.m4a
Формат                                   : MPEG-4
Профиль формата                          : Apple audio with iTunes info
Идентификатор кодека                     : M4A
Размер файла                             : 20,1 Мбайт
Продолжительность                        : 3 м. 21 с.
Режим общего битрейта                    : Переменный
Общий поток                              : 835 Кбит/сек
Альбом                                   : After The Disco
Альбом/Исполнитель                       : Broken Bells
Часть/Положение                          : 1
Часть/Всего                              : 1
Трек                                     : Lazy Wonderland
Трек/Положение                           : 7
Трек/Всего                               : 11
Исполнитель                              : Broken Bells
Жанр                                     : Indie Rock
Дата записи                              : 2014
Дата кодирования                         : UTC 2014-01-31 09:44:22
Дата пометки                             : UTC 2014-01-31 13:47:41
Программа кодирования                    : Easy CD-DA Extractor (http://www.poikosoft.com)
Обложка                                  : Yes
soal                                     : After The Disco
soar                                     : Broken Bells
soaa                                     : Broken Bells

Аудио
Идентификатор                            : 1
Формат                                   : ALAC
Идентификатор кодека                     : alac
Идентификатор кодека/Информация          : Apple Lossless Audio Codec
Продолжительность                        : 3 м. 21 с.
Duration_LastFrame                       : -41 мс.
Вид битрейта                             : Переменный
Битрейт                                  : 829 Кбит/сек
Каналы                                   : 2 канала
Частота                                  : 44,1 КГц
Битовая глубина                          : 16 бит
Размер потока                            : 19,9 Мбайт (99%)
Язык                                     : English
Дата кодирования                         : UTC 2014-01-31 09:44:22
Дата пометки                             : UTC 2014-01-31 13:47:41

Общее
Полное имя                               : C:\Broken Bells - After The Disco (2014)\08. Broken Bells - Medicine.m4a
Формат                                   : MPEG-4
Профиль формата                          : Apple audio with iTunes info
Идентификатор кодека                     : M4A
Размер файла                             : 22,3 Мбайт
Продолжительность                        : 3 м. 28 с.
Режим общего битрейта                    : Переменный
Общий поток                              : 896 Кбит/сек
Альбом                                   : After The Disco
Альбом/Исполнитель                       : Broken Bells
Часть/Положение                          : 1
Часть/Всего                              : 1
Трек                                     : Medicine
Трек/Положение                           : 8
Трек/Всего                               : 11
Исполнитель                              : Broken Bells
Жанр                                     : Indie Rock
Дата записи                              : 2014
Дата кодирования                         : UTC 2014-01-31 09:44:25
Дата пометки                             : UTC 2014-01-31 13:47:41
Программа кодирования                    : Easy CD-DA Extractor (http://www.poikosoft.com)
Обложка                                  : Yes
soal                                     : After The Disco
soar                                     : Broken Bells
soaa                                     : Broken Bells

Аудио
Идентификатор                            : 1
Формат                                   : ALAC
Идентификатор кодека                     : alac
Идентификатор кодека/Информация          : Apple Lossless Audio Codec
Продолжительность                        : 3 м. 28 с.
Duration_LastFrame                       : -8 мс.
Вид битрейта                             : Переменный
Битрейт                                  : 891 Кбит/сек
Каналы                                   : 2 канала
Частота                                  : 44,1 КГц
Битовая глубина                          : 16 бит
Размер потока                            : 22,2 Мбайт (99%)
Язык                                     : English
Дата кодирования                         : UTC 2014-01-31 09:44:25
Дата пометки                             : UTC 2014-01-31 13:47:41

Общее
Полное имя                               : C:\Broken Bells - After The Disco (2014)\09. Broken Bells - No Matter What You're Told.m4a
Формат                                   : MPEG-4
Профиль формата                          : Apple audio with iTunes info
Идентификатор кодека                     : M4A
Размер файла                             : 25,1 Мбайт
Продолжительность                        : 3 м. 50 с.
Режим общего битрейта                    : Переменный
Общий поток                              : 912 Кбит/сек
Альбом                                   : After The Disco
Альбом/Исполнитель                       : Broken Bells
Часть/Положение                          : 1
Часть/Всего                              : 1
Трек                                     : No Matter What You're Told
Трек/Положение                           : 9
Трек/Всего                               : 11
Исполнитель                              : Broken Bells
Жанр                                     : Indie Rock
Дата записи                              : 2014
Дата кодирования                         : UTC 2014-01-31 09:44:25
Дата пометки                             : UTC 2014-01-31 13:47:41
Программа кодирования                    : Easy CD-DA Extractor (http://www.poikosoft.com)
Обложка                                  : Yes
soal                                     : After The Disco
soar                                     : Broken Bells
soaa                                     : Broken Bells

Аудио
Идентификатор                            : 1
Формат                                   : ALAC
Идентификатор кодека                     : alac
Идентификатор кодека/Информация          : Apple Lossless Audio Codec
Продолжительность                        : 3 м. 50 с.
Duration_LastFrame                       : -86 мс.
Вид битрейта                             : Переменный
Битрейт                                  : 907 Кбит/сек
Каналы                                   : 2 канала
Частота                                  : 44,1 КГц
Битовая глубина                          : 16 бит
Размер потока                            : 25,0 Мбайт (99%)
Язык                                     : English
Дата кодирования                         : UTC 2014-01-31 09:44:25
Дата пометки                             : UTC 2014-01-31 13:47:41

Общее
Полное имя                               : C:\Broken Bells - After The Disco (2014)\10. Broken Bells - The Angel And The Fool.m4a
Формат                                   : MPEG-4
Профиль формата                          : Apple audio with iTunes info
Идентификатор кодека                     : M4A
Размер файла                             : 18,4 Мбайт
Продолжительность                        : 3 м. 15 с.
Режим общего битрейта                    : Переменный
Общий поток                              : 793 Кбит/сек
Альбом                                   : After The Disco
Альбом/Исполнитель                       : Broken Bells
Часть/Положение                          : 1
Часть/Всего                              : 1
Трек                                     : The Angel And The Fool
Трек/Положение                           : 10
Трек/Всего                               : 11
Исполнитель                              : Broken Bells
Жанр                                     : Indie Rock
Дата записи                              : 2014
Дата кодирования                         : UTC 2014-01-31 09:44:28
Дата пометки                             : UTC 2014-01-31 13:47:41
Программа кодирования                    : Easy CD-DA Extractor (http://www.poikosoft.com)
Обложка                                  : Yes
soal                                     : After The Disco
soar                                     : Broken Bells
soaa                                     : Broken Bells

Аудио
Идентификатор                            : 1
Формат                                   : ALAC
Идентификатор кодека                     : alac
Идентификатор кодека/Информация          : Apple Lossless Audio Codec
Продолжительность                        : 3 м. 15 с.
Duration_LastFrame                       : -60 мс.
Вид битрейта                             : Переменный
Битрейт                                  : 787 Кбит/сек
Каналы                                   : 2 канала
Частота                                  : 44,1 КГц
Битовая глубина                          : 16 бит
Размер потока                            : 18,3 Мбайт (99%)
Язык                                     : English
Дата кодирования                         : UTC 2014-01-31 09:44:28
Дата пометки                             : UTC 2014-01-31 13:47:41

Общее
Полное имя                               : C:\Broken Bells - After The Disco (2014)\11. Broken Bells - The Remains Of Rock & Roll.m4a
Формат                                   : MPEG-4
Профиль формата                          : Apple audio with iTunes info
Идентификатор кодека                     : M4A
Размер файла                             : 32,4 Мбайт
Продолжительность                        : 4 м. 54 с.
Режим общего битрейта                    : Переменный
Общий поток                              : 923 Кбит/сек
Альбом                                   : After The Disco
Альбом/Исполнитель                       : Broken Bells
Часть/Положение                          : 1
Часть/Всего                              : 1
Трек                                     : The Remains Of Rock & Roll
Трек/Положение                           : 11
Трек/Всего                               : 11
Исполнитель                              : Broken Bells
Жанр                                     : Indie Rock
Дата записи                              : 2014
Дата кодирования                         : UTC 2014-01-31 09:44:29
Дата пометки                             : UTC 2014-01-31 13:47:41
Программа кодирования                    : Easy CD-DA Extractor (http://www.poikosoft.com)
Обложка                                  : Yes
soal                                     : After The Disco
soar                                     : Broken Bells
soaa                                     : Broken Bells

Аудио
Идентификатор                            : 1
Формат                                   : ALAC
Идентификатор кодека                     : alac
Идентификатор кодека/Информация          : Apple Lossless Audio Codec
Продолжительность                        : 4 м. 54 с.
Duration_LastFrame                       : -2 мс.
Вид битрейта                             : Переменный
Битрейт                                  : 919 Кбит/сек
Каналы                                   : 2 канала
Частота                                  : 44,1 КГц
Битовая глубина                          : 16 бит
Размер потока                            : 32,3 Мбайт (100%)
Язык                                     : English
Дата кодирования                         : UTC 2014-01-31 09:44:29
Дата пометки                             : UTC 2014-01-31 13:47:41
Код:

-----------------------

DON'T MODIFY THIS FILE

-----------------------

PERFORMER: auCDtect Task Manager, ver. 1.6.0 RC1 build 1.6.0.1
Copyright (c) 2008-2010 y-soft. All rights reserved
http://y-soft.org

ANALYZER: auCDtect: CD records authenticity detector, version 0.8.2
Copyright (c) 2004 Oleg Berngardt. All rights reserved.
Copyright (c) 2004 Alexander Djourik. All rights reserved.

FILE: 11. Broken Bells - The Remains Of Rock & Roll.m4a
  Size: 33988281 Hash: 55F541A35ED806D763554691D114A092 Accuracy: -m0
  Conclusion: CDDA 100%
  Signature: 93F13B85250DFAE9FC26D3F45CE2D233C138B7BC
FILE: 10. Broken Bells - The Angel And The Fool.m4a
  Size: 19338920 Hash: 3F00312EACB48DAF5DD368462EEE8924 Accuracy: -m0
  Conclusion: CDDA 99%
  Signature: 6C6897EB9852BB03D016EA497E3E556415494878
FILE: 09. Broken Bells - No Matter What You're Told.m4a
  Size: 26308533 Hash: 9B78B027A32AA3BB2F56D8ED7D9DCFC9 Accuracy: -m0
  Conclusion: CDDA 100%
  Signature: 505DAC732DFF3D60EE6FB53A405FA6DAF4AE9A54
FILE: 08. Broken Bells - Medicine.m4a
  Size: 23380357 Hash: A1434018ED6852E8D74EB954061AB32A Accuracy: -m0
  Conclusion: CDDA 99%
  Signature: 3860CC4BD243A3FB3DED53FA671D31062D57935B
FILE: 07. Broken Bells - Lazy Wonderland.m4a
  Size: 21050900 Hash: FCD129E639B99C1CABBD577B06F4AAFB Accuracy: -m0
  Conclusion: CDDA 100%
  Signature: 222AF67C3D69BCBDFAD44170667A336F9D31A917
FILE: 06. Broken Bells - Control.m4a
  Size: 25644068 Hash: 70332840D28D44E01DB60132956519E1 Accuracy: -m0
  Conclusion: CDDA 100%
  Signature: E939EC0192A5941333FA026BA8195A43C45EFCB6
FILE: 05. Broken Bells - The Changing Lights.m4a
  Size: 24713172 Hash: D452BEB648B0B01387ADFD6C821E044A Accuracy: -m0
  Conclusion: CDDA 100%
  Signature: 4615D000838FDD1EA9478FDFF9F5320BF8F02847
FILE: 04. Broken Bells - Leave It Alone.m4a
  Size: 34322262 Hash: 64543BFFC28F7D7C570E0AE38FDF60A6 Accuracy: -m0
  Conclusion: CDDA 100%
  Signature: 5C9C714B425697BD050EF40FFD4DCA26C36226E8
FILE: 03. Broken Bells - Holding On For Life.m4a
  Size: 29162837 Hash: 893F92FFBA2B492ED45608A35C086D64 Accuracy: -m0
  Conclusion: CDDA 100%
  Signature: 3B7D5BF3AD24AB42E2E8AF65F842386FFCFA03DB
FILE: 02. Broken Bells - After The Disco.m4a
  Size: 25992477 Hash: 3704448BF55FF7BABD468A34FB7CCEFE Accuracy: -m0
  Conclusion: CDDA 100%
  Signature: 9C834BE6EAEAEC1E6A0B1984F826C1F7B20009AE
FILE: 01. Broken Bells - Perfect World.m4a
  Size: 46077902 Hash: 00EEC0EF0698110DBFE8D09C7504539F Accuracy: -m0
  Conclusion: CDDA 100%
  Signature: F21790F3ADDA86F28803850D4D7B2D4DF07AB009
Время раздачи: ( с 09:00 - 20:00 - до первых десяти сидов )
[NNM-Club.me]_Broken Bells - After The Disco (2014).torrent
 Торрент: Платиновая раздача  Зарегистрирован
 
Скачать


Примагнититься
 Зарегистрирован:   31 Янв 2014 13:30:45
 Размер:   296 MB  (
 Рейтинг:   4.9 (Голосов: 12)
 Поблагодарили:   35
 Проверка:   Оформление проверено модератором 31 Янв 2014 14:36:16
Как cкачать  ·  Как раздать  ·  Правильно оформить  ·  Поднять ратио!  
HEpetRO
Стаж: 11 лет
Сообщений: 1
Ratio: 3.086
100%
russia.gif
Спасибо за хорошую музыку)
Показать сообщения:   
Начать новую тему   Ответить на тему    Торрент-трекер NNM-Club -> Аудио и Видео -> Музыка Lossless (ALAC) Часовой пояс: GMT + 3
Страница 1 из 1