Классический форум-трекер
canvas not supported
Нас вместе: 4 171 358

Игорь Тальков - Моя любовь (вторая часть) (2001) [ALAC|Tracks]<Авторская песня>


 
 
RSS
Начать новую тему   Ответить на тему    Торрент-трекер NNM-Club -> Аудио и Видео -> Музыка Lossless (ALAC)
Автор Сообщение
Cecidit ®
Стаж: 7 лет 9 мес.
Сообщений: 129
Ratio: 39.772
Поблагодарили: 8815
100%
Откуда: Москва, МО Щелково
russia.gif
Игорь Тальков - Моя любовь (вторая часть) (2001)
Переиздание записей Игоря Талькова вышедшее в 2001 году.
Ремастеринг множества изданных записей.
Шестой диск из переизданных в 2001 году.

Год: 2001
Жанр: Авторская песня
Продолжительность: 00:53:19

Кодек: ALAC
Битрейт: Lossless
Тип раздачи: Tracks
Обложки: Вшиты
Тексты: Вшиты
Кодирование: Easy CD-DA Extractor + iTunes

Треклист:
01. Love You (Я тебя люблю)
02. У твоего окна
03. Замкнутый круг
04. Таня
05. Моя любовь
06. Память / Когда засыпает город (записано на концерте в 1984 г.)
07. Разговоры ни о чем (записано на концерте в 1984 г.)
08. Таня (первый вариант фонограммы)
09. Моя любовь (записано на концерте в ДК МИСИС)
10.Три дома
Код:

Общее
Полное имя                               : /Users/Denis/Library/Containers/net.mediaarea.mediainfo.mac/Data/Music/iTunes/iTunes Media/Music/Игорь Тальков/Моя любовь (Часть 2) (Remastering)/01 Love You (Я тебя люблю).m4a
Формат                                   : MPEG-4
Профиль формата                          : Apple audio with iTunes info
Идентификатор кодека                     : M4A
Размер файла                             : 43,2 Мбайт
Продолжительность                        : 6 м. 0 с.
Режим общего битрейта                    : Переменный
Общий поток                              : 1007 Кбит/сек
Альбом                                   : Моя любовь (Часть 2) (Remastering)
Альбом/Исполнитель                       : Игорь Тальков
Трек                                     : Love You (Я тебя люблю)
Трек/Положение                           : 1
Трек/Всего                               : 10
Исполнитель                              : Игорь Тальков
Жанр                                     : Авторская песня
Дата записи                              : 2001
Дата кодирования                         : UTC 2009-04-11 14:29:10
Дата пометки                             : UTC 2014-05-21 11:22:10
Программа кодирования                    : iTunes 8.1.0.52
Обложка                                  : Yes
Текст песен                              : Я тебя люблю /  / Слова: И. Тальков  / Музыка: И. Тальков  / Исп.: Игорь Тальков  / Она танцует в Сан-Франциско, / Я пою в Москве, / Вся наша жизнь похожа  / На пари. / Я знаю лишь три слова / На английском языке, / Она на русском знает / Только три: / Love you! / I love you! / Я ей говорю. / Love you! / I love you! / Что означает: «Я тебя люблю!» / А между нами океан, / Борьба систем, / На страже часовые пояса. / Но разрывает телефон / Пространство без проблем, / И слышит космос только наши голоса: / Love you! / I love you! / Я ей говорю. / Love you! / I love you! / Она мне отвечает: «Я тебя люблю!» / Друзья меня не понимают, / Крутят пальцем у виска / И говорят, что я сошел с ума, / Немножко… / Но иногда мне кажется, / Что у всех у них – тоска. / По сумасшествию такому, / Тоска. / Love you! / I love you! / Я ей говорю. / Love you! / I love you! / « Я тебя люблю!» /  / Она танцует в Сан-Франциско… / 1991
Encoding Params                          : (Binary)

Аудио
Идентификатор                            : 1
Формат                                   : ALAC
Идентификатор кодека                     : alac
Идентификатор кодека/Информация          : Apple Lossless Audio Codec
Продолжительность                        : 6 м. 0 с.
Duration_LastFrame                       : -41 мс.
Вид битрейта                             : Переменный
Битрейт                                  : 997 Кбит/сек
Каналы                                   : 2 канала
Частота                                  : 44,1 КГц
Битовая глубина                          : 16 бит
Размер потока                            : 42,8 Мбайт (99%)
Дата кодирования                         : UTC 2009-04-11 14:29:10
Дата пометки                             : UTC 2014-05-21 11:22:10

Общее
Полное имя                               : /Users/Denis/Library/Containers/net.mediaarea.mediainfo.mac/Data/Music/iTunes/iTunes Media/Music/Игорь Тальков/Моя любовь (Часть 2) (Remastering)/03 Замкнутый круг.m4a
Формат                                   : MPEG-4
Профиль формата                          : Apple audio with iTunes info
Идентификатор кодека                     : M4A
Размер файла                             : 37,4 Мбайт
Продолжительность                        : 6 м. 14 с.
Режим общего битрейта                    : Переменный
Общий поток                              : 839 Кбит/сек
Альбом                                   : Моя любовь (Часть 2) (Remastering)
Альбом/Исполнитель                       : Игорь Тальков
Трек                                     : Замкнутый круг
Трек/Положение                           : 3
Трек/Всего                               : 10
Исполнитель                              : Игорь Тальков
Жанр                                     : Авторская песня
Дата записи                              : 2001
Дата кодирования                         : UTC 2009-04-11 14:29:45
Дата пометки                             : UTC 2014-05-21 11:22:15
Программа кодирования                    : iTunes 8.1.0.52
Обложка                                  : Yes
Текст песен                              : Замкнутый круг /  / Исп.: Игорь Тальков  /    Часовыми поясами разделенные,  /    Между нами - связь скупая телефонная,  /    И почти что полпланеты  /    С сотнями воздушных трасс,  /    Невозможность созвониться  /    Ну хотя бы в месяц раз  /    Нас не спасает от разговоров ни о чем,  /    И расстоянья тут ни причем.  /      /    А когда я сяду рядом,  /    Загляну в твои глаза,  /    Снова встанут между нами  /    Часовые пояса,  /    И все те же полпланеты  /    С сотнями воздушных трасс,  /    Ожидание рассвета  /    И обрывки скучных фраз  /    Нас разделяют,  /    И одиночества недуг  /    Нас замыкает в тесный свой круг.  /      /    Мы с тобой никак не можем  /    Разобраться, что к чему,  /    И никто нам не поможет  /    И не скажет, почему,  /    Почему нам вместе трудно  /    И еще труднее - врозь,  /    Что-то случилось,  /    Что-то стряслось.  /    Что-то случилось,  /    Что-то стряслось.  /      /    И давно пора, пожалуй,  /    Разомкнуть нам этот круг,  /    Только вот преградой стала  /    Память губ и память рук,  /    Понимать не хочет память,  /    И не хочет память знать  /    Тех проблем, что между нами  /    Успевают возникать,  /    Оберегает  /    И не считается ни с чем,  /    Но не решает наших проблем.  /      /    Мы с тобой никак не можем  /    Разобраться, что к чему,  /    И никто нам не поможет  /    И не скажет, почему,  /    Почему нам вместе трудно  /    И еще труднее - врозь,  /    Что-то случилось, Что-то стряслось.  /      /    Что-то случилось...
Encoding Params                          : (Binary)

Аудио
Идентификатор                            : 1
Формат                                   : ALAC
Идентификатор кодека                     : alac
Идентификатор кодека/Информация          : Apple Lossless Audio Codec
Продолжительность                        : 6 м. 14 с.
Duration_LastFrame                       : -93 мс.
Вид битрейта                             : Переменный
Битрейт                                  : 829 Кбит/сек
Каналы                                   : 2 канала
Частота                                  : 44,1 КГц
Битовая глубина                          : 16 бит
Размер потока                            : 37,0 Мбайт (99%)
Дата кодирования                         : UTC 2009-04-11 14:29:45
Дата пометки                             : UTC 2014-05-21 11:22:15

Общее
Полное имя                               : /Users/Denis/Library/Containers/net.mediaarea.mediainfo.mac/Data/Music/iTunes/iTunes Media/Music/Игорь Тальков/Моя любовь (Часть 2) (Remastering)/04 Таня.m4a
Формат                                   : MPEG-4
Профиль формата                          : Apple audio with iTunes info
Идентификатор кодека                     : M4A
Размер файла                             : 34,3 Мбайт
Продолжительность                        : 4 м. 51 с.
Режим общего битрейта                    : Переменный
Общий поток                              : 989 Кбит/сек
Альбом                                   : Моя любовь (Часть 2) (Remastering)
Альбом/Исполнитель                       : Игорь Тальков
Трек                                     : Таня
Трек/Положение                           : 4
Трек/Всего                               : 10
Исполнитель                              : Игорь Тальков
Жанр                                     : Авторская песня
Дата записи                              : 2001
Дата кодирования                         : UTC 2009-04-11 14:30:03
Дата пометки                             : UTC 2014-05-21 11:22:17
Программа кодирования                    : iTunes 8.1.0.52
Обложка                                  : Yes
Текст песен                              : Таня /  / Слова: И. Тальков  / Исп.: Игорь Тальков  / Та-та-та... Таня, / Потанцуй со мной. / Я совсем забыл о танцах, Таня, / С этою войной. / Изучая корни революций, / Я забыл, как надо отдыхать. / Ну, а годы быстро так несутся, / И мне не 25. /  / Па-па-па... потанцуй ты со мной, / Я когда-то тоже был заводной, / Но сегодня я отброшу все дела, / Потому что ты меня завела. /  / Та-та-та... Таня, / Говорт я в танцах не толков... Не Тальков? / Я не Майкл Джексон и не Лайма. А кто ж ты? / И, уж конечно, не Владимир Пресняков. А жаль! / Понимаешь ли, то то, то это - / Ну просто сумасшедший дом. / Мне, пойми было не до пируэтов, / Потому что я играл с огнем.  /  / Па-па-па... потанцуй ты со мной, / Я когда-то тоже был заводной, / Но сегодня я отброшу все дела, / Потому что ты меня завела. /  / Марксисты, коммунисты, коммунисты, террористы, / Модернисты, онанисты, перестройка. / Маркс, Энгельс, Ленин, Сталин, Хрущев, Брежнев, Горбачев. / ВЧК, ВКП(б), КГБ, СС, КПСС, ВЛКСМ, НКВД, АБВГД, АБВГДЕЁ-моё. / Все... /  / Я устал имею право / Отдохнуть душой. / Я сегодня самый ультра правый, / Мне просто хорошо. /  / Па-па-па... потанцуй ты со мной, / Я когда-то тоже был заводной, / Но сегодня я отброшу все дела, / Потому что ты меня завела. /  / 9 февраля 1991
Encoding Params                          : (Binary)

Аудио
Идентификатор                            : 1
Формат                                   : ALAC
Идентификатор кодека                     : alac
Идентификатор кодека/Информация          : Apple Lossless Audio Codec
Продолжительность                        : 4 м. 51 с.
Duration_LastFrame                       : -72 мс.
Вид битрейта                             : Переменный
Битрейт                                  : 976 Кбит/сек
Каналы                                   : 2 канала
Частота                                  : 44,1 КГц
Битовая глубина                          : 16 бит
Размер потока                            : 33,9 Мбайт (99%)
Дата кодирования                         : UTC 2009-04-11 14:30:03
Дата пометки                             : UTC 2014-05-21 11:22:17

Общее
Полное имя                               : /Users/Denis/Library/Containers/net.mediaarea.mediainfo.mac/Data/Music/iTunes/iTunes Media/Music/Игорь Тальков/Моя любовь (Часть 2) (Remastering)/05 Моя любовь.m4a
Формат                                   : MPEG-4
Профиль формата                          : Apple audio with iTunes info
Идентификатор кодека                     : M4A
Размер файла                             : 35,4 Мбайт
Продолжительность                        : 5 м. 25 с.
Режим общего битрейта                    : Переменный
Общий поток                              : 912 Кбит/сек
Альбом                                   : Моя любовь (Часть 2) (Remastering)
Альбом/Исполнитель                       : Игорь Тальков
Трек                                     : Моя любовь
Трек/Положение                           : 5
Трек/Всего                               : 10
Исполнитель                              : Игорь Тальков
Жанр                                     : Авторская песня
Дата записи                              : 2001
Дата кодирования                         : UTC 2009-04-11 14:30:19
Дата пометки                             : UTC 2014-05-21 11:22:20
Программа кодирования                    : iTunes 8.1.0.52
Обложка                                  : Yes
Текст песен                              : Моя любовь  /  / Все как будто шло своим путем,  / Медленно и верно:  / Успех в делах, семья и дом  / Лечили раненые нервы,  / Не будили звездные дожди  / Моего воображенья,  / И превратились виражи  / В плавное скольженье.  /  / Скажи, откуда ты взялась,  / Моя нечаянная радость,  / Несвоевременная страсть,  / Горькая, а сладость?  / Нарушив мой земной покой,  / Ты от какой отбилась стаи,  / И, что мне делать с тобой такой,  / Я не знаю.  /  / Вздрогнул, как от выстрела, мой дом,  / Стены закачало,  / Когда в окно твоим крылом  / Счастье постучало.  / Понимал ли дом, что он теперь  / Для меня стал тесен,  / Оставив незакрытой дверь  / И окон не завесив.  /  / Скажи, откуда ты взялась  / И опоздать не испугалась,  / Моя неведомая страсть,  / Моя нечаянная радость,  / Нарушив мой земной покой,  / Ты от какой отбилась стаи,  / И, что мне делать с тобой такой,  / Я не знаю.  /  / Мой уютный замок из песка  / Стал как будто ниже,  / И заменили облака  / Рухнувшую крышу.  / Ты смотрела, как под крышей той  / Разгорались страсти,  / Сказав, что на беде чужой  / Мы не построим счастья.  /  / Да я бы мог, конечно, отпустить  / Тебя, но это не поможет  / Чужому горю, ведь простить  / Меня мой дом уже не сможет;  / Расстаться можно и любя,  / Боль рассосется понемногу,  / Но только, обманув себя,  / Мы обмануть не сможем Бога.  /  / Скажи, откуда ты взялась?!!  / Нарушив мой земной покой,  / Ты от какой отбилась стаи,  / И, что мне делать с тобой такой?  / Не знаю!
Encoding Params                          : (Binary)

Аудио
Идентификатор                            : 1
Формат                                   : ALAC
Идентификатор кодека                     : alac
Идентификатор кодека/Информация          : Apple Lossless Audio Codec
Продолжительность                        : 5 м. 25 с.
Duration_LastFrame                       : -49 мс.
Вид битрейта                             : Переменный
Битрейт                                  : 900 Кбит/сек
Каналы                                   : 2 канала
Частота                                  : 44,1 КГц
Битовая глубина                          : 16 бит
Размер потока                            : 35,0 Мбайт (99%)
Дата кодирования                         : UTC 2009-04-11 14:30:19
Дата пометки                             : UTC 2014-05-21 11:22:20

Общее
Полное имя                               : /Users/Denis/Library/Containers/net.mediaarea.mediainfo.mac/Data/Music/iTunes/iTunes Media/Music/Игорь Тальков/Моя любовь (Часть 2) (Remastering)/06 Память _ Когда засыпает город (концерт 1984 г.).m4a
Формат                                   : MPEG-4
Профиль формата                          : Apple audio with iTunes info
Идентификатор кодека                     : M4A
Размер файла                             : 23,0 Мбайт
Продолжительность                        : 4 м. 35 с.
Режим общего битрейта                    : Переменный
Общий поток                              : 700 Кбит/сек
Альбом                                   : Моя любовь (Часть 2) (Remastering)
Альбом/Исполнитель                       : Игорь Тальков
Трек                                     : Память _ Когда засыпает город (концерт 1984 г.)
Трек/Положение                           : 6
Трек/Всего                               : 10
Исполнитель                              : Игорь Тальков
Жанр                                     : Авторская песня
Дата записи                              : 2001
Дата кодирования                         : UTC 2009-04-11 14:30:30
Дата пометки                             : UTC 2014-05-21 11:22:21
Программа кодирования                    : iTunes 8.1.0.52
Обложка                                  : Yes
Текст песен                              : Память  /  / Когда зажигаются звезды в небе ночном,  / Память непрошенным гостем входит в мой дом:  / Тихо войдет, свечи зажжет, музыку включит  / И беседу начнет.  /  / В эту минуту твои оживают глаза,  / В них, как и прежде, невольно таится слеза,  / Смотрят с надеждой, смотрят любя:  / Вот и опять я с тобою и - без тебя.  /  / Вот и опять я с тобою и - без тебя.  /  / Я приглашу на танец Память,  / И мы закружимся вдвоем,  / И вместе с нами, вместе с нами  / Помолодеет старый дом,  / Ну а когда погаснут свечи  / И за окном рассвет вздохнет,  / Произнесет: "До скорой встречи", -  / Мне тихо Память и уйдет.  /  / Когда зажигаются звезды в небе ночном,  / Память непрошенным гостем входит в мой дом:  / Кружатся даты, свечи горят,  / В рамке багетной опять оживает твой взгляд.  /  / Так продолжается каждую, каждую ночь,  / Ты далеко от меня и не можешь помочь,  / Ты так стремишься найти свое счастье с другим,  / Ты далека от меня и несчастлива с ним.  /  / Ты далека от меня и несчастлива с ним.  /  / Я приглашу на танец Память,  / И мы закружимся вдвоем,  / И вместе с нами, вместе с нами  / Помолодеет старый дом,  / Ну а когда погаснут свечи  / И за окном рассвет вздохнет,  / Произнесет: "До скорой встречи", -  / Мне тихо Память и уйдет.  /  / Я приглашу на танец Память...
Encoding Params                          : (Binary)

Аудио
Идентификатор                            : 1
Формат                                   : ALAC
Идентификатор кодека                     : alac
Идентификатор кодека/Информация          : Apple Lossless Audio Codec
Продолжительность                        : 4 м. 35 с.
Duration_LastFrame                       : -43 мс.
Вид битрейта                             : Переменный
Битрейт                                  : 687 Кбит/сек
Каналы                                   : 2 канала
Частота                                  : 44,1 КГц
Битовая глубина                          : 16 бит
Размер потока                            : 22,5 Мбайт (98%)
Дата кодирования                         : UTC 2009-04-11 14:30:30
Дата пометки                             : UTC 2014-05-21 11:22:21

Общее
Полное имя                               : /Users/Denis/Library/Containers/net.mediaarea.mediainfo.mac/Data/Music/iTunes/iTunes Media/Music/Игорь Тальков/Моя любовь (Часть 2) (Remastering)/07 Разговоры ни о чем (концерт 1984 г.).m4a
Формат                                   : MPEG-4
Профиль формата                          : Apple audio with iTunes info
Идентификатор кодека                     : M4A
Размер файла                             : 27,6 Мбайт
Продолжительность                        : 5 м. 47 с.
Режим общего битрейта                    : Переменный
Общий поток                              : 665 Кбит/сек
Альбом                                   : Моя любовь (Часть 2) (Remastering)
Альбом/Исполнитель                       : Игорь Тальков
Трек                                     : Разговоры ни о чем (концерт 1984 г.)
Трек/Положение                           : 7
Трек/Всего                               : 10
Исполнитель                              : Игорь Тальков
Жанр                                     : Авторская песня
Дата записи                              : 2001
Дата кодирования                         : UTC 2009-04-11 14:30:42
Дата пометки                             : UTC 2014-05-21 11:22:23
Программа кодирования                    : iTunes 8.1.0.52
Обложка                                  : Yes
Текст песен                              : Разговоры ни о чём /  / Слова: И. Тальков  / Исп.: Игорь Тальков  / Разговоры ни о чём / Пресным бьют в тебе ключом / И беспомощно пытаются пробиться / В мои мысли. / Ну а мысли за окном / Тихо шепчутся с дождём / И купаются в слезинках мокрых листьев, / Мои мысли... /  / Я беседу поддержу / И с тобою посижу, / Понимающе кивая головою. / Здесь есть ты, / Меня - нет, / Между нами сотни лет, / Этот сказочный рассвет / И дождь с листвою. /  / Разговоры ни о чём... / Ну а как назвать ещё / Эти скучные вопросы и ответы / О погоде и цветах, / И несбывшихся мечтах, / И о том, какое пасмурное лето. / Вопросы и ответы... /  / Но я беседу поддержу / И с тобою посижу, / Понимающе кивая головою. / Здесь есть ты, / Меня - нет, / Между нами сотни лет, / Этот сказочный рассвет / И дождь с листвою. /  / Разговоры ни о чём... / Только я здесь ни при чём, / Я давно ушёл в глубокое молчанье, / За собой захлопнул дверь, / И никто меня теперь, / Никто / Не обременит больным воспоминаньем. /  / Я беседу поддержу / И с тобою посижу, / Понимающе кивая головою. / Здесь есть ты, / Меня - нет, / Между нами сотни лет, / Этот сказочный рассвет / И дождь с листвою. /  / И отрадно сознавать, / Как беспомощна кровать / В возбуждении живого интереса / К разговору ни о чём, / И на голое плечо / Я смотрю, как на прочитанную прессу... / Никакого интереса. /  / Я беседу поддержу / И с тобою посижу, / Понимающе кивая головою. / Здесь есть ты, / Меня - нет, / Между нами сотни лет, / Этот сказочный рассвет / И дождь с листвою. /  / И свободно так дышать, / И не хочется бежать / От тебя и от себя, как было прежде. / Отгораживает дверь / От бесчисленных потерь / И от страха потерять / Свою надежду. /  / 1981
Encoding Params                          : (Binary)

Аудио
Идентификатор                            : 1
Формат                                   : ALAC
Идентификатор кодека                     : alac
Идентификатор кодека/Информация          : Apple Lossless Audio Codec
Продолжительность                        : 5 м. 47 с.
Duration_LastFrame                       : -47 мс.
Вид битрейта                             : Переменный
Битрейт                                  : 654 Кбит/сек
Каналы                                   : 2 канала
Частота                                  : 44,1 КГц
Битовая глубина                          : 16 бит
Размер потока                            : 27,1 Мбайт (98%)
Дата кодирования                         : UTC 2009-04-11 14:30:42
Дата пометки                             : UTC 2014-05-21 11:22:23

Общее
Полное имя                               : /Users/Denis/Library/Containers/net.mediaarea.mediainfo.mac/Data/Music/iTunes/iTunes Media/Music/Игорь Тальков/Моя любовь (Часть 2) (Remastering)/10 Три дома.m4a
Формат                                   : MPEG-4
Профиль формата                          : Apple audio with iTunes info
Идентификатор кодека                     : M4A
Размер файла                             : 22,8 Мбайт
Продолжительность                        : 4 м. 16 с.
Режим общего битрейта                    : Переменный
Общий поток                              : 746 Кбит/сек
Альбом                                   : Моя любовь (Часть 2) (Remastering)
Альбом/Исполнитель                       : Игорь Тальков
Трек                                     : Три дома
Трек/Положение                           : 10
Трек/Всего                               : 10
Исполнитель                              : Игорь Тальков
Жанр                                     : Авторская песня
Дата записи                              : 2001
Дата кодирования                         : UTC 2009-04-11 14:31:23
Дата пометки                             : UTC 2014-05-21 11:22:28
Программа кодирования                    : iTunes 8.1.0.52
Обложка                                  : Yes
Текст песен                              : Три дома /  / Слова: И. Тальков  / Исп.: Игорь Тальков  / Я в одиночестве бездонном / У безымянного окна / Стою и слышу, как крадется тишина. / Тяжелой ношею на плечи / Ложиться хмурый летний вечер, / С немым укором в то окно глядит луна. /  / И как назло воображенье / Выводит без предупрежденья / Три разных дома, / Где живут мои друзья / Я в те дома вхожу без стука, / Там мне протягивают руку / И приглашают обогреться у огня. /  / Первый дом - родной мой дом - / Окутан светом и теплом, / В нем живет моё детство. / Дом второй, тоже мой, / До боли милый и родной, / В нем живет мое сердце. / Третий дом - дом родной, / Родной до боли, но не мой, / В этот дом вхожу я не дыша... / В нем живет моя душа. /  / В каком-то странном исступленье, / Меняя краски без труда, / Воображение творит как никогда: / Я вижу маму в доме первом, / Она надеется, наверно, / Что я вернусь к ней и останусь навсегда. /  / Но вот сместилось расстоянье / И воплощенным ожиданьем / В притихшей комнате ребенок сладко спит. / И наконец, тот домик третий: / Словно сошедшая с портрета / В нем тихо женщина прекрасная грустит. /  / Первый дом - родной мой дом - / Окутан светом и теплом, / В нем живет моё детство. / Дом второй, тоже мой, / До боли милый и родной, / В нем живет мое сердце. / Третий дом - дом родной, / Родной до боли, но не мой, / В этот дом вхожу я не дыша... / В нем живет моя душа. /  / Я в одиночестве бездонном / Стою один на всей земле, / Слежу, как тают все три дома / На нарисованном стекле... /  / Май 1985
Encoding Params                          : (Binary)

Аудио
Идентификатор                            : 1
Формат                                   : ALAC
Идентификатор кодека                     : alac
Идентификатор кодека/Информация          : Apple Lossless Audio Codec
Продолжительность                        : 4 м. 16 с.
Duration_LastFrame                       : -16 мс.
Вид битрейта                             : Переменный
Битрейт                                  : 732 Кбит/сек
Каналы                                   : 2 канала
Частота                                  : 44,1 КГц
Битовая глубина                          : 16 бит
Размер потока                            : 22,3 Мбайт (98%)
Дата кодирования                         : UTC 2009-04-11 14:31:23
Дата пометки                             : UTC 2014-05-21 11:22:28
Код:

-----------------------

DON'T MODIFY THIS FILE

-----------------------

PERFORMER: auCDtect Task Manager, ver. 1.6.0 RC1 build 1.6.0.1
Copyright (c) 2008-2010 y-soft. All rights reserved
http://y-soft.org

ANALYZER: auCDtect: CD records authenticity detector, version 0.8.2
Copyright (c) 2004 Oleg Berngardt. All rights reserved.
Copyright (c) 2004 Alexander Djourik. All rights reserved.

FILE: 10 Три дома.m4a
  Size: 23879373 Hash: FC69378171F6424708FC45AE1A9B20C2 Accuracy: -m8
  Conclusion: CDDA 100%
  Signature: 5DCCF7EC6E04B042A9B48EEE5A55FA92CB405EA8
FILE: 09 Моя любовь (концертная запись).m4a
  Size: 27554476 Hash: 33A3F28144A8D8F484301E101430E204 Accuracy: -m8
  Conclusion: CDDA 100%
  Signature: 91E244A97EBD47520151362A10904AAEE2501C4B
FILE: 08 Таня (первый вариант фонограммы).m4a
  Size: 37245123 Hash: 358EC76B52840F9C4B268B97A108EEDF Accuracy: -m8
  Conclusion: CDDA 100%
  Signature: FDE9A4F3292E0AA1AD9DCCDC13DFDC189DDF2C01
FILE: 07 Разговоры ни о чем (концерт 1984 г.).m4a
  Size: 28911775 Hash: CDA97B1D443A2B6B1BD1EB2ABF0055E7 Accuracy: -m8
  Conclusion: CDDA 100%
  Signature: 91437ED33423696A7DC1B57789DD4ECE03321CD1
FILE: 06 Память _ Когда засыпает город (концерт 1984 г.).m4a
  Size: 24071990 Hash: 9534BDA8B5B74FC8355E2488200927F5 Accuracy: -m8
  Conclusion: CDDA 100%
  Signature: 7380CE25F8003617D1715BBB403725D75D033B01
FILE: 05 Моя любовь.m4a
  Size: 37121939 Hash: E7544F0ABE98EC8510391DCEE143A7B3 Accuracy: -m8
  Conclusion: CDDA 100%
  Signature: A2CCA2C51EB639509C61EB6DB610AC241D5B3A35
FILE: 04 Таня.m4a
  Size: 35968037 Hash: A9079CD632FC36A8D91405929DA6942B Accuracy: -m8
  Conclusion: CDDA 99%
  Signature: 09224DD50F8B3139A690A73AED4B7B10351A9FBE
FILE: 03 Замкнутый круг.m4a
  Size: 39219394 Hash: AFBC2F794E27A73447DCBF6F59890CF7 Accuracy: -m8
  Conclusion: CDDA 99%
  Signature: C28A9CF68EB3B659339F9A7E074C9355D8F2F37E
FILE: 02 У твоего окна.m4a
  Size: 35880388 Hash: 664EFD2B6D5E7A125C843B4A43E2F535 Accuracy: -m8
  Conclusion: CDDA 99%
  Signature: 1A0CD130B6FFDE2A864BF6D9B19BA7A39F132BC6
FILE: 01 Love You (Я тебя люблю).m4a
  Size: 45350762 Hash: 3EB566F802D01445DD4255DD2082400A Accuracy: -m8
  Conclusion: CDDA 100%
  Signature: B83C5A9892F9435A4541B365A89A11B7FD6286E0

Все остальные диски переизданные в 2001 году

Родина моя - 1-й диск
Сцена - 2-й диск
Призвание - 3-й диск
Этот мир - 4-й диск
Моя любовь (первая часть) - 5-й диск
Суд (первая часть - 7-й диск
Суд (вторая часть - 8-й диск

Время раздачи: с 20:00 до 03:00 постоянно / часто 24/7 - До первых 5 скачавших
[NNM-Club.me]_Igor' Tal'kov (2001) Moya lyubov' (CHast' 2).torrent
 Торрент: Платиновая раздача  Зарегистрирован
 
Скачать


Примагнититься
 Зарегистрирован:   23 Май 2014 02:20:25
 Размер:   320 MB  (
 Рейтинг:   4 (Голосов: 37)
 Поблагодарили:   78
 Проверка:   Оформление проверено модератором 23 Май 2014 06:48:12
Как cкачать  ·  Как раздать  ·  Правильно оформить  ·  Поднять ратио!  
Показать сообщения:   
Начать новую тему   Ответить на тему    Торрент-трекер NNM-Club -> Аудио и Видео -> Музыка Lossless (ALAC) Часовой пояс: GMT + 3
Страница 1 из 1