Классический форум-трекер
canvas not supported
Нас вместе: 4 171 490

Кипелов - Вавилон (Single) (2004) [ALAC|Tracks]<Heavy Metal>


 
 
RSS
Начать новую тему   Ответить на тему    Торрент-трекер NNM-Club -> Аудио и Видео -> Музыка Lossless (ALAC)
Автор Сообщение
Cecidit ®
Стаж: 7 лет 10 мес.
Сообщений: 129
Ratio: 39.772
Поблагодарили: 8815
100%
Откуда: Москва, МО Щелково
russia.gif
Кипелов - Вавилон (Single) (2004)
Год: 2004
Жанр: Heavy Metal
Продолжительность: 00:17:48

Кодек: ALAC
Битрейт: Lossless
Тип раздачи: Tracks
Обложки: Вшиты
Кодирование: Easy CD-DA Extractor + iTunes

«Вавилон» — Первый сингл Кипелова на одноимённую песню в жанре Heavy Metal. В сингл вошли песня «Вавилон» и две перезаписанные песни с альбома «Смутное время».
«Вавилон» стал первой новой песней, выпущенной Кипеловым после раскола Арии. Это единственный студийный диск Кипелова, который записан ещё «арийским» составом с участием Сергея Терентьева и Сергея Маврина.

Треклист:
01. Вавилон (5:46)
02. Я Свободен (7:13)
03. Смутное Время (4:50)
Код:

Общее
Полное имя                               : /Users/Denis/Library/Containers/net.mediaarea.mediainfo.mac/Data/Music/iTunes/iTunes Media/Music/Кипелов/Вавилон (Single)/01 Вавилон.m4a
Формат                                   : MPEG-4
Профиль формата                          : Apple audio with iTunes info
Идентификатор кодека                     : M4A
Размер файла                             : 42,0 Мбайт
Продолжительность                        : 5 м. 45 с.
Режим общего битрейта                    : Переменный
Общий поток                              : 1020 Кбит/сек
Альбом                                   : Вавилон (Single)
Альбом/Исполнитель                       : Кипелов
Трек                                     : Вавилон
Трек/Положение                           : 1
Исполнитель                              : Кипелов
Жанр                                     : Heavy Metal
Дата записи                              : 2004
Дата кодирования                         : UTC 2014-05-18 18:18:32
Дата пометки                             : UTC 2014-05-21 06:36:05
Программа кодирования                    : Easy CD-DA Extractor (http://www.poikosoft.com)
Обложка                                  : Yes

Аудио
Идентификатор                            : 1
Формат                                   : ALAC
Идентификатор кодека                     : alac
Идентификатор кодека/Информация          : Apple Lossless Audio Codec
Продолжительность                        : 5 м. 45 с.
Duration_LastFrame                       : -72 мс.
Вид битрейта                             : Переменный
Битрейт                                  : 1008 Кбит/сек
Каналы                                   : 2 канала
Частота                                  : 44,1 КГц
Битовая глубина                          : 16 бит
Размер потока                            : 41,5 Мбайт (99%)
Язык                                     : English
Дата кодирования                         : UTC 2014-05-18 18:18:32
Дата пометки                             : UTC 2014-05-21 06:36:05

Общее
Полное имя                               : /Users/Denis/Library/Containers/net.mediaarea.mediainfo.mac/Data/Music/iTunes/iTunes Media/Music/Кипелов/Вавилон (Single)/02 Я cвободен.m4a
Формат                                   : MPEG-4
Профиль формата                          : Apple audio with iTunes info
Идентификатор кодека                     : M4A
Размер файла                             : 49,6 Мбайт
Продолжительность                        : 7 м. 13 с.
Режим общего битрейта                    : Переменный
Общий поток                              : 961 Кбит/сек
Альбом                                   : Вавилон (Single)
Альбом/Исполнитель                       : Кипелов
Трек                                     : Я cвободен
Трек/Положение                           : 2
Исполнитель                              : Кипелов
Жанр                                     : Heavy Metal
Дата записи                              : 2004
Дата кодирования                         : UTC 2014-05-18 18:18:32
Дата пометки                             : UTC 2014-05-21 06:36:06
Программа кодирования                    : Easy CD-DA Extractor (http://www.poikosoft.com)
Обложка                                  : Yes

Аудио
Идентификатор                            : 1
Формат                                   : ALAC
Идентификатор кодека                     : alac
Идентификатор кодека/Информация          : Apple Lossless Audio Codec
Продолжительность                        : 7 м. 13 с.
Duration_LastFrame                       : -5 мс.
Вид битрейта                             : Переменный
Битрейт                                  : 952 Кбит/сек
Каналы                                   : 2 канала
Частота                                  : 44,1 КГц
Битовая глубина                          : 16 бит
Размер потока                            : 49,1 Мбайт (99%)
Язык                                     : English
Дата кодирования                         : UTC 2014-05-18 18:18:32
Дата пометки                             : UTC 2014-05-21 06:36:06

Общее
Полное имя                               : /Users/Denis/Library/Containers/net.mediaarea.mediainfo.mac/Data/Music/iTunes/iTunes Media/Music/Кипелов/Вавилон (Single)/03 Смутное время.m4a
Формат                                   : MPEG-4
Профиль формата                          : Apple audio with iTunes info
Идентификатор кодека                     : M4A
Размер файла                             : 33,4 Мбайт
Продолжительность                        : 4 м. 50 с.
Режим общего битрейта                    : Переменный
Общий поток                              : 965 Кбит/сек
Альбом                                   : Вавилон (Single)
Альбом/Исполнитель                       : Кипелов
Трек                                     : Смутное время
Трек/Положение                           : 3
Исполнитель                              : Кипелов
Жанр                                     : Heavy Metal
Дата записи                              : 2004
Дата кодирования                         : UTC 2014-05-18 18:19:36
Дата пометки                             : UTC 2014-05-21 06:36:06
Программа кодирования                    : Easy CD-DA Extractor (http://www.poikosoft.com)
Обложка                                  : Yes

Аудио
Идентификатор                            : 1
Формат                                   : ALAC
Идентификатор кодека                     : alac
Идентификатор кодека/Информация          : Apple Lossless Audio Codec
Продолжительность                        : 4 м. 50 с.
Duration_LastFrame                       : -63 мс.
Вид битрейта                             : Переменный
Битрейт                                  : 952 Кбит/сек
Каналы                                   : 2 канала
Частота                                  : 44,1 КГц
Битовая глубина                          : 16 бит
Размер потока                            : 32,9 Мбайт (99%)
Язык                                     : English
Дата кодирования                         : UTC 2014-05-18 18:19:36
Дата пометки                             : UTC 2014-05-21 06:36:06
Код:

-----------------------

DON'T MODIFY THIS FILE

-----------------------

PERFORMER: auCDtect Task Manager, ver. 1.6.0 RC1 build 1.6.0.1
Copyright (c) 2008-2010 y-soft. All rights reserved
http://y-soft.org

ANALYZER: auCDtect: CD records authenticity detector, version 0.8.2
Copyright (c) 2004 Oleg Berngardt. All rights reserved.
Copyright (c) 2004 Alexander Djourik. All rights reserved.

FILE: 03 Смутное время.m4a
  Size: 35018305 Hash: 1BEEF1A35D2DEB1CAB49F9416E7323F7 Accuracy: -m8
  Conclusion: CDDA 100%
  Signature: CB8D1D4BC998A94E5A191F789886E287F9E5C26C
FILE: 02 Я cвободен.m4a
  Size: 52037435 Hash: 7186D98EE09F13972CE5304ABF60C72F Accuracy: -m8
  Conclusion: CDDA 100%
  Signature: B1935F5B3766A5C2CE0159FFBA82AF391B65A848
FILE: 01 Вавилон.m4a
  Size: 44055113 Hash: 8E5CC2665EEBB69D3217903224A3AD59 Accuracy: -m8
  Conclusion: CDDA 100%
  Signature: 7E1DE5332136D3A1865DA43F27ECACD02547DFCF
Время раздачи: с 20:00 до 03:00 постоянно / часто 24/7 - До первых 5 скачавших
[NNM-Club.me]_Kipelov (2004) Vavilon (Single).torrent
 Торрент: Платиновая раздача  Зарегистрирован
 
Скачать


Примагнититься
 Зарегистрирован:   24 Май 2014 09:28:32
 Размер:   125 MB  (
 Рейтинг:   4.6 (Голосов: 20)
 Поблагодарили:   56
 Проверка:   Оформление проверено модератором 24 Май 2014 09:37:57
Как cкачать  ·  Как раздать  ·  Правильно оформить  ·  Поднять ратио!  
Показать сообщения:   
Начать новую тему   Ответить на тему    Торрент-трекер NNM-Club -> Аудио и Видео -> Музыка Lossless (ALAC) Часовой пояс: GMT + 3
Страница 1 из 1