Классический форум-трекер
canvas not supported
Нас вместе: 4 171 446

Сергей Маврин - Одиночество (2002) [ALAC|Tracks]<Heavy Metal>


 
 
RSS
Начать новую тему   Ответить на тему    Торрент-трекер NNM-Club -> Аудио и Видео -> Музыка Lossless (ALAC)
Автор Сообщение
Cecidit ®
Стаж: 7 лет 10 мес.
Сообщений: 129
Ratio: 39.772
Поблагодарили: 8815
100%
Откуда: Москва, МО Щелково
russia.gif
Сергей Маврин - Одиночество (2002)

Релиз выходил в двух вариантах:

- с полноценным буклетом
- с одним разворотом
В остальном варианты совершенно идентичны. Оба варианта имеют один и тот же каталоговый номер.

Год: 2002
Жанр: Heavy Metal
Продолжительность: 00:56:36

Кодек: ALAC
Битрейт: Lossless
Тип раздачи: Tracks
Обложки: Вшиты
Кодирование: Easy CD-DA Extractor + iTunes
Лейбл: Irond Ltd.

Cостав:
Валерий Кипелов - вокал (2)
Артур Беркут - вокал (1, 6, 9)
Стас Витарт - вокал (3, 7, 10)
Артём Стыров - вокал (5, 12)
Алексей Харьков - бас-гитара
Ринат Мухамеджанов - ударные
Юрий Алексеев - ритм-гитара
Сергей Маврин - гитара, клавиши

Треклист:
01. Смейся и плачь
02. Свет дневной иссяк
03. Век мой, зверь
04. Харон
05. На осколках веры
06. Любовь и боль
07. Все в прошлом
08. Вчера
09. Странник
10. Ветер
11. До свиданья
12. Одиночество
Код:

Общее
Полное имя                               : /Users/Denis/Library/Containers/net.mediaarea.mediainfo.mac/Data/Music/iTunes/iTunes Media/Music/Сергей Маврин/Одиночество/01 Смейся и плачь.m4a
Формат                                   : MPEG-4
Профиль формата                          : Apple audio with iTunes info
Идентификатор кодека                     : M4A
Размер файла                             : 30,6 Мбайт
Продолжительность                        : 4 м. 16 с.
Режим общего битрейта                    : Переменный
Общий поток                              : 1002 Кбит/сек
Альбом                                   : Одиночество
Альбом/Исполнитель                       : Сергей Маврин
Трек                                     : Смейся и плачь
Трек/Положение                           : 1
Исполнитель                              : Сергей Маврин
Жанр                                     : Heavy Metal
Дата записи                              : 2002
Дата кодирования                         : UTC 2014-05-19 05:00:33
Дата пометки                             : UTC 2014-05-21 06:51:39
Программа кодирования                    : Easy CD-DA Extractor (http://www.poikosoft.com)
Обложка                                  : Yes

Аудио
Идентификатор                            : 1
Формат                                   : ALAC
Идентификатор кодека                     : alac
Идентификатор кодека/Информация          : Apple Lossless Audio Codec
Продолжительность                        : 4 м. 16 с.
Duration_LastFrame                       : -55 мс.
Вид битрейта                             : Переменный
Битрейт                                  : 985 Кбит/сек
Каналы                                   : 2 канала
Частота                                  : 44,1 КГц
Битовая глубина                          : 16 бит
Размер потока                            : 30,1 Мбайт (98%)
Язык                                     : English
Дата кодирования                         : UTC 2014-05-19 05:00:33
Дата пометки                             : UTC 2014-05-21 06:51:39

Общее
Полное имя                               : /Users/Denis/Library/Containers/net.mediaarea.mediainfo.mac/Data/Music/iTunes/iTunes Media/Music/Сергей Маврин/Одиночество/02 Свет дневной иссяк.m4a
Формат                                   : MPEG-4
Профиль формата                          : Apple audio with iTunes info
Идентификатор кодека                     : M4A
Размер файла                             : 42,6 Мбайт
Продолжительность                        : 6 м. 10 с.
Режим общего битрейта                    : Переменный
Общий поток                              : 966 Кбит/сек
Альбом                                   : Одиночество
Альбом/Исполнитель                       : Сергей Маврин
Трек                                     : Свет дневной иссяк
Трек/Положение                           : 2
Исполнитель                              : Сергей Маврин
Жанр                                     : Heavy Metal
Дата записи                              : 2002
Дата кодирования                         : UTC 2014-05-19 05:00:33
Дата пометки                             : UTC 2014-05-21 06:51:39
Программа кодирования                    : Easy CD-DA Extractor (http://www.poikosoft.com)
Обложка                                  : Yes

Аудио
Идентификатор                            : 1
Формат                                   : ALAC
Идентификатор кодека                     : alac
Идентификатор кодека/Информация          : Apple Lossless Audio Codec
Продолжительность                        : 6 м. 10 с.
Duration_LastFrame                       : -59 мс.
Вид битрейта                             : Переменный
Битрейт                                  : 954 Кбит/сек
Каналы                                   : 2 канала
Частота                                  : 44,1 КГц
Битовая глубина                          : 16 бит
Размер потока                            : 42,1 Мбайт (99%)
Язык                                     : English
Дата кодирования                         : UTC 2014-05-19 05:00:33
Дата пометки                             : UTC 2014-05-21 06:51:39

Общее
Полное имя                               : /Users/Denis/Library/Containers/net.mediaarea.mediainfo.mac/Data/Music/iTunes/iTunes Media/Music/Сергей Маврин/Одиночество/03 Век мой, зверь.m4a
Формат                                   : MPEG-4
Профиль формата                          : Apple audio with iTunes info
Идентификатор кодека                     : M4A
Размер файла                             : 41,6 Мбайт
Продолжительность                        : 5 м. 30 с.
Режим общего битрейта                    : Переменный
Общий поток                              : 1058 Кбит/сек
Альбом                                   : Одиночество
Альбом/Исполнитель                       : Сергей Маврин
Трек                                     : Век мой, зверь
Трек/Положение                           : 3
Исполнитель                              : Сергей Маврин
Жанр                                     : Heavy Metal
Дата записи                              : 2002
Дата кодирования                         : UTC 2014-05-19 05:01:24
Дата пометки                             : UTC 2014-05-21 06:51:39
Программа кодирования                    : Easy CD-DA Extractor (http://www.poikosoft.com)
Обложка                                  : Yes

Аудио
Идентификатор                            : 1
Формат                                   : ALAC
Идентификатор кодека                     : alac
Идентификатор кодека/Информация          : Apple Lossless Audio Codec
Продолжительность                        : 5 м. 30 с.
Duration_LastFrame                       : -81 мс.
Вид битрейта                             : Переменный
Битрейт                                  : 1045 Кбит/сек
Каналы                                   : 2 канала
Частота                                  : 44,1 КГц
Битовая глубина                          : 16 бит
Размер потока                            : 41,1 Мбайт (99%)
Язык                                     : English
Дата кодирования                         : UTC 2014-05-19 05:01:24
Дата пометки                             : UTC 2014-05-21 06:51:39

Общее
Полное имя                               : /Users/Denis/Library/Containers/net.mediaarea.mediainfo.mac/Data/Music/iTunes/iTunes Media/Music/Сергей Маврин/Одиночество/04 Харон.m4a
Формат                                   : MPEG-4
Профиль формата                          : Apple audio with iTunes info
Идентификатор кодека                     : M4A
Размер файла                             : 12,6 Мбайт
Продолжительность                        : 1 м. 39 с.
Режим общего битрейта                    : Переменный
Общий поток                              : 1062 Кбит/сек
Альбом                                   : Одиночество
Альбом/Исполнитель                       : Сергей Маврин
Трек                                     : Харон
Трек/Положение                           : 4
Исполнитель                              : Сергей Маврин
Жанр                                     : Heavy Metal
Дата записи                              : 2002
Дата кодирования                         : UTC 2014-05-19 05:01:40
Дата пометки                             : UTC 2014-05-21 06:51:39
Программа кодирования                    : Easy CD-DA Extractor (http://www.poikosoft.com)
Обложка                                  : Yes

Аудио
Идентификатор                            : 1
Формат                                   : ALAC
Идентификатор кодека                     : alac
Идентификатор кодека/Информация          : Apple Lossless Audio Codec
Продолжительность                        : 1 м. 39 с.
Duration_LastFrame                       : -46 мс.
Вид битрейта                             : Переменный
Битрейт                                  : 1021 Кбит/сек
Каналы                                   : 2 канала
Частота                                  : 44,1 КГц
Битовая глубина                          : 16 бит
Размер потока                            : 12,1 Мбайт (96%)
Язык                                     : English
Дата кодирования                         : UTC 2014-05-19 05:01:40
Дата пометки                             : UTC 2014-05-21 06:51:39

Общее
Полное имя                               : /Users/Denis/Library/Containers/net.mediaarea.mediainfo.mac/Data/Music/iTunes/iTunes Media/Music/Сергей Маврин/Одиночество/05 На осколках веры.m4a
Формат                                   : MPEG-4
Профиль формата                          : Apple audio with iTunes info
Идентификатор кодека                     : M4A
Размер файла                             : 40,8 Мбайт
Продолжительность                        : 5 м. 30 с.
Режим общего битрейта                    : Переменный
Общий поток                              : 1036 Кбит/сек
Альбом                                   : Одиночество
Альбом/Исполнитель                       : Сергей Маврин
Трек                                     : На осколках веры
Трек/Положение                           : 5
Исполнитель                              : Сергей Маврин
Жанр                                     : Heavy Metal
Дата записи                              : 2002
Дата кодирования                         : UTC 2014-05-19 05:02:19
Дата пометки                             : UTC 2014-05-21 06:51:39
Программа кодирования                    : Easy CD-DA Extractor (http://www.poikosoft.com)
Обложка                                  : Yes

Аудио
Идентификатор                            : 1
Формат                                   : ALAC
Идентификатор кодека                     : alac
Идентификатор кодека/Информация          : Apple Lossless Audio Codec
Продолжительность                        : 5 м. 30 с.
Duration_LastFrame                       : -12 мс.
Вид битрейта                             : Переменный
Битрейт                                  : 1023 Кбит/сек
Каналы                                   : 2 канала
Частота                                  : 44,1 КГц
Битовая глубина                          : 16 бит
Размер потока                            : 40,3 Мбайт (99%)
Язык                                     : English
Дата кодирования                         : UTC 2014-05-19 05:02:19
Дата пометки                             : UTC 2014-05-21 06:51:39

Общее
Полное имя                               : /Users/Denis/Library/Containers/net.mediaarea.mediainfo.mac/Data/Music/iTunes/iTunes Media/Music/Сергей Маврин/Одиночество/06 Любовь и боль.m4a
Формат                                   : MPEG-4
Профиль формата                          : Apple audio with iTunes info
Идентификатор кодека                     : M4A
Размер файла                             : 41,8 Мбайт
Продолжительность                        : 5 м. 37 с.
Режим общего битрейта                    : Переменный
Общий поток                              : 1039 Кбит/сек
Альбом                                   : Одиночество
Альбом/Исполнитель                       : Сергей Маврин
Трек                                     : Любовь и боль
Трек/Положение                           : 6
Исполнитель                              : Сергей Маврин
Жанр                                     : Heavy Metal
Дата записи                              : 2002
Дата кодирования                         : UTC 2014-05-19 05:02:32
Дата пометки                             : UTC 2014-05-21 06:51:39
Программа кодирования                    : Easy CD-DA Extractor (http://www.poikosoft.com)
Обложка                                  : Yes

Аудио
Идентификатор                            : 1
Формат                                   : ALAC
Идентификатор кодека                     : alac
Идентификатор кодека/Информация          : Apple Lossless Audio Codec
Продолжительность                        : 5 м. 37 с.
Duration_LastFrame                       : -57 мс.
Вид битрейта                             : Переменный
Битрейт                                  : 1026 Кбит/сек
Каналы                                   : 2 канала
Частота                                  : 44,1 КГц
Битовая глубина                          : 16 бит
Размер потока                            : 41,3 Мбайт (99%)
Язык                                     : English
Дата кодирования                         : UTC 2014-05-19 05:02:32
Дата пометки                             : UTC 2014-05-21 06:51:39

Общее
Полное имя                               : /Users/Denis/Library/Containers/net.mediaarea.mediainfo.mac/Data/Music/iTunes/iTunes Media/Music/Сергей Маврин/Одиночество/07 Все в прошлом.m4a
Формат                                   : MPEG-4
Профиль формата                          : Apple audio with iTunes info
Идентификатор кодека                     : M4A
Размер файла                             : 41,3 Мбайт
Продолжительность                        : 5 м. 23 с.
Режим общего битрейта                    : Переменный
Общий поток                              : 1071 Кбит/сек
Альбом                                   : Одиночество
Альбом/Исполнитель                       : Сергей Маврин
Трек                                     : Все в прошлом
Трек/Положение                           : 7
Исполнитель                              : Сергей Маврин
Жанр                                     : Heavy Metal
Дата записи                              : 2002
Дата кодирования                         : UTC 2014-05-19 05:03:39
Дата пометки                             : UTC 2014-05-21 06:51:39
Программа кодирования                    : Easy CD-DA Extractor (http://www.poikosoft.com)
Обложка                                  : Yes

Аудио
Идентификатор                            : 1
Формат                                   : ALAC
Идентификатор кодека                     : alac
Идентификатор кодека/Информация          : Apple Lossless Audio Codec
Продолжительность                        : 5 м. 23 с.
Duration_LastFrame                       : -32 мс.
Вид битрейта                             : Переменный
Битрейт                                  : 1058 Кбит/сек
Каналы                                   : 2 канала
Частота                                  : 44,1 КГц
Битовая глубина                          : 16 бит
Размер потока                            : 40,8 Мбайт (99%)
Язык                                     : English
Дата кодирования                         : UTC 2014-05-19 05:03:39
Дата пометки                             : UTC 2014-05-21 06:51:39

Общее
Полное имя                               : /Users/Denis/Library/Containers/net.mediaarea.mediainfo.mac/Data/Music/iTunes/iTunes Media/Music/Сергей Маврин/Одиночество/08 Вчера.m4a
Формат                                   : MPEG-4
Профиль формата                          : Apple audio with iTunes info
Идентификатор кодека                     : M4A
Размер файла                             : 24,4 Мбайт
Продолжительность                        : 3 м. 25 с.
Режим общего битрейта                    : Переменный
Общий поток                              : 996 Кбит/сек
Альбом                                   : Одиночество
Альбом/Исполнитель                       : Сергей Маврин
Трек                                     : Вчера
Трек/Положение                           : 8
Исполнитель                              : Сергей Маврин
Жанр                                     : Heavy Metal
Дата записи                              : 2002
Дата кодирования                         : UTC 2014-05-19 05:03:59
Дата пометки                             : UTC 2014-05-21 06:51:39
Программа кодирования                    : Easy CD-DA Extractor (http://www.poikosoft.com)
Обложка                                  : Yes

Аудио
Идентификатор                            : 1
Формат                                   : ALAC
Идентификатор кодека                     : alac
Идентификатор кодека/Информация          : Apple Lossless Audio Codec
Продолжительность                        : 3 м. 25 с.
Duration_LastFrame                       : -51 мс.
Вид битрейта                             : Переменный
Битрейт                                  : 976 Кбит/сек
Каналы                                   : 2 канала
Частота                                  : 44,1 КГц
Битовая глубина                          : 16 бит
Размер потока                            : 23,9 Мбайт (98%)
Язык                                     : English
Дата кодирования                         : UTC 2014-05-19 05:03:59
Дата пометки                             : UTC 2014-05-21 06:51:39

Общее
Полное имя                               : /Users/Denis/Library/Containers/net.mediaarea.mediainfo.mac/Data/Music/iTunes/iTunes Media/Music/Сергей Маврин/Одиночество/09 Странник.m4a
Формат                                   : MPEG-4
Профиль формата                          : Apple audio with iTunes info
Идентификатор кодека                     : M4A
Размер файла                             : 42,8 Мбайт
Продолжительность                        : 5 м. 48 с.
Режим общего битрейта                    : Переменный
Общий поток                              : 1031 Кбит/сек
Альбом                                   : Одиночество
Альбом/Исполнитель                       : Сергей Маврин
Трек                                     : Странник
Трек/Положение                           : 9
Исполнитель                              : Сергей Маврин
Жанр                                     : Heavy Metal
Дата записи                              : 2002
Дата кодирования                         : UTC 2014-05-19 05:05:11
Дата пометки                             : UTC 2014-05-21 06:51:39
Программа кодирования                    : Easy CD-DA Extractor (http://www.poikosoft.com)
Обложка                                  : Yes

Аудио
Идентификатор                            : 1
Формат                                   : ALAC
Идентификатор кодека                     : alac
Идентификатор кодека/Информация          : Apple Lossless Audio Codec
Продолжительность                        : 5 м. 48 с.
Duration_LastFrame                       : -20 мс.
Вид битрейта                             : Переменный
Битрейт                                  : 1019 Кбит/сек
Каналы                                   : 2 канала
Частота                                  : 44,1 КГц
Битовая глубина                          : 16 бит
Размер потока                            : 42,3 Мбайт (99%)
Язык                                     : English
Дата кодирования                         : UTC 2014-05-19 05:05:11
Дата пометки                             : UTC 2014-05-21 06:51:39

Общее
Полное имя                               : /Users/Denis/Library/Containers/net.mediaarea.mediainfo.mac/Data/Music/iTunes/iTunes Media/Music/Сергей Маврин/Одиночество/10 Ветер.m4a
Формат                                   : MPEG-4
Профиль формата                          : Apple audio with iTunes info
Идентификатор кодека                     : M4A
Размер файла                             : 35,4 Мбайт
Продолжительность                        : 5 м. 0 с.
Режим общего битрейта                    : Переменный
Общий поток                              : 987 Кбит/сек
Альбом                                   : Одиночество
Альбом/Исполнитель                       : Сергей Маврин
Трек                                     : Ветер
Трек/Положение                           : 10
Исполнитель                              : Сергей Маврин
Жанр                                     : Heavy Metal
Дата записи                              : 2002
Дата кодирования                         : UTC 2014-05-19 05:05:19
Дата пометки                             : UTC 2014-05-21 06:51:39
Программа кодирования                    : Easy CD-DA Extractor (http://www.poikosoft.com)
Обложка                                  : Yes

Аудио
Идентификатор                            : 1
Формат                                   : ALAC
Идентификатор кодека                     : alac
Идентификатор кодека/Информация          : Apple Lossless Audio Codec
Продолжительность                        : 5 м. 0 с.
Duration_LastFrame                       : -91 мс.
Вид битрейта                             : Переменный
Битрейт                                  : 973 Кбит/сек
Каналы                                   : 2 канала
Частота                                  : 44,1 КГц
Битовая глубина                          : 16 бит
Размер потока                            : 34,9 Мбайт (99%)
Язык                                     : English
Дата кодирования                         : UTC 2014-05-19 05:05:19
Дата пометки                             : UTC 2014-05-21 06:51:39

Общее
Полное имя                               : /Users/Denis/Library/Containers/net.mediaarea.mediainfo.mac/Data/Music/iTunes/iTunes Media/Music/Сергей Маврин/Одиночество/11 До свиданья.m4a
Формат                                   : MPEG-4
Профиль формата                          : Apple audio with iTunes info
Идентификатор кодека                     : M4A
Размер файла                             : 37,6 Мбайт
Продолжительность                        : 5 м. 2 с.
Режим общего битрейта                    : Переменный
Общий поток                              : 1042 Кбит/сек
Альбом                                   : Одиночество
Альбом/Исполнитель                       : Сергей Маврин
Трек                                     : До свиданья
Трек/Положение                           : 11
Исполнитель                              : Сергей Маврин
Жанр                                     : Heavy Metal
Дата записи                              : 2002
Дата кодирования                         : UTC 2014-05-19 05:07:04
Дата пометки                             : UTC 2014-05-21 06:51:39
Программа кодирования                    : Easy CD-DA Extractor (http://www.poikosoft.com)
Обложка                                  : Yes

Аудио
Идентификатор                            : 1
Формат                                   : ALAC
Идентификатор кодека                     : alac
Идентификатор кодека/Информация          : Apple Lossless Audio Codec
Продолжительность                        : 5 м. 2 с.
Duration_LastFrame                       : -56 мс.
Вид битрейта                             : Переменный
Битрейт                                  : 1028 Кбит/сек
Каналы                                   : 2 канала
Частота                                  : 44,1 КГц
Битовая глубина                          : 16 бит
Размер потока                            : 37,1 Мбайт (99%)
Язык                                     : English
Дата кодирования                         : UTC 2014-05-19 05:07:04
Дата пометки                             : UTC 2014-05-21 06:51:39

Общее
Полное имя                               : /Users/Denis/Library/Containers/net.mediaarea.mediainfo.mac/Data/Music/iTunes/iTunes Media/Music/Сергей Маврин/Одиночество/12 Одиночество.m4a
Формат                                   : MPEG-4
Профиль формата                          : Apple audio with iTunes info
Идентификатор кодека                     : M4A
Размер файла                             : 21,7 Мбайт
Продолжительность                        : 3 м. 10 с.
Режим общего битрейта                    : Переменный
Общий поток                              : 954 Кбит/сек
Альбом                                   : Одиночество
Альбом/Исполнитель                       : Сергей Маврин
Трек                                     : Одиночество
Трек/Положение                           : 12
Исполнитель                              : Сергей Маврин
Жанр                                     : Heavy Metal
Дата записи                              : 2002
Дата кодирования                         : UTC 2014-05-19 05:07:17
Дата пометки                             : UTC 2014-05-21 06:51:39
Программа кодирования                    : Easy CD-DA Extractor (http://www.poikosoft.com)
Обложка                                  : Yes

Аудио
Идентификатор                            : 1
Формат                                   : ALAC
Идентификатор кодека                     : alac
Идентификатор кодека/Информация          : Apple Lossless Audio Codec
Продолжительность                        : 3 м. 10 с.
Duration_LastFrame                       : -15 мс.
Вид битрейта                             : Переменный
Битрейт                                  : 932 Кбит/сек
Каналы                                   : 2 канала
Частота                                  : 44,1 КГц
Битовая глубина                          : 16 бит
Размер потока                            : 21,2 Мбайт (98%)
Язык                                     : English
Дата кодирования                         : UTC 2014-05-19 05:07:17
Дата пометки                             : UTC 2014-05-21 06:51:39
Код:

-----------------------

DON'T MODIFY THIS FILE

-----------------------

PERFORMER: auCDtect Task Manager, ver. 1.6.0 RC1 build 1.6.0.1
Copyright (c) 2008-2010 y-soft. All rights reserved
http://y-soft.org

ANALYZER: auCDtect: CD records authenticity detector, version 0.8.2
Copyright (c) 2004 Oleg Berngardt. All rights reserved.
Copyright (c) 2004 Alexander Djourik. All rights reserved.

FILE: 12 Одиночество.m4a
  Size: 22737070 Hash: C4717227088A27EF5587945D0BA18BDC Accuracy: -m0
  Conclusion: CDDA 100%
  Signature: 9D8CC102792A72EAEE47FD8BC0EB32D5E6A5FF69
FILE: 11 До свиданья.m4a
  Size: 39419593 Hash: 62987BF799827354EA66ACF3762E29E8 Accuracy: -m0
  Conclusion: CDDA 100%
  Signature: 6EFF2B8BD2B32BAC04D8F280962805421E8BEC12
FILE: 10 Ветер.m4a
  Size: 37090685 Hash: 9F0D05EFA737FF0738BAC01120D5C773 Accuracy: -m0
  Conclusion: CDDA 100%
  Signature: 6D29B97CE74452540E23F81AB4F5AC8200E0D763
FILE: 09 Странник.m4a
  Size: 44891317 Hash: 9135BF245CB293477B5F5CDCD161CB32 Accuracy: -m0
  Conclusion: CDDA 99%
  Signature: 94123638F8ADE330E183DC5A6EBBD70D5BDAA769
FILE: 08 Вчера.m4a
  Size: 25570160 Hash: A6340CB215EB291410273C3C480375DE Accuracy: -m0
  Conclusion: CDDA 100%
  Signature: DBD4854F6B7CDFF93E5685B40A345B49959428F8
FILE: 07 Все в прошлом.m4a
  Size: 43336978 Hash: 7A059BBEDA924295169E8FEE5540CDCB Accuracy: -m0
  Conclusion: CDDA 100%
  Signature: DF14F7A01FDB891FCA96E84ECF5F97C3C84887F8
FILE: 06 Любовь и боль.m4a
  Size: 43875072 Hash: D3F7530B5EB0319EA66FC5D3EFAA9317 Accuracy: -m0
  Conclusion: CDDA 100%
  Signature: 4408885A758E19DBBA03CCEF1C9BF78FC94C45E4
FILE: 05 На осколках веры.m4a
  Size: 42813299 Hash: 18721F69F703F24EE22E8C4837A88A7B Accuracy: -m8
  Conclusion: CDDA 100%
  Signature: C9F27D1F3F41E2F756B5B34E74A6DDFD5A155C71
FILE: 04 Харон.m4a
  Size: 13237834 Hash: 746E1C3E4CBFE3A74F79B5E7A3EB49CF Accuracy: -m8
  Conclusion: CDDA 100%
  Signature: D8D471A0C414467501975DCB5FEDF9E95C057145
FILE: 03 Век мой, зверь.m4a
  Size: 43663427 Hash: 796E3F718E7EB3E920FE95684B4855D9 Accuracy: -m0
  Conclusion: CDDA 100%
  Signature: 0F5C25315A8027D7AC7B653DD29285342D851631
FILE: 02 Свет дневной иссяк.m4a
  Size: 44695360 Hash: 1249676B2F6EC7677F93BE8908584A0A Accuracy: -m0
  Conclusion: CDDA 100%
  Signature: CA2F353C0BC31BF572F666199C9C05D4E27198E0
FILE: 01 Смейся и плачь.m4a
  Size: 32098041 Hash: CC75094877A7BEB54A0A2F686E47F609 Accuracy: -m0
  Conclusion: CDDA 100%
  Signature: 4CBAA350C1731854A4CF8531C2421350EFB22104
Время раздачи: с 20:00 до 03:00 постоянно / часто 24/7 - До первых 5 скачавших
[NNM-Club.me]_Sergei&#774; Mavrin (2002) Odinochestvo.torrent
 Торрент:   Зарегистрирован
 
Зарегистрируйтесь и скачайте торрент!
17.2 KB

Примагнититься
 Зарегистрирован:   26 Май 2014 03:05:25
 Размер:   413 MB  (
 Рейтинг:    (Голосов: 5)
 Поблагодарили:   14
 Проверка:   Оформление проверено модератором 26 Май 2014 07:36:27
Как cкачать  ·  Как раздать  ·  Правильно оформить  ·  Поднять ратио!  
Показать сообщения:   
Начать новую тему   Ответить на тему    Торрент-трекер NNM-Club -> Аудио и Видео -> Музыка Lossless (ALAC) Часовой пояс: GMT + 3
Страница 1 из 1