Классический форум-трекер
canvas not supported
Нас вместе: 4 172 593

Ария - В поисках новой жертвы (2003) [ALAC|Tracks]<Heavy Metal>


 
 
RSS
Начать новую тему   Ответить на тему    Торрент-трекер NNM-Club -> Аудио и Видео -> Музыка Lossless (ALAC)
Автор Сообщение
Cecidit ®
Стаж: 7 лет 10 мес.
Сообщений: 129
Ratio: 39.772
Поблагодарили: 8816
100%
Откуда: Москва, МО Щелково
russia.gif
Ария - В поисках новой жертвы (Live) (2003)
Год: 2003
Жанр: Heavy Metal
Продолжительность: 02:03:01

Кодек: ALAC
Битрейт: Lossless
Тип раздачи: Tracks
Обложки: Вшиты
Кодирование: XLD + QuickTime + iTunes

"В поисках новой жертвы..." - второй концертный альбом группы Ария и последний концертный альбом с вокалом Кипелова, исключением лишь был тур 2008 года: "Герой асфальта: 20 лет" когда вновь в составе группы в качестве вокалиста принимал участие Кипелов и программа была разделена между композициями с ним и Беркутом.

Состав:
Валерий Кипелов - вокал;
Владимир Холстинин - гитара;
Виталий Дубинин - бас-гитара;
Сергей Терентьев - гитара;
Александр Манякин - барабаны

Приглашённые музыканты:
Евгений Шидловский – клавишные
Олег Мишин – флейта
Струнный квартет – Ярослав Ковалев, Сергей Анич, Екатерина Досина, Ольга Калинова
Валерий Поливанов – перкуссия
Александр Суворов – перкуссия
Юлия Толстова – бэк-вокал
Лениза Сайфулина – бэк-вокал
Ирина Тахтина – бэк-вокал
Екатерина Бачурина – бэк-вокал
Хор мальчиков "Веселый ветер" ДМШ г. Одинцово
Хоровой ансамбль "Соловушки" ЦДТ г. Одинцово-10

Трeклист:
Прoдолжительность: 00:56:13
Треклист:

01. Интро
02. Химера
03. Небо Тебя Найдёт
04. Раб Страха
05. Горящая Стрела
06. Вампир
07. Отшельник
08. Герой Асфальта
09. Штиль
10. Беги За Солнцем
11. Закат
12. Беспечный Ангел
Прoдолжительность: 01:06:48
Треклист:

01. Ночь Короче Дня
02. Обман
03. Осколок Льда
04. Тореро
05. Ангельская Пыль
06. Следуй За Мной!
07. Баллада О Древнерусском Воине
08. Встань, Страх Преодолей
09. Улица Роз
10. Здесь Куют Металл
11. Воля И Разум
Mediainfo, отчет и спектограммы
Код:

Общее
Полное имя                               : /Users/Denis/Library/Containers/net.mediaarea.mediainfo.mac/Data/Music/iTunes/iTunes Media/Music/Ария/В поисках новой жертвы (Live)/1-01 Интро.m4a
Формат                                   : MPEG-4
Профиль формата                          : Apple audio with iTunes info
Идентификатор кодека                     : M4A
Размер файла                             : 10,8 Мбайт
Продолжительность                        : 1 м. 39 с.
Режим общего битрейта                    : Переменный
Общий поток                              : 915 Кбит/сек
Альбом                                   : В поисках новой жертвы (Live)
Альбом/Исполнитель                       : Ария
Часть/Положение                          : 1
Часть/Всего                              : 2
Трек                                     : Интро
Трек/Положение                           : 1
Трек/Всего                               : 12
Исполнитель                              : Ария
Жанр                                     : Heavy Metal
Дата записи                              : 2003
Дата пометки                             : UTC 2014-05-28 09:36:51
Программа кодирования                    : X Lossless Decoder 20140504, QuickTime 7.7.1
Обложка                                  : Yes
Примечание                               : ExactAudioCopy v0.99pb4
iTunes_CDDB_1                            : 9A0D2D0C+253166+12+150+7593+27290+50392+70997+89000+111983+138131+161108+187265+213871+233335
iTunes_CDDB_TrackNumber                  : 1

Аудио
Идентификатор                            : 1
Формат                                   : ALAC
Идентификатор кодека                     : alac
Идентификатор кодека/Информация          : Apple Lossless Audio Codec
Продолжительность                        : 1 м. 39 с.
Duration_LastFrame                       : -49 мс.
Вид битрейта                             : Переменный
Битрейт                                  : 870 Кбит/сек
Каналы                                   : 2 канала
Частота                                  : 44,1 КГц
Битовая глубина                          : 16 бит
Размер потока                            : 10,3 Мбайт (95%)
Язык                                     : English
Дата пометки                             : UTC 2014-05-28 09:36:51

Общее
Полное имя                               : /Users/Denis/Library/Containers/net.mediaarea.mediainfo.mac/Data/Music/iTunes/iTunes Media/Music/Ария/В поисках новой жертвы (Live)/1-02 Химера.m4a
Формат                                   : MPEG-4
Профиль формата                          : Apple audio with iTunes info
Идентификатор кодека                     : M4A
Размер файла                             : 32,5 Мбайт
Продолжительность                        : 4 м. 22 с.
Режим общего битрейта                    : Переменный
Общий поток                              : 1039 Кбит/сек
Альбом                                   : В поисках новой жертвы (Live)
Альбом/Исполнитель                       : Ария
Часть/Положение                          : 1
Часть/Всего                              : 2
Трек                                     : Химера
Трек/Положение                           : 2
Трек/Всего                               : 12
Исполнитель                              : Ария
Жанр                                     : Heavy Metal
Дата записи                              : 2003
Дата пометки                             : UTC 2014-05-28 09:36:52
Программа кодирования                    : X Lossless Decoder 20140504, QuickTime 7.7.1
Обложка                                  : Yes
Примечание                               : ExactAudioCopy v0.99pb4
iTunes_CDDB_1                            : 9A0D2D0C+253166+12+150+7593+27290+50392+70997+89000+111983+138131+161108+187265+213871+233335
iTunes_CDDB_TrackNumber                  : 2

Аудио
Идентификатор                            : 1
Формат                                   : ALAC
Идентификатор кодека                     : alac
Идентификатор кодека/Информация          : Apple Lossless Audio Codec
Продолжительность                        : 4 м. 22 с.
Duration_LastFrame                       : -37 мс.
Вид битрейта                             : Переменный
Битрейт                                  : 1022 Кбит/сек
Каналы                                   : 2 канала
Частота                                  : 44,1 КГц
Битовая глубина                          : 16 бит
Размер потока                            : 32,0 Мбайт (98%)
Язык                                     : English
Дата пометки                             : UTC 2014-05-28 09:36:52

Общее
Полное имя                               : /Users/Denis/Library/Containers/net.mediaarea.mediainfo.mac/Data/Music/iTunes/iTunes Media/Music/Ария/В поисках новой жертвы (Live)/1-03 Небо тебя найдёт.m4a
Формат                                   : MPEG-4
Профиль формата                          : Apple audio with iTunes info
Идентификатор кодека                     : M4A
Размер файла                             : 38,6 Мбайт
Продолжительность                        : 5 м. 8 с.
Режим общего битрейта                    : Переменный
Общий поток                              : 1052 Кбит/сек
Альбом                                   : В поисках новой жертвы (Live)
Альбом/Исполнитель                       : Ария
Часть/Положение                          : 1
Часть/Всего                              : 2
Трек                                     : Небо тебя найдёт
Трек/Положение                           : 3
Трек/Всего                               : 12
Исполнитель                              : Ария
Жанр                                     : Heavy Metal
Дата записи                              : 2003
Дата пометки                             : UTC 2014-05-28 09:36:54
Программа кодирования                    : X Lossless Decoder 20140504, QuickTime 7.7.1
Обложка                                  : Yes
Примечание                               : ExactAudioCopy v0.99pb4
iTunes_CDDB_1                            : 9A0D2D0C+253166+12+150+7593+27290+50392+70997+89000+111983+138131+161108+187265+213871+233335
iTunes_CDDB_TrackNumber                  : 3

Аудио
Идентификатор                            : 1
Формат                                   : ALAC
Идентификатор кодека                     : alac
Идентификатор кодека/Информация          : Apple Lossless Audio Codec
Продолжительность                        : 5 м. 8 с.
Duration_LastFrame                       : -56 мс.
Вид битрейта                             : Переменный
Битрейт                                  : 1037 Кбит/сек
Каналы                                   : 2 канала
Частота                                  : 44,1 КГц
Битовая глубина                          : 16 бит
Размер потока                            : 38,1 Мбайт (99%)
Язык                                     : English
Дата пометки                             : UTC 2014-05-28 09:36:54

Общее
Полное имя                               : /Users/Denis/Library/Containers/net.mediaarea.mediainfo.mac/Data/Music/iTunes/iTunes Media/Music/Ария/В поисках новой жертвы (Live)/1-04 Раб страха.m4a
Формат                                   : MPEG-4
Профиль формата                          : Apple audio with iTunes info
Идентификатор кодека                     : M4A
Размер файла                             : 34,6 Мбайт
Продолжительность                        : 4 м. 34 с.
Режим общего битрейта                    : Переменный
Общий поток                              : 1055 Кбит/сек
Альбом                                   : В поисках новой жертвы (Live)
Альбом/Исполнитель                       : Ария
Часть/Положение                          : 1
Часть/Всего                              : 2
Трек                                     : Раб страха
Трек/Положение                           : 4
Трек/Всего                               : 12
Исполнитель                              : Ария
Жанр                                     : Heavy Metal
Дата записи                              : 2003
Дата пометки                             : UTC 2014-05-28 09:36:57
Программа кодирования                    : X Lossless Decoder 20140504, QuickTime 7.7.1
Обложка                                  : Yes
Примечание                               : ExactAudioCopy v0.99pb4
iTunes_CDDB_1                            : 9A0D2D0C+253166+12+150+7593+27290+50392+70997+89000+111983+138131+161108+187265+213871+233335
iTunes_CDDB_TrackNumber                  : 4

Аудио
Идентификатор                            : 1
Формат                                   : ALAC
Идентификатор кодека                     : alac
Идентификатор кодека/Информация          : Apple Lossless Audio Codec
Продолжительность                        : 4 м. 34 с.
Duration_LastFrame                       : -5 мс.
Вид битрейта                             : Переменный
Битрейт                                  : 1039 Кбит/сек
Каналы                                   : 2 канала
Частота                                  : 44,1 КГц
Битовая глубина                          : 16 бит
Размер потока                            : 34,0 Мбайт (98%)
Язык                                     : English
Дата пометки                             : UTC 2014-05-28 09:36:57

Общее
Полное имя                               : /Users/Denis/Library/Containers/net.mediaarea.mediainfo.mac/Data/Music/iTunes/iTunes Media/Music/Ария/В поисках новой жертвы (Live)/1-05 Горящая стрела.m4a
Формат                                   : MPEG-4
Профиль формата                          : Apple audio with iTunes info
Идентификатор кодека                     : M4A
Размер файла                             : 30,3 Мбайт
Продолжительность                        : 4 м. 0 с.
Режим общего битрейта                    : Переменный
Общий поток                              : 1058 Кбит/сек
Альбом                                   : В поисках новой жертвы (Live)
Альбом/Исполнитель                       : Ария
Часть/Положение                          : 1
Часть/Всего                              : 2
Трек                                     : Горящая стрела
Трек/Положение                           : 5
Трек/Всего                               : 12
Исполнитель                              : Ария
Жанр                                     : Heavy Metal
Дата записи                              : 2003
Дата пометки                             : UTC 2014-05-28 09:37:00
Программа кодирования                    : X Lossless Decoder 20140504, QuickTime 7.7.1
Обложка                                  : Yes
Примечание                               : ExactAudioCopy v0.99pb4
iTunes_CDDB_1                            : 9A0D2D0C+253166+12+150+7593+27290+50392+70997+89000+111983+138131+161108+187265+213871+233335
iTunes_CDDB_TrackNumber                  : 5

Аудио
Идентификатор                            : 1
Формат                                   : ALAC
Идентификатор кодека                     : alac
Идентификатор кодека/Информация          : Apple Lossless Audio Codec
Продолжительность                        : 4 м. 0 с.
Duration_LastFrame                       : -54 мс.
Вид битрейта                             : Переменный
Битрейт                                  : 1039 Кбит/сек
Каналы                                   : 2 канала
Частота                                  : 44,1 КГц
Битовая глубина                          : 16 бит
Размер потока                            : 29,7 Мбайт (98%)
Язык                                     : English
Дата пометки                             : UTC 2014-05-28 09:37:00

Общее
Полное имя                               : /Users/Denis/Library/Containers/net.mediaarea.mediainfo.mac/Data/Music/iTunes/iTunes Media/Music/Ария/В поисках новой жертвы (Live)/1-06 Вампир.m4a
Формат                                   : MPEG-4
Профиль формата                          : Apple audio with iTunes info
Идентификатор кодека                     : M4A
Размер файла                             : 36,5 Мбайт
Продолжительность                        : 5 м. 6 с.
Режим общего битрейта                    : Переменный
Общий поток                              : 1000 Кбит/сек
Альбом                                   : В поисках новой жертвы (Live)
Альбом/Исполнитель                       : Ария
Часть/Положение                          : 1
Часть/Всего                              : 2
Трек                                     : Вампир
Трек/Положение                           : 6
Трек/Всего                               : 12
Исполнитель                              : Ария
Жанр                                     : Heavy Metal
Дата записи                              : 2003
Дата пометки                             : UTC 2014-05-28 09:37:02
Программа кодирования                    : X Lossless Decoder 20140504, QuickTime 7.7.1
Обложка                                  : Yes
Примечание                               : ExactAudioCopy v0.99pb4
iTunes_CDDB_1                            : 9A0D2D0C+253166+12+150+7593+27290+50392+70997+89000+111983+138131+161108+187265+213871+233335
iTunes_CDDB_TrackNumber                  : 6

Аудио
Идентификатор                            : 1
Формат                                   : ALAC
Идентификатор кодека                     : alac
Идентификатор кодека/Информация          : Apple Lossless Audio Codec
Продолжительность                        : 5 м. 6 с.
Duration_LastFrame                       : -63 мс.
Вид битрейта                             : Переменный
Битрейт                                  : 986 Кбит/сек
Каналы                                   : 2 канала
Частота                                  : 44,1 КГц
Битовая глубина                          : 16 бит
Размер потока                            : 36,0 Мбайт (99%)
Язык                                     : English
Дата пометки                             : UTC 2014-05-28 09:37:02

Общее
Полное имя                               : /Users/Denis/Library/Containers/net.mediaarea.mediainfo.mac/Data/Music/iTunes/iTunes Media/Music/Ария/В поисках новой жертвы (Live)/1-07 Отшельник.m4a
Формат                                   : MPEG-4
Профиль формата                          : Apple audio with iTunes info
Идентификатор кодека                     : M4A
Размер файла                             : 43,8 Мбайт
Продолжительность                        : 5 м. 48 с.
Режим общего битрейта                    : Переменный
Общий поток                              : 1054 Кбит/сек
Альбом                                   : В поисках новой жертвы (Live)
Альбом/Исполнитель                       : Ария
Часть/Положение                          : 1
Часть/Всего                              : 2
Трек                                     : Отшельник
Трек/Положение                           : 7
Трек/Всего                               : 12
Исполнитель                              : Ария
Жанр                                     : Heavy Metal
Дата записи                              : 2003
Дата пометки                             : UTC 2014-05-28 09:37:05
Программа кодирования                    : X Lossless Decoder 20140504, QuickTime 7.7.1
Обложка                                  : Yes
Примечание                               : ExactAudioCopy v0.99pb4
iTunes_CDDB_1                            : 9A0D2D0C+253166+12+150+7593+27290+50392+70997+89000+111983+138131+161108+187265+213871+233335
iTunes_CDDB_TrackNumber                  : 7

Аудио
Идентификатор                            : 1
Формат                                   : ALAC
Идентификатор кодека                     : alac
Идентификатор кодека/Информация          : Apple Lossless Audio Codec
Продолжительность                        : 5 м. 48 с.
Duration_LastFrame                       : -31 мс.
Вид битрейта                             : Переменный
Битрейт                                  : 1040 Кбит/сек
Каналы                                   : 2 канала
Частота                                  : 44,1 КГц
Битовая глубина                          : 16 бит
Размер потока                            : 43,2 Мбайт (99%)
Язык                                     : English
Дата пометки                             : UTC 2014-05-28 09:37:05

Общее
Полное имя                               : /Users/Denis/Library/Containers/net.mediaarea.mediainfo.mac/Data/Music/iTunes/iTunes Media/Music/Ария/В поисках новой жертвы (Live)/1-08 Герой асфальта.m4a
Формат                                   : MPEG-4
Профиль формата                          : Apple audio with iTunes info
Идентификатор кодека                     : M4A
Размер файла                             : 39,0 Мбайт
Продолжительность                        : 5 м. 6 с.
Режим общего битрейта                    : Переменный
Общий поток                              : 1069 Кбит/сек
Альбом                                   : В поисках новой жертвы (Live)
Альбом/Исполнитель                       : Ария
Часть/Положение                          : 1
Часть/Всего                              : 2
Трек                                     : Герой асфальта
Трек/Положение                           : 8
Трек/Всего                               : 12
Исполнитель                              : Ария
Жанр                                     : Heavy Metal
Дата записи                              : 2003
Дата пометки                             : UTC 2014-05-28 09:37:08
Программа кодирования                    : X Lossless Decoder 20140504, QuickTime 7.7.1
Обложка                                  : Yes
Примечание                               : ExactAudioCopy v0.99pb4
iTunes_CDDB_1                            : 9A0D2D0C+253166+12+150+7593+27290+50392+70997+89000+111983+138131+161108+187265+213871+233335
iTunes_CDDB_TrackNumber                  : 8

Аудио
Идентификатор                            : 1
Формат                                   : ALAC
Идентификатор кодека                     : alac
Идентификатор кодека/Информация          : Apple Lossless Audio Codec
Продолжительность                        : 5 м. 6 с.
Duration_LastFrame                       : -51 мс.
Вид битрейта                             : Переменный
Битрейт                                  : 1054 Кбит/сек
Каналы                                   : 2 канала
Частота                                  : 44,1 КГц
Битовая глубина                          : 16 бит
Размер потока                            : 38,5 Мбайт (99%)
Язык                                     : English
Дата пометки                             : UTC 2014-05-28 09:37:08

Общее
Полное имя                               : /Users/Denis/Library/Containers/net.mediaarea.mediainfo.mac/Data/Music/iTunes/iTunes Media/Music/Ария/В поисках новой жертвы (Live)/1-09 Штиль.m4a
Формат                                   : MPEG-4
Профиль формата                          : Apple audio with iTunes info
Идентификатор кодека                     : M4A
Размер файла                             : 42,8 Мбайт
Продолжительность                        : 5 м. 48 с.
Режим общего битрейта                    : Переменный
Общий поток                              : 1030 Кбит/сек
Альбом                                   : В поисках новой жертвы (Live)
Альбом/Исполнитель                       : Ария
Часть/Положение                          : 1
Часть/Всего                              : 2
Трек                                     : Штиль
Трек/Положение                           : 9
Трек/Всего                               : 12
Исполнитель                              : Ария
Жанр                                     : Heavy Metal
Дата записи                              : 2003
Дата пометки                             : UTC 2014-05-28 09:37:11
Программа кодирования                    : X Lossless Decoder 20140504, QuickTime 7.7.1
Обложка                                  : Yes
Примечание                               : ExactAudioCopy v0.99pb4
iTunes_CDDB_1                            : 9A0D2D0C+253166+12+150+7593+27290+50392+70997+89000+111983+138131+161108+187265+213871+233335
iTunes_CDDB_TrackNumber                  : 9

Аудио
Идентификатор                            : 1
Формат                                   : ALAC
Идентификатор кодека                     : alac
Идентификатор кодека/Информация          : Apple Lossless Audio Codec
Продолжительность                        : 5 м. 48 с.
Duration_LastFrame                       : -4 мс.
Вид битрейта                             : Переменный
Битрейт                                  : 1016 Кбит/сек
Каналы                                   : 2 канала
Частота                                  : 44,1 КГц
Битовая глубина                          : 16 бит
Размер потока                            : 42,3 Мбайт (99%)
Язык                                     : English
Дата пометки                             : UTC 2014-05-28 09:37:11

Общее
Полное имя                               : /Users/Denis/Library/Containers/net.mediaarea.mediainfo.mac/Data/Music/iTunes/iTunes Media/Music/Ария/В поисках новой жертвы (Live)/1-10 Беги за солнцем.m4a
Формат                                   : MPEG-4
Профиль формата                          : Apple audio with iTunes info
Идентификатор кодека                     : M4A
Размер файла                             : 42,8 Мбайт
Продолжительность                        : 5 м. 54 с.
Режим общего битрейта                    : Переменный
Общий поток                              : 1012 Кбит/сек
Альбом                                   : В поисках новой жертвы (Live)
Альбом/Исполнитель                       : Ария
Часть/Положение                          : 1
Часть/Всего                              : 2
Трек                                     : Беги за солнцем
Трек/Положение                           : 10
Трек/Всего                               : 12
Исполнитель                              : Ария
Жанр                                     : Heavy Metal
Дата записи                              : 2003
Дата пометки                             : UTC 2014-05-28 09:37:14
Программа кодирования                    : X Lossless Decoder 20140504, QuickTime 7.7.1
Обложка                                  : Yes
Примечание                               : ExactAudioCopy v0.99pb4
iTunes_CDDB_1                            : 9A0D2D0C+253166+12+150+7593+27290+50392+70997+89000+111983+138131+161108+187265+213871+233335
iTunes_CDDB_TrackNumber                  : 10

Аудио
Идентификатор                            : 1
Формат                                   : ALAC
Идентификатор кодека                     : alac
Идентификатор кодека/Информация          : Apple Lossless Audio Codec
Продолжительность                        : 5 м. 54 с.
Duration_LastFrame                       : -54 мс.
Вид битрейта                             : Переменный
Битрейт                                  : 999 Кбит/сек
Каналы                                   : 2 канала
Частота                                  : 44,1 КГц
Битовая глубина                          : 16 бит
Размер потока                            : 42,2 Мбайт (99%)
Язык                                     : English
Дата пометки                             : UTC 2014-05-28 09:37:14

Общее
Полное имя                               : /Users/Denis/Library/Containers/net.mediaarea.mediainfo.mac/Data/Music/iTunes/iTunes Media/Music/Ария/В поисках новой жертвы (Live)/1-11 Закат.m4a
Формат                                   : MPEG-4
Профиль формата                          : Apple audio with iTunes info
Идентификатор кодека                     : M4A
Размер файла                             : 30,0 Мбайт
Продолжительность                        : 4 м. 19 с.
Режим общего битрейта                    : Переменный
Общий поток                              : 968 Кбит/сек
Альбом                                   : В поисках новой жертвы (Live)
Альбом/Исполнитель                       : Ария
Часть/Положение                          : 1
Часть/Всего                              : 2
Трек                                     : Закат
Трек/Положение                           : 11
Трек/Всего                               : 12
Исполнитель                              : Ария
Жанр                                     : Heavy Metal
Дата записи                              : 2003
Дата пометки                             : UTC 2014-05-28 09:37:18
Программа кодирования                    : X Lossless Decoder 20140504, QuickTime 7.7.1
Обложка                                  : Yes
Примечание                               : ExactAudioCopy v0.99pb4
iTunes_CDDB_1                            : 9A0D2D0C+253166+12+150+7593+27290+50392+70997+89000+111983+138131+161108+187265+213871+233335
iTunes_CDDB_TrackNumber                  : 11

Аудио
Идентификатор                            : 1
Формат                                   : ALAC
Идентификатор кодека                     : alac
Идентификатор кодека/Информация          : Apple Lossless Audio Codec
Продолжительность                        : 4 м. 19 с.
Duration_LastFrame                       : -79 мс.
Вид битрейта                             : Переменный
Битрейт                                  : 951 Кбит/сек
Каналы                                   : 2 канала
Частота                                  : 44,1 КГц
Битовая глубина                          : 16 бит
Размер потока                            : 29,4 Мбайт (98%)
Язык                                     : English
Дата пометки                             : UTC 2014-05-28 09:37:18

Общее
Полное имя                               : /Users/Denis/Library/Containers/net.mediaarea.mediainfo.mac/Data/Music/iTunes/iTunes Media/Music/Ария/В поисках новой жертвы (Live)/1-12 Беспечный ангел.m4a
Формат                                   : MPEG-4
Профиль формата                          : Apple audio with iTunes info
Идентификатор кодека                     : M4A
Размер файла                             : 31,1 Мбайт
Продолжительность                        : 4 м. 24 с.
Режим общего битрейта                    : Переменный
Общий поток                              : 988 Кбит/сек
Альбом                                   : В поисках новой жертвы (Live)
Альбом/Исполнитель                       : Ария
Часть/Положение                          : 1
Часть/Всего                              : 2
Трек                                     : Беспечный ангел
Трек/Положение                           : 12
Трек/Всего                               : 12
Исполнитель                              : Ария
Жанр                                     : Heavy Metal
Дата записи                              : 2003
Дата кодирования                         : UTC 1971-01-23 14:08:15
Дата пометки                             : UTC 2014-05-28 09:37:20
Программа кодирования                    : X Lossless Decoder 20140504, QuickTime 7.7.1
Обложка                                  : Yes
Примечание                               : ExactAudioCopy v0.99pb4
iTunes_CDDB_1                            : 9A0D2D0C+253166+12+150+7593+27290+50392+70997+89000+111983+138131+161108+187265+213871+233335
iTunes_CDDB_TrackNumber                  : 12

Аудио
Идентификатор                            : 1
Формат                                   : ALAC
Идентификатор кодека                     : alac
Идентификатор кодека/Информация          : Apple Lossless Audio Codec
Продолжительность                        : 4 м. 24 с.
Duration_LastFrame                       : -16 мс.
Вид битрейта                             : Переменный
Битрейт                                  : 971 Кбит/сек
Каналы                                   : 2 канала
Частота                                  : 44,1 КГц
Битовая глубина                          : 16 бит
Размер потока                            : 30,6 Мбайт (98%)
Язык                                     : English
Дата кодирования                         : UTC 1971-01-23 14:08:15
Дата пометки                             : UTC 2014-05-28 09:37:20

Общее
Полное имя                               : /Users/Denis/Library/Containers/net.mediaarea.mediainfo.mac/Data/Music/iTunes/iTunes Media/Music/Ария/В поисках новой жертвы (Live)/2-01 Ночь короче дня.m4a
Формат                                   : MPEG-4
Профиль формата                          : Apple audio with iTunes info
Идентификатор кодека                     : M4A
Размер файла                             : 54,7 Мбайт
Продолжительность                        : 7 м. 12 с.
Режим общего битрейта                    : Переменный
Общий поток                              : 1061 Кбит/сек
Альбом                                   : В поисках новой жертвы (Live)
Альбом/Исполнитель                       : Ария
Часть/Положение                          : 2
Часть/Всего                              : 2
Трек                                     : Ночь короче дня
Трек/Положение                           : 1
Трек/Всего                               : 11
Исполнитель                              : Ария
Жанр                                     : Heavy Metal
Дата записи                              : 2003
Дата пометки                             : UTC 2014-05-28 09:37:22
Программа кодирования                    : X Lossless Decoder 20140504, QuickTime 7.7.1
Обложка                                  : Yes
Примечание                               : ExactAudioCopy v0.99pb4
iTunes_CDDB_1                            : 900FA80B+300774+11+150+32560+57004+84199+112592+139250+160278+194790+214502+245116+266363
iTunes_CDDB_TrackNumber                  : 1

Аудио
Идентификатор                            : 1
Формат                                   : ALAC
Идентификатор кодека                     : alac
Идентификатор кодека/Информация          : Apple Lossless Audio Codec
Продолжительность                        : 7 м. 12 с.
Duration_LastFrame                       : -36 мс.
Вид битрейта                             : Переменный
Битрейт                                  : 1050 Кбит/сек
Каналы                                   : 2 канала
Частота                                  : 44,1 КГц
Битовая глубина                          : 16 бит
Размер потока                            : 54,1 Мбайт (99%)
Язык                                     : English
Дата пометки                             : UTC 2014-05-28 09:37:22

Общее
Полное имя                               : /Users/Denis/Library/Containers/net.mediaarea.mediainfo.mac/Data/Music/iTunes/iTunes Media/Music/Ария/В поисках новой жертвы (Live)/2-02 Обман.m4a
Формат                                   : MPEG-4
Профиль формата                          : Apple audio with iTunes info
Идентификатор кодека                     : M4A
Размер файла                             : 40,3 Мбайт
Продолжительность                        : 5 м. 25 с.
Режим общего битрейта                    : Переменный
Общий поток                              : 1038 Кбит/сек
Альбом                                   : В поисках новой жертвы (Live)
Альбом/Исполнитель                       : Ария
Часть/Положение                          : 2
Часть/Всего                              : 2
Трек                                     : Обман
Трек/Положение                           : 2
Трек/Всего                               : 11
Исполнитель                              : Ария
Жанр                                     : Heavy Metal
Дата записи                              : 2003
Дата пометки                             : UTC 2014-05-28 09:37:26
Программа кодирования                    : X Lossless Decoder 20140504, QuickTime 7.7.1
Обложка                                  : Yes
Примечание                               : ExactAudioCopy v0.99pb4
iTunes_CDDB_1                            : 900FA80B+300774+11+150+32560+57004+84199+112592+139250+160278+194790+214502+245116+266363
iTunes_CDDB_TrackNumber                  : 2

Аудио
Идентификатор                            : 1
Формат                                   : ALAC
Идентификатор кодека                     : alac
Идентификатор кодека/Информация          : Apple Lossless Audio Codec
Продолжительность                        : 5 м. 25 с.
Duration_LastFrame                       : -88 мс.
Вид битрейта                             : Переменный
Битрейт                                  : 1024 Кбит/сек
Каналы                                   : 2 канала
Частота                                  : 44,1 КГц
Битовая глубина                          : 16 бит
Размер потока                            : 39,8 Мбайт (99%)
Язык                                     : English
Дата пометки                             : UTC 2014-05-28 09:37:26

Общее
Полное имя                               : /Users/Denis/Library/Containers/net.mediaarea.mediainfo.mac/Data/Music/iTunes/iTunes Media/Music/Ария/В поисках новой жертвы (Live)/2-03 Осколок льда.m4a
Формат                                   : MPEG-4
Профиль формата                          : Apple audio with iTunes info
Идентификатор кодека                     : M4A
Размер файла                             : 43,5 Мбайт
Продолжительность                        : 6 м. 2 с.
Режим общего битрейта                    : Переменный
Общий поток                              : 1007 Кбит/сек
Альбом                                   : В поисках новой жертвы (Live)
Альбом/Исполнитель                       : Ария
Часть/Положение                          : 2
Часть/Всего                              : 2
Трек                                     : Осколок льда
Трек/Положение                           : 3
Трек/Всего                               : 11
Исполнитель                              : Ария
Жанр                                     : Heavy Metal
Дата записи                              : 2003
Дата пометки                             : UTC 2014-05-28 09:37:29
Программа кодирования                    : X Lossless Decoder 20140504, QuickTime 7.7.1
Обложка                                  : Yes
Примечание                               : ExactAudioCopy v0.99pb4
iTunes_CDDB_1                            : 900FA80B+300774+11+150+32560+57004+84199+112592+139250+160278+194790+214502+245116+266363
iTunes_CDDB_TrackNumber                  : 3

Аудио
Идентификатор                            : 1
Формат                                   : ALAC
Идентификатор кодека                     : alac
Идентификатор кодека/Информация          : Apple Lossless Audio Codec
Продолжительность                        : 6 м. 2 с.
Duration_LastFrame                       : -3 мс.
Вид битрейта                             : Переменный
Битрейт                                  : 995 Кбит/сек
Каналы                                   : 2 канала
Частота                                  : 44,1 КГц
Битовая глубина                          : 16 бит
Размер потока                            : 43,0 Мбайт (99%)
Язык                                     : English
Дата пометки                             : UTC 2014-05-28 09:37:29

Общее
Полное имя                               : /Users/Denis/Library/Containers/net.mediaarea.mediainfo.mac/Data/Music/iTunes/iTunes Media/Music/Ария/В поисках новой жертвы (Live)/2-04 Тореро.m4a
Формат                                   : MPEG-4
Профиль формата                          : Apple audio with iTunes info
Идентификатор кодека                     : M4A
Размер файла                             : 47,2 Мбайт
Продолжительность                        : 6 м. 18 с.
Режим общего битрейта                    : Переменный
Общий поток                              : 1047 Кбит/сек
Альбом                                   : В поисках новой жертвы (Live)
Альбом/Исполнитель                       : Ария
Часть/Положение                          : 2
Часть/Всего                              : 2
Трек                                     : Тореро
Трек/Положение                           : 4
Трек/Всего                               : 11
Исполнитель                              : Ария
Жанр                                     : Heavy Metal
Дата записи                              : 2003
Дата кодирования                         : UTC 1972-08-28 21:21:19
Дата пометки                             : UTC 2014-05-28 09:37:33
Программа кодирования                    : X Lossless Decoder 20140504, QuickTime 7.7.1
Обложка                                  : Yes
Примечание                               : ExactAudioCopy v0.99pb4
iTunes_CDDB_1                            : 900FA80B+300774+11+150+32560+57004+84199+112592+139250+160278+194790+214502+245116+266363
iTunes_CDDB_TrackNumber                  : 4

Аудио
Идентификатор                            : 1
Формат                                   : ALAC
Идентификатор кодека                     : alac
Идентификатор кодека/Информация          : Apple Lossless Audio Codec
Продолжительность                        : 6 м. 18 с.
Duration_LastFrame                       : -5 мс.
Вид битрейта                             : Переменный
Битрейт                                  : 1034 Кбит/сек
Каналы                                   : 2 канала
Частота                                  : 44,1 КГц
Битовая глубина                          : 16 бит
Размер потока                            : 46,7 Мбайт (99%)
Язык                                     : English
Дата кодирования                         : UTC 1972-08-28 21:21:19
Дата пометки                             : UTC 2014-05-28 09:37:33

Общее
Полное имя                               : /Users/Denis/Library/Containers/net.mediaarea.mediainfo.mac/Data/Music/iTunes/iTunes Media/Music/Ария/В поисках новой жертвы (Live)/2-05 Ангельская пыль.m4a
Формат                                   : MPEG-4
Профиль формата                          : Apple audio with iTunes info
Идентификатор кодека                     : M4A
Размер файла                             : 44,1 Мбайт
Продолжительность                        : 5 м. 55 с.
Режим общего битрейта                    : Переменный
Общий поток                              : 1040 Кбит/сек
Альбом                                   : В поисках новой жертвы (Live)
Альбом/Исполнитель                       : Ария
Часть/Положение                          : 2
Часть/Всего                              : 2
Трек                                     : Ангельская пыль
Трек/Положение                           : 5
Трек/Всего                               : 11
Исполнитель                              : Ария
Жанр                                     : Heavy Metal
Дата записи                              : 2003
Дата кодирования                         : UTC 1981-09-11 23:05:51
Дата пометки                             : UTC 2014-05-28 09:37:36
Программа кодирования                    : X Lossless Decoder 20140504, QuickTime 7.7.1
Обложка                                  : Yes
Примечание                               : ExactAudioCopy v0.99pb4
iTunes_CDDB_1                            : 900FA80B+300774+11+150+32560+57004+84199+112592+139250+160278+194790+214502+245116+266363
iTunes_CDDB_TrackNumber                  : 5

Аудио
Идентификатор                            : 1
Формат                                   : ALAC
Идентификатор кодека                     : alac
Идентификатор кодека/Информация          : Apple Lossless Audio Codec
Продолжительность                        : 5 м. 55 с.
Duration_LastFrame                       : -11 мс.
Вид битрейта                             : Переменный
Битрейт                                  : 1027 Кбит/сек
Каналы                                   : 2 канала
Частота                                  : 44,1 КГц
Битовая глубина                          : 16 бит
Размер потока                            : 43,5 Мбайт (99%)
Язык                                     : English
Дата кодирования                         : UTC 1981-09-11 23:05:51
Дата пометки                             : UTC 2014-05-28 09:37:36

Общее
Полное имя                               : /Users/Denis/Library/Containers/net.mediaarea.mediainfo.mac/Data/Music/iTunes/iTunes Media/Music/Ария/В поисках новой жертвы (Live)/2-06 Следуй за мной.m4a
Формат                                   : MPEG-4
Профиль формата                          : Apple audio with iTunes info
Идентификатор кодека                     : M4A
Размер файла                             : 35,3 Мбайт
Продолжительность                        : 4 м. 40 с.
Режим общего битрейта                    : Переменный
Общий поток                              : 1056 Кбит/сек
Альбом                                   : В поисках новой жертвы (Live)
Альбом/Исполнитель                       : Ария
Часть/Положение                          : 2
Часть/Всего                              : 2
Трек                                     : Следуй за мной
Трек/Положение                           : 6
Трек/Всего                               : 11
Исполнитель                              : Ария
Жанр                                     : Heavy Metal
Дата записи                              : 2003
Дата кодирования                         : UTC 1984-05-09 20:47:11
Дата пометки                             : UTC 2014-05-28 09:37:40
Программа кодирования                    : X Lossless Decoder 20140504, QuickTime 7.7.1
Обложка                                  : Yes
Примечание                               : ExactAudioCopy v0.99pb4
iTunes_CDDB_1                            : 900FA80B+300774+11+150+32560+57004+84199+112592+139250+160278+194790+214502+245116+266363
iTunes_CDDB_TrackNumber                  : 6

Аудио
Идентификатор                            : 1
Формат                                   : ALAC
Идентификатор кодека                     : alac
Идентификатор кодека/Информация          : Apple Lossless Audio Codec
Продолжительность                        : 4 м. 40 с.
Duration_LastFrame                       : -31 мс.
Вид битрейта                             : Переменный
Битрейт                                  : 1040 Кбит/сек
Каналы                                   : 2 канала
Частота                                  : 44,1 КГц
Битовая глубина                          : 16 бит
Размер потока                            : 34,8 Мбайт (98%)
Язык                                     : English
Дата кодирования                         : UTC 1984-05-09 20:47:11
Дата пометки                             : UTC 2014-05-28 09:37:40

Общее
Полное имя                               : /Users/Denis/Library/Containers/net.mediaarea.mediainfo.mac/Data/Music/iTunes/iTunes Media/Music/Ария/В поисках новой жертвы (Live)/2-07 Баллада о древнерусском воине.m4a
Формат                                   : MPEG-4
Профиль формата                          : Apple audio with iTunes info
Идентификатор кодека                     : M4A
Размер файла                             : 57,1 Мбайт
Продолжительность                        : 7 м. 40 с.
Режим общего битрейта                    : Переменный
Общий поток                              : 1041 Кбит/сек
Альбом                                   : В поисках новой жертвы (Live)
Альбом/Исполнитель                       : Ария
Часть/Положение                          : 2
Часть/Всего                              : 2
Трек                                     : Баллада о древнерусском воине
Трек/Положение                           : 7
Трек/Всего                               : 11
Исполнитель                              : Ария
Жанр                                     : Heavy Metal
Дата записи                              : 2003
Дата кодирования                         : UTC 2000-11-01 11:15:27
Дата пометки                             : UTC 2014-05-28 09:37:42
Программа кодирования                    : X Lossless Decoder 20140504, QuickTime 7.7.1
Обложка                                  : Yes
Примечание                               : ExactAudioCopy v0.99pb4
iTunes_CDDB_1                            : 900FA80B+300774+11+150+32560+57004+84199+112592+139250+160278+194790+214502+245116+266363
iTunes_CDDB_TrackNumber                  : 7

Аудио
Идентификатор                            : 1
Формат                                   : ALAC
Идентификатор кодека                     : alac
Идентификатор кодека/Информация          : Apple Lossless Audio Codec
Продолжительность                        : 7 м. 40 с.
Duration_LastFrame                       : -60 мс.
Вид битрейта                             : Переменный
Битрейт                                  : 1031 Кбит/сек
Каналы                                   : 2 канала
Частота                                  : 44,1 КГц
Битовая глубина                          : 16 бит
Размер потока                            : 56,6 Мбайт (99%)
Язык                                     : English
Дата кодирования                         : UTC 2000-11-01 11:15:27
Дата пометки                             : UTC 2014-05-28 09:37:42

Общее
Полное имя                               : /Users/Denis/Library/Containers/net.mediaarea.mediainfo.mac/Data/Music/iTunes/iTunes Media/Music/Ария/В поисках новой жертвы (Live)/2-08 Встань, страх преодолей.m4a
Формат                                   : MPEG-4
Профиль формата                          : Apple audio with iTunes info
Идентификатор кодека                     : M4A
Размер файла                             : 33,0 Мбайт
Продолжительность                        : 4 м. 22 с.
Режим общего битрейта                    : Переменный
Общий поток                              : 1054 Кбит/сек
Альбом                                   : В поисках новой жертвы (Live)
Альбом/Исполнитель                       : Ария
Часть/Положение                          : 2
Часть/Всего                              : 2
Трек                                     : Встань, страх преодолей
Трек/Положение                           : 8
Трек/Всего                               : 11
Исполнитель                              : Ария
Жанр                                     : Heavy Metal
Дата записи                              : 2003
Дата кодирования                         : UTC 1995-07-09 15:52:47
Дата пометки                             : UTC 2014-05-28 09:37:46
Программа кодирования                    : X Lossless Decoder 20140504, QuickTime 7.7.1
Обложка                                  : Yes
Примечание                               : ExactAudioCopy v0.99pb4
iTunes_CDDB_1                            : 900FA80B+300774+11+150+32560+57004+84199+112592+139250+160278+194790+214502+245116+266363
iTunes_CDDB_TrackNumber                  : 8

Аудио
Идентификатор                            : 1
Формат                                   : ALAC
Идентификатор кодека                     : alac
Идентификатор кодека/Информация          : Apple Lossless Audio Codec
Продолжительность                        : 4 м. 22 с.
Duration_LastFrame                       : -23 мс.
Вид битрейта                             : Переменный
Битрейт                                  : 1037 Кбит/сек
Каналы                                   : 2 канала
Частота                                  : 44,1 КГц
Битовая глубина                          : 16 бит
Размер потока                            : 32,5 Мбайт (98%)
Язык                                     : English
Дата кодирования                         : UTC 1995-07-09 15:52:47
Дата пометки                             : UTC 2014-05-28 09:37:46

Общее
Полное имя                               : /Users/Denis/Library/Containers/net.mediaarea.mediainfo.mac/Data/Music/iTunes/iTunes Media/Music/Ария/В поисках новой жертвы (Live)/2-09 Улица роз.m4a
Формат                                   : MPEG-4
Профиль формата                          : Apple audio with iTunes info
Идентификатор кодека                     : M4A
Размер файла                             : 50,3 Мбайт
Продолжительность                        : 6 м. 48 с.
Режим общего битрейта                    : Переменный
Общий поток                              : 1034 Кбит/сек
Альбом                                   : В поисках новой жертвы (Live)
Альбом/Исполнитель                       : Ария
Часть/Положение                          : 2
Часть/Всего                              : 2
Трек                                     : Улица роз
Трек/Положение                           : 9
Трек/Всего                               : 11
Исполнитель                              : Ария
Жанр                                     : Heavy Metal
Дата записи                              : 2003
Дата кодирования                         : UTC 2010-12-08 21:40:31
Дата пометки                             : UTC 2014-05-28 09:37:48
Программа кодирования                    : X Lossless Decoder 20140504, QuickTime 7.7.1
Обложка                                  : Yes
Примечание                               : ExactAudioCopy v0.99pb4
iTunes_CDDB_1                            : 900FA80B+300774+11+150+32560+57004+84199+112592+139250+160278+194790+214502+245116+266363
iTunes_CDDB_TrackNumber                  : 9

Аудио
Идентификатор                            : 1
Формат                                   : ALAC
Идентификатор кодека                     : alac
Идентификатор кодека/Информация          : Apple Lossless Audio Codec
Продолжительность                        : 6 м. 48 с.
Duration_LastFrame                       : -20 мс.
Вид битрейта                             : Переменный
Битрейт                                  : 1023 Кбит/сек
Каналы                                   : 2 канала
Частота                                  : 44,1 КГц
Битовая глубина                          : 16 бит
Размер потока                            : 49,8 Мбайт (99%)
Язык                                     : English
Дата кодирования                         : UTC 2010-12-08 21:40:31
Дата пометки                             : UTC 2014-05-28 09:37:48

Общее
Полное имя                               : /Users/Denis/Library/Containers/net.mediaarea.mediainfo.mac/Data/Music/iTunes/iTunes Media/Music/Ария/В поисках новой жертвы (Live)/2-10 Здесь куют металл.m4a
Формат                                   : MPEG-4
Профиль формата                          : Apple audio with iTunes info
Идентификатор кодека                     : M4A
Размер файла                             : 35,3 Мбайт
Продолжительность                        : 4 м. 43 с.
Режим общего битрейта                    : Переменный
Общий поток                              : 1046 Кбит/сек
Альбом                                   : В поисках новой жертвы (Live)
Альбом/Исполнитель                       : Ария
Часть/Положение                          : 2
Часть/Всего                              : 2
Трек                                     : Здесь куют металл
Трек/Положение                           : 10
Трек/Всего                               : 11
Исполнитель                              : Ария
Жанр                                     : Heavy Metal
Дата записи                              : 2003
Дата кодирования                         : UTC 2012-07-13 10:41:19
Дата пометки                             : UTC 2014-05-28 09:37:52
Программа кодирования                    : X Lossless Decoder 20140504, QuickTime 7.7.1
Обложка                                  : Yes
Примечание                               : ExactAudioCopy v0.99pb4
iTunes_CDDB_1                            : 900FA80B+300774+11+150+32560+57004+84199+112592+139250+160278+194790+214502+245116+266363
iTunes_CDDB_TrackNumber                  : 10

Аудио
Идентификатор                            : 1
Формат                                   : ALAC
Идентификатор кодека                     : alac
Идентификатор кодека/Информация          : Apple Lossless Audio Codec
Продолжительность                        : 4 м. 43 с.
Duration_LastFrame                       : -83 мс.
Вид битрейта                             : Переменный
Битрейт                                  : 1030 Кбит/сек
Каналы                                   : 2 канала
Частота                                  : 44,1 КГц
Битовая глубина                          : 16 бит
Размер потока                            : 34,8 Мбайт (98%)
Язык                                     : English
Дата кодирования                         : UTC 2012-07-13 10:41:19
Дата пометки                             : UTC 2014-05-28 09:37:52

Общее
Полное имя                               : /Users/Denis/Library/Containers/net.mediaarea.mediainfo.mac/Data/Music/iTunes/iTunes Media/Music/Ария/В поисках новой жертвы (Live)/2-11 Воля и разум.m4a
Формат                                   : MPEG-4
Профиль формата                          : Apple audio with iTunes info
Идентификатор кодека                     : M4A
Размер файла                             : 51,5 Мбайт
Продолжительность                        : 7 м. 38 с.
Режим общего битрейта                    : Переменный
Общий поток                              : 941 Кбит/сек
Альбом                                   : В поисках новой жертвы (Live)
Альбом/Исполнитель                       : Ария
Часть/Положение                          : 2
Часть/Всего                              : 2
Трек                                     : Воля и разум
Трек/Положение                           : 11
Трек/Всего                               : 11
Исполнитель                              : Ария
Жанр                                     : Heavy Metal
Дата записи                              : 2003
Дата кодирования                         : UTC 2025-10-27 23:07:59
Дата пометки                             : UTC 2014-05-28 09:37:55
Программа кодирования                    : X Lossless Decoder 20140504, QuickTime 7.7.1
Обложка                                  : Yes
Примечание                               : ExactAudioCopy v0.99pb4
iTunes_CDDB_1                            : 900FA80B+300774+11+150+32560+57004+84199+112592+139250+160278+194790+214502+245116+266363
iTunes_CDDB_TrackNumber                  : 11

Аудио
Идентификатор                            : 1
Формат                                   : ALAC
Идентификатор кодека                     : alac
Идентификатор кодека/Информация          : Apple Lossless Audio Codec
Продолжительность                        : 7 м. 38 с.
Duration_LastFrame                       : -13 мс.
Вид битрейта                             : Переменный
Битрейт                                  : 931 Кбит/сек
Каналы                                   : 2 канала
Частота                                  : 44,1 КГц
Битовая глубина                          : 16 бит
Размер потока                            : 50,9 Мбайт (99%)
Язык                                     : English
Дата кодирования                         : UTC 2025-10-27 23:07:59
Дата пометки                             : UTC 2014-05-28 09:37:55
Код:

-----------------------

DON'T MODIFY THIS FILE

-----------------------

PERFORMER: auCDtect Task Manager, ver. 1.6.0 RC1 build 1.6.0.1
Copyright (c) 2008-2010 y-soft. All rights reserved
http://y-soft.org

ANALYZER: auCDtect: CD records authenticity detector, version 0.8.2
Copyright (c) 2004 Oleg Berngardt. All rights reserved.
Copyright (c) 2004 Alexander Djourik. All rights reserved.

FILE: 2-11 Воля и разум.m4a
  Size: 53973080 Hash: 31D8C9E669401B4EFBAE520B86DC759D Accuracy: -m0
  Conclusion: CDDA 100%
  Signature: 3DDD1D4D704926645E73B080BB939FA708A16C8A
FILE: 2-10 Здесь куют металл.m4a
  Size: 37043442 Hash: 16316F3113958F945EC6100854DA26C2 Accuracy: -m0
  Conclusion: CDDA 100%
  Signature: AEA72A8CBE5AEF7D9CB71B76345D02148D2A7D8A
FILE: 2-09 Улица роз.m4a
  Size: 52758315 Hash: 09CBDD8ECDD1975D21B9F9E80D6308B6 Accuracy: -m0
  Conclusion: CDDA 100%
  Signature: 586FBDE8D2D13968E9AAF9C272BB3543BAA3662B
FILE: 2-08 Встань, страх преодолей.m4a
  Size: 34627697 Hash: EC000FED13529FD31A4C76116F8F968E Accuracy: -m0
  Conclusion: CDDA 100%
  Signature: 706B8698DD28EA762A9A92E0AB241C1F09720FB3
FILE: 2-07 Баллада о древнерусском воине.m4a
  Size: 59887698 Hash: 550C2925988E3204870064C4B7BBB139 Accuracy: -m0
  Conclusion: CDDA 100%
  Signature: AC45345DFAFB3F8162818D8B8D55657362328361
FILE: 2-06 Следуй за мной.m4a
  Size: 37011651 Hash: 6A80146CAD8CC2F73715FC49CF188946 Accuracy: -m0
  Conclusion: CDDA 100%
  Signature: A620C962C6CE0322E66259B30973CC23703BB750
FILE: 2-05 Ангельская пыль.m4a
  Size: 46213563 Hash: CFED7510630EBF3DA8ADE2EA293293E8 Accuracy: -m0
  Conclusion: CDDA 100%
  Signature: E96CA0A46C9CA80239DEF9A1D65C321D8A17224A
FILE: 2-04 Тореро.m4a
  Size: 49526898 Hash: 32DE97EE8E0DF06686070B0951FB1991 Accuracy: -m0
  Conclusion: CDDA 99%
  Signature: 47A894663808FB686F51EC84A5C9C488D1807326
FILE: 2-03 Осколок льда.m4a
  Size: 45657070 Hash: 96036D9B6881BF8B7B311FFFAD4D4C37 Accuracy: -m0
  Conclusion: CDDA 100%
  Signature: 9F6568C8791ADE8E15C8878931EEE91B3AA8CFAC
FILE: 2-02 Обман.m4a
  Size: 42292612 Hash: 3143028C9E419EA7EAD700311309F00A Accuracy: -m0
  Conclusion: CDDA 100%
  Signature: 4207CA36CAE13994F2EAF8AD1ECD2906A5B58173
FILE: 2-01 Ночь короче дня.m4a
  Size: 57324786 Hash: D1B29851D80C4BC88F98B7B8F96C443C Accuracy: -m0
  Conclusion: CDDA 100%
  Signature: 797A86592E30E768C8A0D617D7D22F85AA9CC991
FILE: 1-12 Беспечный ангел.m4a
  Size: 32640172 Hash: 6763E4EDCFEC718CB0A5D76F49B36B6F Accuracy: -m0
  Conclusion: CDDA 100%
  Signature: E7F7F25680FD9B5A91A1CB5D935B8C34C00F84B4
FILE: 1-11 Закат.m4a
  Size: 31417534 Hash: DFAF8DAF05BCB4DBC4F9EF81DBA13BDF Accuracy: -m0
  Conclusion: CDDA 100%
  Signature: 4FB7B3EF1268510435DC166D607AB54DA8FD0E2A
FILE: 1-10 Беги за солнцем.m4a
  Size: 44864212 Hash: 0A9FE4C314B73B0AC33AA8FC00F7FC87 Accuracy: -m0
  Conclusion: CDDA 100%
  Signature: FB9A64FD921811DE7FA8370C51F8631F981ABC9C
FILE: 1-09 Штиль.m4a
  Size: 44884744 Hash: 34CC7082E004E438505A86B387CCE66E Accuracy: -m0
  Conclusion: CDDA 100%
  Signature: 5D85CF815E89ACE1DE839EA7817C92D2A1171800
FILE: 1-08 Герой асфальта.m4a
  Size: 40927915 Hash: CA94D1B255A928CEBA63F9940B6CA9AB Accuracy: -m0
  Conclusion: CDDA 100%
  Signature: BE5527A800F527ADD63D49D2D21C9AB0C55B421B
FILE: 1-07 Отшельник.m4a
  Size: 45920537 Hash: 030603784E6DB479DF892059B1D2A257 Accuracy: -m0
  Conclusion: CDDA 100%
  Signature: E6B0C9DDDD7DB751A96DC29314D5A726857E71C8
FILE: 1-06 Вампир.m4a
  Size: 38317728 Hash: E0A01FB8E81CD7428EE24D2916849A34 Accuracy: -m0
  Conclusion: CDDA 100%
  Signature: 1DB8A90C537176F952F452392C5F6A9AC01684B7
FILE: 1-05 Горящая стрела.m4a
  Size: 31738163 Hash: D8E052A102046B8A35C8C10CF4F366E2 Accuracy: -m0
  Conclusion: CDDA 100%
  Signature: 24D223400AE695B8E9B3A0C5E72891D1553E5C49
FILE: 1-04 Раб страха.m4a
  Size: 36241641 Hash: 97719993D7501C5112E5F3D2339BB867 Accuracy: -m0
  Conclusion: CDDA 100%
  Signature: C66853549E6B777AB6A4BF728551383D715D5206
FILE: 1-03 Небо тебя найдёт.m4a
  Size: 40502567 Hash: 7873618EFCA51A3E48310BB4986F13E5 Accuracy: -m0
  Conclusion: CDDA 100%
  Signature: 897A0FC55EE56D8B5FB4F51CA2C2EDA70703773C
FILE: 1-02 Химера.m4a
  Size: 34106838 Hash: E04EF32B359AD640B7D4606122E732BB Accuracy: -m0
  Conclusion: CDDA 100%
  Signature: E2A75FF46C666EABB2F5B2017EA0A903CDCAFDA8
FILE: 1-01 Интро.m4a
  Size: 11356158 Hash: C075F11584BAC9B9A6CFD8DA4BE104E3 Accuracy: -m0
  Conclusion: CDDA 100%
  Signature: 33A2694D5E13C9FDEEF3AE605E91BE9A4FD881B2
Концертные альбомы в ALAC:
Сделано в России (1998 год)
В поисках новой жертвы (2003 год)
Живой огонь (2004 год)
Пляска ада (2007 год)
Герой асфальта : 20 лет (2008 год)
Эхо судного дня (Последний концерт А. Беркута - неофициальное издание) - Bootleg (2011 год)
В желтом круге арены (2012 год)


Время раздачи: с 20:00 до 03:00 постоянно / часто 24/7 - До первых 5 скачавших
[NNM-Club.me]_Ariya (2003) V poiskah novoi&#774; zhertvyi.torrent
 Торрент: Платиновая раздача  Зарегистрирован
 
Скачать


Примагнититься
 Зарегистрирован:   28 Май 2014 18:21:59
 Размер:   905 MB  (
 Рейтинг:   4.4 (Голосов: 20)
 Поблагодарили:   36
 Проверка:   Оформление проверено модератором 28 Май 2014 19:40:58
Как cкачать  ·  Как раздать  ·  Правильно оформить  ·  Поднять ратио!  
Показать сообщения:   
Начать новую тему   Ответить на тему    Торрент-трекер NNM-Club -> Аудио и Видео -> Музыка Lossless (ALAC) Часовой пояс: GMT + 3
Страница 1 из 1