Классический форум-трекер
canvas not supported
Нас вместе: 4 172 815

Ария - Grand Collection (Часть 1) (Compilation) (2005) [ALAC|Tracks]<Heavy Metal>


 
 
RSS
Начать новую тему   Ответить на тему    Торрент-трекер NNM-Club -> Аудио и Видео -> Музыка Lossless (ALAC)
Автор Сообщение
Cecidit ®
Стаж: 7 лет 10 мес.
Сообщений: 129
Ratio: 39.772
Поблагодарили: 8816
100%
Откуда: Москва, МО Щелково
russia.gif
Ария - Grand Collection (Часть 1) (Compilation) (2005)
Год: 2005
Жанр: Heavy Metal
Продолжительность: 01:19:13

Кодек: ALAC
Битрейт: Lossless
Тип раздачи: Tracks
Обложки: Вшиты
Кодирование: XLD + QuickTime + iTunes

Очередной сборник группы АРИЯ, теперь уже от компания "Квадро-Диск", которая представляет уникальную серию проектов "Grand Collection", девиз которой: "самые лучшие песни от самых лучших исполнителей" Первый диск АРИИ из этой серии вышел в 2000 году, а этот диск первая часть, которую выпустила компания в 2005 году.

Треклист:
01. Колизей
02. Грязь
03. Герой Асфальта
04. Воля И Разум
05. Кровь За Кровь
06. Потерянный Рай
07. Тореро
08. Следуй За Мной!
09. Дьявольский Зной
10. Уходи, И Не Возвращайся!
11. Беспечный Ангел
12. Искушение
13. Ночь Короче Дня
14. Пробил Час
15. Там Высоко...
Код:

Общее
Полное имя                               : /Users/Denis/Library/Containers/net.mediaarea.mediainfo.mac/Data/Music/iTunes/iTunes Media/Music/Ария/Grand Collection (Часть 1) (Compilation)/01 Колизей.m4a
Формат                                   : MPEG-4
Профиль формата                          : Apple audio with iTunes info
Идентификатор кодека                     : M4A
Размер файла                             : 46,5 Мбайт
Продолжительность                        : 6 м. 31 с.
Режим общего битрейта                    : Переменный
Общий поток                              : 996 Кбит/сек
Альбом                                   : Grand Collection (Часть 1) (Compilation)
Альбом/Исполнитель                       : Ария
Трек                                     : Колизей
Трек/Положение                           : 1
Трек/Всего                               : 15
Исполнитель                              : Ария
Жанр                                     : Heavy Metal
Дата записи                              : 2005
Дата кодирования                         : UTC 1986-09-10 05:04:15
Дата пометки                             : UTC 2014-05-31 18:16:53
Программа кодирования                    : X Lossless Decoder 20140504, QuickTime 7.7.1
Обложка                                  : Yes
Примечание                               : ExactAudioCopy v0.99pb5
iTunes_CDDB_1                            : D812910F+356629+15+150+29491+50694+74363+94993+129774+155044+179827+201012+222951+240217+258097+276073+308736+332681
iTunes_CDDB_TrackNumber                  : 1

Аудио
Идентификатор                            : 1
Формат                                   : ALAC
Идентификатор кодека                     : alac
Идентификатор кодека/Информация          : Apple Lossless Audio Codec
Продолжительность                        : 6 м. 31 с.
Duration_LastFrame                       : -89 мс.
Вид битрейта                             : Переменный
Битрейт                                  : 985 Кбит/сек
Каналы                                   : 2 канала
Частота                                  : 44,1 КГц
Битовая глубина                          : 16 бит
Размер потока                            : 46,0 Мбайт (99%)
Язык                                     : English
Дата кодирования                         : UTC 1986-09-10 05:04:15
Дата пометки                             : UTC 2014-05-31 18:16:53

Общее
Полное имя                               : /Users/Denis/Library/Containers/net.mediaarea.mediainfo.mac/Data/Music/iTunes/iTunes Media/Music/Ария/Grand Collection (Часть 1) (Compilation)/02 Грязь.m4a
Формат                                   : MPEG-4
Профиль формата                          : Apple audio with iTunes info
Идентификатор кодека                     : M4A
Размер файла                             : 35,3 Мбайт
Продолжительность                        : 4 м. 42 с.
Режим общего битрейта                    : Переменный
Общий поток                              : 1046 Кбит/сек
Альбом                                   : Grand Collection (Часть 1) (Compilation)
Альбом/Исполнитель                       : Ария
Трек                                     : Грязь
Трек/Положение                           : 2
Трек/Всего                               : 15
Исполнитель                              : Ария
Жанр                                     : Heavy Metal
Дата записи                              : 2005
Дата кодирования                         : UTC 1982-06-09 18:22:07
Дата пометки                             : UTC 2014-05-31 18:16:57
Программа кодирования                    : X Lossless Decoder 20140504, QuickTime 7.7.1
Обложка                                  : Yes
Примечание                               : ExactAudioCopy v0.99pb5
iTunes_CDDB_1                            : D812910F+356629+15+150+29491+50694+74363+94993+129774+155044+179827+201012+222951+240217+258097+276073+308736+332681
iTunes_CDDB_TrackNumber                  : 2

Аудио
Идентификатор                            : 1
Формат                                   : ALAC
Идентификатор кодека                     : alac
Идентификатор кодека/Информация          : Apple Lossless Audio Codec
Продолжительность                        : 4 м. 42 с.
Duration_LastFrame                       : -20 мс.
Вид битрейта                             : Переменный
Битрейт                                  : 1032 Кбит/сек
Каналы                                   : 2 канала
Частота                                  : 44,1 КГц
Битовая глубина                          : 16 бит
Размер потока                            : 34,8 Мбайт (99%)
Язык                                     : English
Дата кодирования                         : UTC 1982-06-09 18:22:07
Дата пометки                             : UTC 2014-05-31 18:16:57

Общее
Полное имя                               : /Users/Denis/Library/Containers/net.mediaarea.mediainfo.mac/Data/Music/iTunes/iTunes Media/Music/Ария/Grand Collection (Часть 1) (Compilation)/03 Герой асфальта.m4a
Формат                                   : MPEG-4
Профиль формата                          : Apple audio with iTunes info
Идентификатор кодека                     : M4A
Размер файла                             : 38,4 Мбайт
Продолжительность                        : 5 м. 15 с.
Режим общего битрейта                    : Переменный
Общий поток                              : 1022 Кбит/сек
Альбом                                   : Grand Collection (Часть 1) (Compilation)
Альбом/Исполнитель                       : Ария
Трек                                     : Герой асфальта
Трек/Положение                           : 3
Трек/Всего                               : 15
Исполнитель                              : Ария
Жанр                                     : Heavy Metal
Дата записи                              : 2005
Дата кодирования                         : UTC 2007-06-05 06:14:39
Дата пометки                             : UTC 2014-05-31 18:17:00
Программа кодирования                    : X Lossless Decoder 20140504, QuickTime 7.7.1
Обложка                                  : Yes
Примечание                               : ExactAudioCopy v0.99pb5
iTunes_CDDB_1                            : D812910F+356629+15+150+29491+50694+74363+94993+129774+155044+179827+201012+222951+240217+258097+276073+308736+332681
iTunes_CDDB_TrackNumber                  : 3

Аудио
Идентификатор                            : 1
Формат                                   : ALAC
Идентификатор кодека                     : alac
Идентификатор кодека/Информация          : Apple Lossless Audio Codec
Продолжительность                        : 5 м. 15 с.
Duration_LastFrame                       : -19 мс.
Вид битрейта                             : Переменный
Битрейт                                  : 1008 Кбит/сек
Каналы                                   : 2 канала
Частота                                  : 44,1 КГц
Битовая глубина                          : 16 бит
Размер потока                            : 37,9 Мбайт (99%)
Язык                                     : English
Дата кодирования                         : UTC 2007-06-05 06:14:39
Дата пометки                             : UTC 2014-05-31 18:17:00

Общее
Полное имя                               : /Users/Denis/Library/Containers/net.mediaarea.mediainfo.mac/Data/Music/iTunes/iTunes Media/Music/Ария/Grand Collection (Часть 1) (Compilation)/04 Воля и разум.m4a
Формат                                   : MPEG-4
Профиль формата                          : Apple audio with iTunes info
Идентификатор кодека                     : M4A
Размер файла                             : 33,5 Мбайт
Продолжительность                        : 4 м. 35 с.
Режим общего битрейта                    : Переменный
Общий поток                              : 1023 Кбит/сек
Альбом                                   : Grand Collection (Часть 1) (Compilation)
Альбом/Исполнитель                       : Ария
Трек                                     : Воля и разум
Трек/Положение                           : 4
Трек/Всего                               : 15
Исполнитель                              : Ария
Жанр                                     : Heavy Metal
Дата записи                              : 2005
Дата кодирования                         : UTC 2010-08-13 08:16:15
Дата пометки                             : UTC 2014-05-31 18:17:04
Программа кодирования                    : X Lossless Decoder 20140504, QuickTime 7.7.1
Обложка                                  : Yes
Примечание                               : ExactAudioCopy v0.99pb5
iTunes_CDDB_1                            : D812910F+356629+15+150+29491+50694+74363+94993+129774+155044+179827+201012+222951+240217+258097+276073+308736+332681
iTunes_CDDB_TrackNumber                  : 4

Аудио
Идентификатор                            : 1
Формат                                   : ALAC
Идентификатор кодека                     : alac
Идентификатор кодека/Информация          : Apple Lossless Audio Codec
Продолжительность                        : 4 м. 35 с.
Duration_LastFrame                       : -43 мс.
Вид битрейта                             : Переменный
Битрейт                                  : 1007 Кбит/сек
Каналы                                   : 2 канала
Частота                                  : 44,1 КГц
Битовая глубина                          : 16 бит
Размер потока                            : 33,0 Мбайт (99%)
Язык                                     : English
Дата кодирования                         : UTC 2010-08-13 08:16:15
Дата пометки                             : UTC 2014-05-31 18:17:04

Общее
Полное имя                               : /Users/Denis/Library/Containers/net.mediaarea.mediainfo.mac/Data/Music/iTunes/iTunes Media/Music/Ария/Grand Collection (Часть 1) (Compilation)/05 Кровь за кровь.m4a
Формат                                   : MPEG-4
Профиль формата                          : Apple audio with iTunes info
Идентификатор кодека                     : M4A
Размер файла                             : 52,9 Мбайт
Продолжительность                        : 7 м. 43 с.
Режим общего битрейта                    : Переменный
Общий поток                              : 957 Кбит/сек
Альбом                                   : Grand Collection (Часть 1) (Compilation)
Альбом/Исполнитель                       : Ария
Трек                                     : Кровь за кровь
Трек/Положение                           : 5
Трек/Всего                               : 15
Исполнитель                              : Ария
Жанр                                     : Heavy Metal
Дата записи                              : 2005
Дата пометки                             : UTC 2014-05-31 18:17:07
Программа кодирования                    : X Lossless Decoder 20140504, QuickTime 7.7.1
Обложка                                  : Yes
Примечание                               : ExactAudioCopy v0.99pb5
iTunes_CDDB_1                            : D812910F+356629+15+150+29491+50694+74363+94993+129774+155044+179827+201012+222951+240217+258097+276073+308736+332681
iTunes_CDDB_TrackNumber                  : 5

Аудио
Идентификатор                            : 1
Формат                                   : ALAC
Идентификатор кодека                     : alac
Идентификатор кодека/Информация          : Apple Lossless Audio Codec
Продолжительность                        : 7 м. 43 с.
Duration_LastFrame                       : -2 мс.
Вид битрейта                             : Переменный
Битрейт                                  : 948 Кбит/сек
Каналы                                   : 2 канала
Частота                                  : 44,1 КГц
Битовая глубина                          : 16 бит
Размер потока                            : 52,4 Мбайт (99%)
Язык                                     : English
Дата пометки                             : UTC 2014-05-31 18:17:07

Общее
Полное имя                               : /Users/Denis/Library/Containers/net.mediaarea.mediainfo.mac/Data/Music/iTunes/iTunes Media/Music/Ария/Grand Collection (Часть 1) (Compilation)/06 Потерянный рай.m4a
Формат                                   : MPEG-4
Профиль формата                          : Apple audio with iTunes info
Идентификатор кодека                     : M4A
Размер файла                             : 36,8 Мбайт
Продолжительность                        : 5 м. 36 с.
Режим общего битрейта                    : Переменный
Общий поток                              : 917 Кбит/сек
Альбом                                   : Grand Collection (Часть 1) (Compilation)
Альбом/Исполнитель                       : Ария
Трек                                     : Потерянный рай
Трек/Положение                           : 6
Трек/Всего                               : 15
Исполнитель                              : Ария
Жанр                                     : Heavy Metal
Дата записи                              : 2005
Дата пометки                             : UTC 2014-05-31 18:17:12
Программа кодирования                    : X Lossless Decoder 20140504, QuickTime 7.7.1
Обложка                                  : Yes
Примечание                               : ExactAudioCopy v0.99pb5
iTunes_CDDB_1                            : D812910F+356629+15+150+29491+50694+74363+94993+129774+155044+179827+201012+222951+240217+258097+276073+308736+332681
iTunes_CDDB_TrackNumber                  : 6

Аудио
Идентификатор                            : 1
Формат                                   : ALAC
Идентификатор кодека                     : alac
Идентификатор кодека/Информация          : Apple Lossless Audio Codec
Продолжительность                        : 5 м. 36 с.
Duration_LastFrame                       : -35 мс.
Вид битрейта                             : Переменный
Битрейт                                  : 904 Кбит/сек
Каналы                                   : 2 канала
Частота                                  : 44,1 КГц
Битовая глубина                          : 16 бит
Размер потока                            : 36,3 Мбайт (99%)
Язык                                     : English
Дата пометки                             : UTC 2014-05-31 18:17:12

Общее
Полное имя                               : /Users/Denis/Library/Containers/net.mediaarea.mediainfo.mac/Data/Music/iTunes/iTunes Media/Music/Ария/Grand Collection (Часть 1) (Compilation)/07 Тореро.m4a
Формат                                   : MPEG-4
Профиль формата                          : Apple audio with iTunes info
Идентификатор кодека                     : M4A
Размер файла                             : 37,7 Мбайт
Продолжительность                        : 5 м. 30 с.
Режим общего битрейта                    : Переменный
Общий поток                              : 957 Кбит/сек
Альбом                                   : Grand Collection (Часть 1) (Compilation)
Альбом/Исполнитель                       : Ария
Трек                                     : Тореро
Трек/Положение                           : 7
Трек/Всего                               : 15
Исполнитель                              : Ария
Жанр                                     : Heavy Metal
Дата записи                              : 2005
Дата пометки                             : UTC 2014-05-31 18:17:17
Программа кодирования                    : X Lossless Decoder 20140504, QuickTime 7.7.1
Обложка                                  : Yes
Примечание                               : ExactAudioCopy v0.99pb5
iTunes_CDDB_1                            : D812910F+356629+15+150+29491+50694+74363+94993+129774+155044+179827+201012+222951+240217+258097+276073+308736+332681
iTunes_CDDB_TrackNumber                  : 7

Аудио
Идентификатор                            : 1
Формат                                   : ALAC
Идентификатор кодека                     : alac
Идентификатор кодека/Информация          : Apple Lossless Audio Codec
Продолжительность                        : 5 м. 30 с.
Duration_LastFrame                       : -26 мс.
Вид битрейта                             : Переменный
Битрейт                                  : 944 Кбит/сек
Каналы                                   : 2 канала
Частота                                  : 44,1 КГц
Битовая глубина                          : 16 бит
Размер потока                            : 37,2 Мбайт (99%)
Язык                                     : English
Дата пометки                             : UTC 2014-05-31 18:17:17

Общее
Полное имя                               : /Users/Denis/Library/Containers/net.mediaarea.mediainfo.mac/Data/Music/iTunes/iTunes Media/Music/Ария/Grand Collection (Часть 1) (Compilation)/08 Следуй за мной.m4a
Формат                                   : MPEG-4
Профиль формата                          : Apple audio with iTunes info
Идентификатор кодека                     : M4A
Размер файла                             : 35,5 Мбайт
Продолжительность                        : 4 м. 42 с.
Режим общего битрейта                    : Переменный
Общий поток                              : 1055 Кбит/сек
Альбом                                   : Grand Collection (Часть 1) (Compilation)
Альбом/Исполнитель                       : Ария
Трек                                     : Следуй за мной
Трек/Положение                           : 8
Трек/Всего                               : 15
Исполнитель                              : Ария
Жанр                                     : Heavy Metal
Дата записи                              : 2005
Дата пометки                             : UTC 2014-05-31 18:17:21
Программа кодирования                    : X Lossless Decoder 20140504, QuickTime 7.7.1
Обложка                                  : Yes
Примечание                               : ExactAudioCopy v0.99pb5
iTunes_CDDB_1                            : D812910F+356629+15+150+29491+50694+74363+94993+129774+155044+179827+201012+222951+240217+258097+276073+308736+332681
iTunes_CDDB_TrackNumber                  : 8

Аудио
Идентификатор                            : 1
Формат                                   : ALAC
Идентификатор кодека                     : alac
Идентификатор кодека/Информация          : Apple Lossless Audio Codec
Продолжительность                        : 4 м. 42 с.
Duration_LastFrame                       : -74 мс.
Вид битрейта                             : Переменный
Битрейт                                  : 1040 Кбит/сек
Каналы                                   : 2 канала
Частота                                  : 44,1 КГц
Битовая глубина                          : 16 бит
Размер потока                            : 35,0 Мбайт (99%)
Язык                                     : English
Дата пометки                             : UTC 2014-05-31 18:17:21

Общее
Полное имя                               : /Users/Denis/Library/Containers/net.mediaarea.mediainfo.mac/Data/Music/iTunes/iTunes Media/Music/Ария/Grand Collection (Часть 1) (Compilation)/10 Уходи, и не возвращайся.m4a
Формат                                   : MPEG-4
Профиль формата                          : Apple audio with iTunes info
Идентификатор кодека                     : M4A
Размер файла                             : 28,5 Мбайт
Продолжительность                        : 3 м. 50 с.
Режим общего битрейта                    : Переменный
Общий поток                              : 1038 Кбит/сек
Альбом                                   : Grand Collection (Часть 1) (Compilation)
Альбом/Исполнитель                       : Ария
Трек                                     : Уходи, и не возвращайся
Трек/Положение                           : 10
Трек/Всего                               : 15
Исполнитель                              : Ария
Жанр                                     : Heavy Metal
Дата записи                              : 2005
Дата кодирования                         : UTC 1980-11-04 23:33:35
Дата пометки                             : UTC 2014-05-31 18:17:28
Программа кодирования                    : X Lossless Decoder 20140504, QuickTime 7.7.1
Обложка                                  : Yes
Примечание                               : ExactAudioCopy v0.99pb5
iTunes_CDDB_1                            : D812910F+356629+15+150+29491+50694+74363+94993+129774+155044+179827+201012+222951+240217+258097+276073+308736+332681
iTunes_CDDB_TrackNumber                  : 10

Аудио
Идентификатор                            : 1
Формат                                   : ALAC
Идентификатор кодека                     : alac
Идентификатор кодека/Информация          : Apple Lossless Audio Codec
Продолжительность                        : 3 м. 50 с.
Duration_LastFrame                       : -36 мс.
Вид битрейта                             : Переменный
Битрейт                                  : 1020 Кбит/сек
Каналы                                   : 2 канала
Частота                                  : 44,1 КГц
Битовая глубина                          : 16 бит
Размер потока                            : 28,0 Мбайт (98%)
Язык                                     : English
Дата кодирования                         : UTC 1980-11-04 23:33:35
Дата пометки                             : UTC 2014-05-31 18:17:28

Общее
Полное имя                               : /Users/Denis/Library/Containers/net.mediaarea.mediainfo.mac/Data/Music/iTunes/iTunes Media/Music/Ария/Grand Collection (Часть 1) (Compilation)/11 Беспечный ангел.m4a
Формат                                   : MPEG-4
Профиль формата                          : Apple audio with iTunes info
Идентификатор кодека                     : M4A
Размер файла                             : 27,5 Мбайт
Продолжительность                        : 3 м. 58 с.
Режим общего битрейта                    : Переменный
Общий поток                              : 969 Кбит/сек
Альбом                                   : Grand Collection (Часть 1) (Compilation)
Альбом/Исполнитель                       : Ария
Трек                                     : Беспечный ангел
Трек/Положение                           : 11
Трек/Всего                               : 15
Исполнитель                              : Ария
Жанр                                     : Heavy Metal
Дата записи                              : 2005
Дата кодирования                         : UTC 2003-03-05 13:44:47
Дата пометки                             : UTC 2014-05-31 18:17:31
Программа кодирования                    : X Lossless Decoder 20140504, QuickTime 7.7.1
Обложка                                  : Yes
Примечание                               : ExactAudioCopy v0.99pb5
iTunes_CDDB_1                            : D812910F+356629+15+150+29491+50694+74363+94993+129774+155044+179827+201012+222951+240217+258097+276073+308736+332681
iTunes_CDDB_TrackNumber                  : 11

Аудио
Идентификатор                            : 1
Формат                                   : ALAC
Идентификатор кодека                     : alac
Идентификатор кодека/Информация          : Apple Lossless Audio Codec
Продолжительность                        : 3 м. 58 с.
Duration_LastFrame                       : -22 мс.
Вид битрейта                             : Переменный
Битрейт                                  : 951 Кбит/сек
Каналы                                   : 2 канала
Частота                                  : 44,1 КГц
Битовая глубина                          : 16 бит
Размер потока                            : 27,0 Мбайт (98%)
Язык                                     : English
Дата кодирования                         : UTC 2003-03-05 13:44:47
Дата пометки                             : UTC 2014-05-31 18:17:31

Общее
Полное имя                               : /Users/Denis/Library/Containers/net.mediaarea.mediainfo.mac/Data/Music/iTunes/iTunes Media/Music/Ария/Grand Collection (Часть 1) (Compilation)/12 Искушение.m4a
Формат                                   : MPEG-4
Профиль формата                          : Apple audio with iTunes info
Идентификатор кодека                     : M4A
Размер файла                             : 30,0 Мбайт
Продолжительность                        : 3 м. 59 с.
Режим общего битрейта                    : Переменный
Общий поток                              : 1049 Кбит/сек
Альбом                                   : Grand Collection (Часть 1) (Compilation)
Альбом/Исполнитель                       : Ария
Трек                                     : Искушение
Трек/Положение                           : 12
Трек/Всего                               : 15
Исполнитель                              : Ария
Жанр                                     : Heavy Metal
Дата записи                              : 2005
Дата кодирования                         : UTC 2006-05-13 15:46:23
Дата пометки                             : UTC 2014-05-31 18:17:35
Программа кодирования                    : X Lossless Decoder 20140504, QuickTime 7.7.1
Обложка                                  : Yes
Примечание                               : ExactAudioCopy v0.99pb5
iTunes_CDDB_1                            : D812910F+356629+15+150+29491+50694+74363+94993+129774+155044+179827+201012+222951+240217+258097+276073+308736+332681
iTunes_CDDB_TrackNumber                  : 12

Аудио
Идентификатор                            : 1
Формат                                   : ALAC
Идентификатор кодека                     : alac
Идентификатор кодека/Информация          : Apple Lossless Audio Codec
Продолжительность                        : 3 м. 59 с.
Duration_LastFrame                       : -43 мс.
Вид битрейта                             : Переменный
Битрейт                                  : 1032 Кбит/сек
Каналы                                   : 2 канала
Частота                                  : 44,1 КГц
Битовая глубина                          : 16 бит
Размер потока                            : 29,5 Мбайт (98%)
Язык                                     : English
Дата кодирования                         : UTC 2006-05-13 15:46:23
Дата пометки                             : UTC 2014-05-31 18:17:35

Общее
Полное имя                               : /Users/Denis/Library/Containers/net.mediaarea.mediainfo.mac/Data/Music/iTunes/iTunes Media/Music/Ария/Grand Collection (Часть 1) (Compilation)/13 Ночь короче дня.m4a
Формат                                   : MPEG-4
Профиль формата                          : Apple audio with iTunes info
Идентификатор кодека                     : M4A
Размер файла                             : 53,6 Мбайт
Продолжительность                        : 7 м. 15 с.
Режим общего битрейта                    : Переменный
Общий поток                              : 1033 Кбит/сек
Альбом                                   : Grand Collection (Часть 1) (Compilation)
Альбом/Исполнитель                       : Ария
Трек                                     : Ночь короче дня
Трек/Положение                           : 13
Трек/Всего                               : 15
Исполнитель                              : Ария
Жанр                                     : Heavy Metal
Дата записи                              : 2005
Дата кодирования                         : UTC 2033-06-23 20:59:59
Дата пометки                             : UTC 2014-05-31 18:17:38
Программа кодирования                    : X Lossless Decoder 20140504, QuickTime 7.7.1
Обложка                                  : Yes
Примечание                               : ExactAudioCopy v0.99pb5
iTunes_CDDB_1                            : D812910F+356629+15+150+29491+50694+74363+94993+129774+155044+179827+201012+222951+240217+258097+276073+308736+332681
iTunes_CDDB_TrackNumber                  : 13

Аудио
Идентификатор                            : 1
Формат                                   : ALAC
Идентификатор кодека                     : alac
Идентификатор кодека/Информация          : Apple Lossless Audio Codec
Продолжительность                        : 7 м. 15 с.
Duration_LastFrame                       : -7 мс.
Вид битрейта                             : Переменный
Битрейт                                  : 1023 Кбит/сек
Каналы                                   : 2 канала
Частота                                  : 44,1 КГц
Битовая глубина                          : 16 бит
Размер потока                            : 53,1 Мбайт (99%)
Язык                                     : English
Дата кодирования                         : UTC 2033-06-23 20:59:59
Дата пометки                             : UTC 2014-05-31 18:17:38

Общее
Полное имя                               : /Users/Denis/Library/Containers/net.mediaarea.mediainfo.mac/Data/Music/iTunes/iTunes Media/Music/Ария/Grand Collection (Часть 1) (Compilation)/14 Пробил час.m4a
Формат                                   : MPEG-4
Профиль формата                          : Apple audio with iTunes info
Идентификатор кодека                     : M4A
Размер файла                             : 40,3 Мбайт
Продолжительность                        : 5 м. 19 с.
Режим общего битрейта                    : Переменный
Общий поток                              : 1060 Кбит/сек
Альбом                                   : Grand Collection (Часть 1) (Compilation)
Альбом/Исполнитель                       : Ария
Трек                                     : Пробил час
Трек/Положение                           : 14
Трек/Всего                               : 15
Исполнитель                              : Ария
Жанр                                     : Heavy Metal
Дата записи                              : 2005
Дата кодирования                         : UTC 2030-10-26 23:18:39
Дата пометки                             : UTC 2014-05-31 18:17:44
Программа кодирования                    : X Lossless Decoder 20140504, QuickTime 7.7.1
Обложка                                  : Yes
Примечание                               : ExactAudioCopy v0.99pb5
iTunes_CDDB_1                            : D812910F+356629+15+150+29491+50694+74363+94993+129774+155044+179827+201012+222951+240217+258097+276073+308736+332681
iTunes_CDDB_TrackNumber                  : 14

Аудио
Идентификатор                            : 1
Формат                                   : ALAC
Идентификатор кодека                     : alac
Идентификатор кодека/Информация          : Apple Lossless Audio Codec
Продолжительность                        : 5 м. 19 с.
Duration_LastFrame                       : -54 мс.
Вид битрейта                             : Переменный
Битрейт                                  : 1046 Кбит/сек
Каналы                                   : 2 канала
Частота                                  : 44,1 КГц
Битовая глубина                          : 16 бит
Размер потока                            : 39,8 Мбайт (99%)
Язык                                     : English
Дата кодирования                         : UTC 2030-10-26 23:18:39
Дата пометки                             : UTC 2014-05-31 18:17:44

Общее
Полное имя                               : /Users/Denis/Library/Containers/net.mediaarea.mediainfo.mac/Data/Music/iTunes/iTunes Media/Music/Ария/Grand Collection (Часть 1) (Compilation)/15 Там высоко....m4a
Формат                                   : MPEG-4
Профиль формата                          : Apple audio with iTunes info
Идентификатор кодека                     : M4A
Размер файла                             : 37,8 Мбайт
Продолжительность                        : 5 м. 19 с.
Режим общего битрейта                    : Переменный
Общий поток                              : 992 Кбит/сек
Альбом                                   : Grand Collection (Часть 1) (Compilation)
Альбом/Исполнитель                       : Ария
Трек                                     : Там высоко...
Трек/Положение                           : 15
Трек/Всего                               : 15
Исполнитель                              : Ария
Жанр                                     : Heavy Metal
Дата записи                              : 2005
Дата пометки                             : UTC 2014-05-31 18:17:49
Программа кодирования                    : X Lossless Decoder 20140504, QuickTime 7.7.1
Обложка                                  : Yes
Примечание                               : ExactAudioCopy v0.99pb5
iTunes_CDDB_1                            : D812910F+356629+15+150+29491+50694+74363+94993+129774+155044+179827+201012+222951+240217+258097+276073+308736+332681
iTunes_CDDB_TrackNumber                  : 15

Аудио
Идентификатор                            : 1
Формат                                   : ALAC
Идентификатор кодека                     : alac
Идентификатор кодека/Информация          : Apple Lossless Audio Codec
Продолжительность                        : 5 м. 19 с.
Duration_LastFrame                       : -14 мс.
Вид битрейта                             : Переменный
Битрейт                                  : 979 Кбит/сек
Каналы                                   : 2 канала
Частота                                  : 44,1 КГц
Битовая глубина                          : 16 бит
Размер потока                            : 37,3 Мбайт (99%)
Язык                                     : English
Дата пометки                             : UTC 2014-05-31 18:17:49
Код:

-----------------------

DON'T MODIFY THIS FILE

-----------------------

PERFORMER: auCDtect Task Manager, ver. 1.6.0 RC1 build 1.6.0.1
Copyright (c) 2008-2010 y-soft. All rights reserved
http://y-soft.org

ANALYZER: auCDtect: CD records authenticity detector, version 0.8.2
Copyright (c) 2004 Oleg Berngardt. All rights reserved.
Copyright (c) 2004 Alexander Djourik. All rights reserved.

FILE: 15 Там высоко....m4a
  Size: 39595977 Hash: 878C7124F2C736D6AC02719ACB4639EE Accuracy: -m8
  Conclusion: CDDA 100%
  Signature: BB07BF07A2CD6C5830D5F663B5927A2CA40A8F85
FILE: 14 Пробил час.m4a
  Size: 42286836 Hash: 6077C76242E8446841E54A4B043DA23C Accuracy: -m8
  Conclusion: CDDA 100%
  Signature: 4DEDFD27288DCE4D0C8B17A99EA763F8D43FF86A
FILE: 13 Ночь короче дня.m4a
  Size: 56250321 Hash: 1B60B03737AD1B1D7D5D8379D877D367 Accuracy: -m8
  Conclusion: CDDA 100%
  Signature: 4CF5F8E10809CC8E3F4A95F1F4923DABDE1C41B2
FILE: 12 Искушение.m4a
  Size: 31427192 Hash: A8ADC40BF0E978B5C40048AEB18783AE Accuracy: -m8
  Conclusion: CDDA 100%
  Signature: 52F2A02F436A67B06DA7DFD08E7A47C60F44B2A8
FILE: 11 Беспечный ангел.m4a
  Size: 28866358 Hash: 0265AE2BD2E2B9B46F983704226C4237 Accuracy: -m8
  Conclusion: CDDA 100%
  Signature: 59FE93582F95CA76E3CADC54A2C2D4776E9E8DA3
FILE: 10 Уходи, и не возвращайся.m4a
  Size: 29876819 Hash: 7CBFE79AF916B411E66235A0E2ADD9F6 Accuracy: -m8
  Conclusion: CDDA 100%
  Signature: 6564B160548BFB928F45B17AF8BF03A838F82304
FILE: 09 Дьявольский зной.m4a
  Size: 37722099 Hash: CEE46C797C990A01B3FD39642BF714ED Accuracy: -m0
  Conclusion: CDDA 100%
  Signature: 0D9CCDAC36ED0FE42435B46629A863E228F9BB73
FILE: 08 Следуй за мной.m4a
  Size: 37237398 Hash: CF22BCB34C20160D6D6A42DBBCA75DEC Accuracy: -m8
  Conclusion: CDDA 100%
  Signature: 484C77FE0D86DF988815F58ABCB528D18AFE6256
FILE: 07 Тореро.m4a
  Size: 39510860 Hash: A4B6291F01C414BA3BFE31ED9B583846 Accuracy: -m8
  Conclusion: CDDA 100%
  Signature: A564E31A6C0F545AD772AB0656840CE26C671CD5
FILE: 06 Потерянный рай.m4a
  Size: 38608515 Hash: 5E37DAADCDFE831E825A63A1C8CBD6BD Accuracy: -m8
  Conclusion: CDDA 100%
  Signature: EB9FAE62A9DD3D002D1734624233344A87D300D4
FILE: 05 Кровь за кровь.m4a
  Size: 55475833 Hash: DF1906550659510C2F286247EFF93692 Accuracy: -m8
  Conclusion: CDDA 100%
  Signature: 6BA5709E1062343905151BD056199AE6A5FE376C
FILE: 04 Воля и разум.m4a
  Size: 35157592 Hash: 516B59B147BA311711C5A16EBAE87AE4 Accuracy: -m8
  Conclusion: CDDA 100%
  Signature: 0193D3DF15547A3245BCC899E49885706101C897
FILE: 03 Герой асфальта.m4a
  Size: 40304963 Hash: C51FF5018808D39E23D2337B96AEDD05 Accuracy: -m8
  Conclusion: CDDA 100%
  Signature: C33FA28A5428B1DBCC0A37A9D1D55587FD6B8107
FILE: 02 Грязь.m4a
  Size: 36979587 Hash: 8E9653887AC3F4A952649F44F63A2375 Accuracy: -m0
  Conclusion: CDDA 100%
  Signature: 1564900E758F0A66814801BF065A3E6BF99FA1FB
FILE: 01 Колизей.m4a
  Size: 48725652 Hash: EF61288716B4CEBE3825AB59F32F8824 Accuracy: -m8
  Conclusion: CDDA 100%
  Signature: 382464F10E0F809CBD8CC418AF5B773E3768BE20
Все альбомы (номерные, концертные, синглы трибьюты и сборники) группы АРИЯ в ALAC

Время раздачи: с 20:00 до 03:00 постоянно / часто 24/7
[NNM-Club.me]_Ariya (2005) Grang Collection 1.torrent
 Торрент: Платиновая раздача  Зарегистрирован
 
Скачать


Примагнититься
 Зарегистрирован:   02 Июн 2014 00:18:20
 Размер:   570 MB  (
 Рейтинг:   4.6 (Голосов: 48)
 Поблагодарили:   145
 Проверка:   Оформление проверено модератором 02 Июн 2014 00:27:43
Как cкачать  ·  Как раздать  ·  Правильно оформить  ·  Поднять ратио!  
Показать сообщения:   
Начать новую тему   Ответить на тему    Торрент-трекер NNM-Club -> Аудио и Видео -> Музыка Lossless (ALAC) Часовой пояс: GMT + 3
Страница 1 из 1