Классический форум-трекер
canvas not supported
Нас вместе: 4 172 568

Григорий Лепс - Избранное... 10 лет (Compilation) (2005) [ALAC|Tracks]<Chanson, Pop>


 
 
RSS
Начать новую тему   Ответить на тему    Торрент-трекер NNM-Club -> Аудио и Видео -> Музыка Lossless (ALAC)
Автор Сообщение
Cecidit ®
Стаж: 7 лет 10 мес.
Сообщений: 129
Ratio: 39.772
Поблагодарили: 8816
100%
Откуда: Москва, МО Щелково
russia.gif
Григорий Лепс - Избранное... 10 лет (Compilation) (2005)
Год: 2005
Жанр: Chanson, Pop
Продолжительность: 01:18:58

Кодек: ALAC
Битрейт: Lossless
Тип раздачи: Tracks
Обложки: Вшиты
Кодирование: CUETools + iTunes

"Избранное... 10 лет" — альбом-компиляция Григория Лепса, вышедший в свет в 2005 году. В сборник вошли лучшие произведения Григория Лепса за 10 лет музыкальной карьеры, а также оригинальная версия песни «Чистые пруды».

Треклист:
01. Я слушал дождь (live)
02. Летай
03. Ну и что (radio edit)
04. В городе дождь
05. Натали
06. Танго разбитых сердец
07. На струнах дождя
08. Я верю, я дождусь
09. Купола
10. Парус
11. Чистые пруды (Remaster 2005)
12. Рюмка водки на столе
13. Крыса-ревность
14. Спокойной ночи, господа
15. Шелест
16. Ангел завтрашнего дня
17. Раздумья мои
Код:

Общее
Полное имя                               : /Users/Denis/Library/Containers/net.mediaarea.mediainfo.mac/Data/Music/iTunes/iTunes Media/Music/Григорий Лепс/Избранное... 10 лет (Compilation)/01 Я слушал дождь.m4a
Формат                                   : MPEG-4
Профиль формата                          : Apple audio with iTunes info
Идентификатор кодека                     : M4A
Размер файла                             : 43,8 Мбайт
Продолжительность                        : 5 м. 56 с.
Режим общего битрейта                    : Переменный
Общий поток                              : 1033 Кбит/сек
Альбом                                   : Избранное... 10 лет (Compilation)
Альбом/Исполнитель                       : Григорий Лепс
Трек                                     : Я слушал дождь
Трек/Положение                           : 1
Трек/Всего                               : 17
Исполнитель                              : Григорий Лепс
Жанр                                     : Chanson, Pop
Дата записи                              : 2005
Дата кодирования                         : UTC 2014-06-06 12:44:29
Дата пометки                             : UTC 2014-06-06 18:58:38
Программа кодирования                    : CUETools 2.1.5
Обложка                                  : Yes
Примечание                               : ExactAudioCopy v0.95b4
CTDBDISCCONFIDENCE                       : 2/7
CTDBTRACKCONFIDENCE                      : 7/7
CDTOC                                    : 11+96+68E3+A957+1013B+1627F+1B649+1F87F+25FA3+2A017+31547+34A99+3A27D+3ED7D+43463+4947B+4CDE7+52211+56CB7

Аудио
Идентификатор                            : 1
Формат                                   : ALAC
Идентификатор кодека                     : alac
Идентификатор кодека/Информация          : Apple Lossless Audio Codec
Продолжительность                        : 5 м. 56 с.
Duration_LastFrame                       : -88 мс.
Вид битрейта                             : Переменный
Битрейт                                  : 1021 Кбит/сек
Каналы                                   : 2 канала
Частота                                  : 44,1 КГц
Битовая глубина                          : 16 бит
Размер потока                            : 43,3 Мбайт (99%)
Дата кодирования                         : UTC 2014-06-06 12:44:29
Дата пометки                             : UTC 2014-06-06 18:58:38

Общее
Полное имя                               : /Users/Denis/Library/Containers/net.mediaarea.mediainfo.mac/Data/Music/iTunes/iTunes Media/Music/Григорий Лепс/Избранное... 10 лет (Compilation)/02 Летай.m4a
Формат                                   : MPEG-4
Профиль формата                          : Apple audio with iTunes info
Идентификатор кодека                     : M4A
Размер файла                             : 28,1 Мбайт
Продолжительность                        : 3 м. 40 с.
Режим общего битрейта                    : Переменный
Общий поток                              : 1073 Кбит/сек
Альбом                                   : Избранное... 10 лет (Compilation)
Альбом/Исполнитель                       : Григорий Лепс
Трек                                     : Летай
Трек/Положение                           : 2
Трек/Всего                               : 17
Исполнитель                              : Григорий Лепс
Жанр                                     : Chanson, Pop
Дата записи                              : 2005
Дата кодирования                         : UTC 2014-06-06 12:44:40
Дата пометки                             : UTC 2014-06-06 18:58:38
Программа кодирования                    : CUETools 2.1.5
Обложка                                  : Yes
Примечание                               : ExactAudioCopy v0.95b4
CTDBDISCCONFIDENCE                       : 2/7
CTDBTRACKCONFIDENCE                      : 7/7
CDTOC                                    : 11+96+68E3+A957+1013B+1627F+1B649+1F87F+25FA3+2A017+31547+34A99+3A27D+3ED7D+43463+4947B+4CDE7+52211+56CB7

Аудио
Идентификатор                            : 1
Формат                                   : ALAC
Идентификатор кодека                     : alac
Идентификатор кодека/Информация          : Apple Lossless Audio Codec
Продолжительность                        : 3 м. 40 с.
Duration_LastFrame                       : -32 мс.
Вид битрейта                             : Переменный
Битрейт                                  : 1054 Кбит/сек
Каналы                                   : 2 канала
Частота                                  : 44,1 КГц
Битовая глубина                          : 16 бит
Размер потока                            : 27,6 Мбайт (98%)
Дата кодирования                         : UTC 2014-06-06 12:44:40
Дата пометки                             : UTC 2014-06-06 18:58:38

Общее
Полное имя                               : /Users/Denis/Library/Containers/net.mediaarea.mediainfo.mac/Data/Music/iTunes/iTunes Media/Music/Григорий Лепс/Избранное... 10 лет (Compilation)/03 Ну и что.m4a
Формат                                   : MPEG-4
Профиль формата                          : Apple audio with iTunes info
Идентификатор кодека                     : M4A
Размер файла                             : 37,7 Мбайт
Продолжительность                        : 5 м. 0 с.
Режим общего битрейта                    : Переменный
Общий поток                              : 1055 Кбит/сек
Альбом                                   : Избранное... 10 лет (Compilation)
Альбом/Исполнитель                       : Григорий Лепс
Трек                                     : Ну и что
Трек/Положение                           : 3
Трек/Всего                               : 17
Исполнитель                              : Григорий Лепс
Жанр                                     : Chanson, Pop
Дата записи                              : 2005
Дата кодирования                         : UTC 2014-06-06 12:44:51
Дата пометки                             : UTC 2014-06-06 18:58:39
Программа кодирования                    : CUETools 2.1.5
Обложка                                  : Yes
Примечание                               : ExactAudioCopy v0.95b4
CTDBDISCCONFIDENCE                       : 2/7
CTDBTRACKCONFIDENCE                      : 7/7
CDTOC                                    : 11+96+68E3+A957+1013B+1627F+1B649+1F87F+25FA3+2A017+31547+34A99+3A27D+3ED7D+43463+4947B+4CDE7+52211+56CB7

Аудио
Идентификатор                            : 1
Формат                                   : ALAC
Идентификатор кодека                     : alac
Идентификатор кодека/Информация          : Apple Lossless Audio Codec
Продолжительность                        : 5 м. 0 с.
Duration_LastFrame                       : -2 мс.
Вид битрейта                             : Переменный
Битрейт                                  : 1040 Кбит/сек
Каналы                                   : 2 канала
Частота                                  : 44,1 КГц
Битовая глубина                          : 16 бит
Размер потока                            : 37,2 Мбайт (99%)
Дата кодирования                         : UTC 2014-06-06 12:44:51
Дата пометки                             : UTC 2014-06-06 18:58:39

Общее
Полное имя                               : /Users/Denis/Library/Containers/net.mediaarea.mediainfo.mac/Data/Music/iTunes/iTunes Media/Music/Григорий Лепс/Избранное... 10 лет (Compilation)/04 В городе дождь.m4a
Формат                                   : MPEG-4
Профиль формата                          : Apple audio with iTunes info
Идентификатор кодека                     : M4A
Размер файла                             : 39,1 Мбайт
Продолжительность                        : 5 м. 32 с.
Режим общего битрейта                    : Переменный
Общий поток                              : 988 Кбит/сек
Альбом                                   : Избранное... 10 лет (Compilation)
Альбом/Исполнитель                       : Григорий Лепс
Трек                                     : В городе дождь
Трек/Положение                           : 4
Трек/Всего                               : 17
Исполнитель                              : Григорий Лепс
Жанр                                     : Chanson, Pop
Дата записи                              : 2005
Дата кодирования                         : UTC 2014-06-06 12:45:03
Дата пометки                             : UTC 2014-06-06 18:58:39
Программа кодирования                    : CUETools 2.1.5
Обложка                                  : Yes
Примечание                               : ExactAudioCopy v0.95b4
CTDBDISCCONFIDENCE                       : 2/7
CTDBTRACKCONFIDENCE                      : 7/7
CDTOC                                    : 11+96+68E3+A957+1013B+1627F+1B649+1F87F+25FA3+2A017+31547+34A99+3A27D+3ED7D+43463+4947B+4CDE7+52211+56CB7

Аудио
Идентификатор                            : 1
Формат                                   : ALAC
Идентификатор кодека                     : alac
Идентификатор кодека/Информация          : Apple Lossless Audio Codec
Продолжительность                        : 5 м. 32 с.
Duration_LastFrame                       : -45 мс.
Вид битрейта                             : Переменный
Битрейт                                  : 975 Кбит/сек
Каналы                                   : 2 канала
Частота                                  : 44,1 КГц
Битовая глубина                          : 16 бит
Размер потока                            : 38,6 Мбайт (99%)
Дата кодирования                         : UTC 2014-06-06 12:45:03
Дата пометки                             : UTC 2014-06-06 18:58:39

Общее
Полное имя                               : /Users/Denis/Library/Containers/net.mediaarea.mediainfo.mac/Data/Music/iTunes/iTunes Media/Music/Григорий Лепс/Избранное... 10 лет (Compilation)/05 Натали.m4a
Формат                                   : MPEG-4
Профиль формата                          : Apple audio with iTunes info
Идентификатор кодека                     : M4A
Размер файла                             : 37,5 Мбайт
Продолжительность                        : 4 м. 46 с.
Режим общего битрейта                    : Переменный
Общий поток                              : 1099 Кбит/сек
Альбом                                   : Избранное... 10 лет (Compilation)
Альбом/Исполнитель                       : Григорий Лепс
Трек                                     : Натали
Трек/Положение                           : 5
Трек/Всего                               : 17
Исполнитель                              : Григорий Лепс
Жанр                                     : Chanson, Pop
Дата записи                              : 2005
Дата кодирования                         : UTC 2014-06-06 12:45:13
Дата пометки                             : UTC 2014-06-06 18:58:39
Программа кодирования                    : CUETools 2.1.5
Обложка                                  : Yes
Примечание                               : ExactAudioCopy v0.95b4
CTDBDISCCONFIDENCE                       : 2/7
CTDBTRACKCONFIDENCE                      : 7/7
CDTOC                                    : 11+96+68E3+A957+1013B+1627F+1B649+1F87F+25FA3+2A017+31547+34A99+3A27D+3ED7D+43463+4947B+4CDE7+52211+56CB7

Аудио
Идентификатор                            : 1
Формат                                   : ALAC
Идентификатор кодека                     : alac
Идентификатор кодека/Информация          : Apple Lossless Audio Codec
Продолжительность                        : 4 м. 46 с.
Duration_LastFrame                       : -70 мс.
Вид битрейта                             : Переменный
Битрейт                                  : 1084 Кбит/сек
Каналы                                   : 2 канала
Частота                                  : 44,1 КГц
Битовая глубина                          : 16 бит
Размер потока                            : 37,0 Мбайт (99%)
Дата кодирования                         : UTC 2014-06-06 12:45:13
Дата пометки                             : UTC 2014-06-06 18:58:39

Общее
Полное имя                               : /Users/Denis/Library/Containers/net.mediaarea.mediainfo.mac/Data/Music/iTunes/iTunes Media/Music/Григорий Лепс/Избранное... 10 лет (Compilation)/06 Танго разбитых сердец.m4a
Формат                                   : MPEG-4
Профиль формата                          : Apple audio with iTunes info
Идентификатор кодека                     : M4A
Размер файла                             : 30,1 Мбайт
Продолжительность                        : 3 м. 46 с.
Режим общего битрейта                    : Переменный
Общий поток                              : 1118 Кбит/сек
Альбом                                   : Избранное... 10 лет (Compilation)
Альбом/Исполнитель                       : Григорий Лепс
Трек                                     : Танго разбитых сердец
Трек/Положение                           : 6
Трек/Всего                               : 17
Исполнитель                              : Григорий Лепс
Жанр                                     : Chanson, Pop
Дата записи                              : 2005
Дата кодирования                         : UTC 2014-06-06 12:45:22
Дата пометки                             : UTC 2014-06-06 18:58:39
Программа кодирования                    : CUETools 2.1.5
Обложка                                  : Yes
Примечание                               : ExactAudioCopy v0.95b4
CTDBDISCCONFIDENCE                       : 2/7
CTDBTRACKCONFIDENCE                      : 7/7
CDTOC                                    : 11+96+68E3+A957+1013B+1627F+1B649+1F87F+25FA3+2A017+31547+34A99+3A27D+3ED7D+43463+4947B+4CDE7+52211+56CB7

Аудио
Идентификатор                            : 1
Формат                                   : ALAC
Идентификатор кодека                     : alac
Идентификатор кодека/Информация          : Apple Lossless Audio Codec
Продолжительность                        : 3 м. 46 с.
Duration_LastFrame                       : -69 мс.
Вид битрейта                             : Переменный
Битрейт                                  : 1099 Кбит/сек
Каналы                                   : 2 канала
Частота                                  : 44,1 КГц
Битовая глубина                          : 16 бит
Размер потока                            : 29,6 Мбайт (98%)
Дата кодирования                         : UTC 2014-06-06 12:45:22
Дата пометки                             : UTC 2014-06-06 18:58:39

Общее
Полное имя                               : /Users/Denis/Library/Containers/net.mediaarea.mediainfo.mac/Data/Music/iTunes/iTunes Media/Music/Григорий Лепс/Избранное... 10 лет (Compilation)/07 На струнах дождя.m4a
Формат                                   : MPEG-4
Профиль формата                          : Apple audio with iTunes info
Идентификатор кодека                     : M4A
Размер файла                             : 42,4 Мбайт
Продолжительность                        : 5 м. 52 с.
Режим общего битрейта                    : Переменный
Общий поток                              : 1010 Кбит/сек
Альбом                                   : Избранное... 10 лет (Compilation)
Альбом/Исполнитель                       : Григорий Лепс
Трек                                     : На струнах дождя
Трек/Положение                           : 7
Трек/Всего                               : 17
Исполнитель                              : Григорий Лепс
Жанр                                     : Chanson, Pop
Дата записи                              : 2005
Дата кодирования                         : UTC 2014-06-06 12:45:35
Дата пометки                             : UTC 2014-06-06 18:58:39
Программа кодирования                    : CUETools 2.1.5
Обложка                                  : Yes
Примечание                               : ExactAudioCopy v0.95b4
CTDBDISCCONFIDENCE                       : 2/7
CTDBTRACKCONFIDENCE                      : 7/7
CDTOC                                    : 11+96+68E3+A957+1013B+1627F+1B649+1F87F+25FA3+2A017+31547+34A99+3A27D+3ED7D+43463+4947B+4CDE7+52211+56CB7

Аудио
Идентификатор                            : 1
Формат                                   : ALAC
Идентификатор кодека                     : alac
Идентификатор кодека/Информация          : Apple Lossless Audio Codec
Продолжительность                        : 5 м. 52 с.
Duration_LastFrame                       : -54 мс.
Вид битрейта                             : Переменный
Битрейт                                  : 997 Кбит/сек
Каналы                                   : 2 канала
Частота                                  : 44,1 КГц
Битовая глубина                          : 16 бит
Размер потока                            : 41,9 Мбайт (99%)
Дата кодирования                         : UTC 2014-06-06 12:45:35
Дата пометки                             : UTC 2014-06-06 18:58:39

Общее
Полное имя                               : /Users/Denis/Library/Containers/net.mediaarea.mediainfo.mac/Data/Music/iTunes/iTunes Media/Music/Григорий Лепс/Избранное... 10 лет (Compilation)/09 Купола.m4a
Формат                                   : MPEG-4
Профиль формата                          : Apple audio with iTunes info
Идентификатор кодека                     : M4A
Размер файла                             : 50,3 Мбайт
Продолжительность                        : 6 м. 40 с.
Режим общего битрейта                    : Переменный
Общий поток                              : 1055 Кбит/сек
Альбом                                   : Избранное... 10 лет (Compilation)
Альбом/Исполнитель                       : Григорий Лепс
Трек                                     : Купола
Трек/Положение                           : 9
Трек/Всего                               : 17
Исполнитель                              : Григорий Лепс
Жанр                                     : Chanson, Pop
Дата записи                              : 2005
Дата кодирования                         : UTC 2014-06-06 12:45:57
Дата пометки                             : UTC 2014-06-06 18:58:39
Программа кодирования                    : CUETools 2.1.5
Обложка                                  : Yes
Примечание                               : ExactAudioCopy v0.95b4
CTDBDISCCONFIDENCE                       : 2/7
CTDBTRACKCONFIDENCE                      : 7/7
CDTOC                                    : 11+96+68E3+A957+1013B+1627F+1B649+1F87F+25FA3+2A017+31547+34A99+3A27D+3ED7D+43463+4947B+4CDE7+52211+56CB7

Аудио
Идентификатор                            : 1
Формат                                   : ALAC
Идентификатор кодека                     : alac
Идентификатор кодека/Информация          : Apple Lossless Audio Codec
Продолжительность                        : 6 м. 40 с.
Duration_LastFrame                       : -33 мс.
Вид битрейта                             : Переменный
Битрейт                                  : 1044 Кбит/сек
Каналы                                   : 2 канала
Частота                                  : 44,1 КГц
Битовая глубина                          : 16 бит
Размер потока                            : 49,8 Мбайт (99%)
Дата кодирования                         : UTC 2014-06-06 12:45:57
Дата пометки                             : UTC 2014-06-06 18:58:39

Общее
Полное имя                               : /Users/Denis/Library/Containers/net.mediaarea.mediainfo.mac/Data/Music/iTunes/iTunes Media/Music/Григорий Лепс/Избранное... 10 лет (Compilation)/10 Парус.m4a
Формат                                   : MPEG-4
Профиль формата                          : Apple audio with iTunes info
Идентификатор кодека                     : M4A
Размер файла                             : 23,1 Мбайт
Продолжительность                        : 3 м. 2 с.
Режим общего битрейта                    : Переменный
Общий поток                              : 1067 Кбит/сек
Альбом                                   : Избранное... 10 лет (Compilation)
Альбом/Исполнитель                       : Григорий Лепс
Трек                                     : Парус
Трек/Положение                           : 10
Трек/Всего                               : 17
Исполнитель                              : Григорий Лепс
Жанр                                     : Chanson, Pop
Дата записи                              : 2005
Дата кодирования                         : UTC 2014-06-06 12:46:04
Дата пометки                             : UTC 2014-06-06 18:58:39
Программа кодирования                    : CUETools 2.1.5
Обложка                                  : Yes
Примечание                               : ExactAudioCopy v0.95b4
CTDBDISCCONFIDENCE                       : 2/7
CTDBTRACKCONFIDENCE                      : 7/7
CDTOC                                    : 11+96+68E3+A957+1013B+1627F+1B649+1F87F+25FA3+2A017+31547+34A99+3A27D+3ED7D+43463+4947B+4CDE7+52211+56CB7

Аудио
Идентификатор                            : 1
Формат                                   : ALAC
Идентификатор кодека                     : alac
Идентификатор кодека/Информация          : Apple Lossless Audio Codec
Продолжительность                        : 3 м. 2 с.
Duration_LastFrame                       : -44 мс.
Вид битрейта                             : Переменный
Битрейт                                  : 1043 Кбит/сек
Каналы                                   : 2 канала
Частота                                  : 44,1 КГц
Битовая глубина                          : 16 бит
Размер потока                            : 22,6 Мбайт (98%)
Дата кодирования                         : UTC 2014-06-06 12:46:04
Дата пометки                             : UTC 2014-06-06 18:58:39

Общее
Полное имя                               : /Users/Denis/Library/Containers/net.mediaarea.mediainfo.mac/Data/Music/iTunes/iTunes Media/Music/Григорий Лепс/Избранное... 10 лет (Compilation)/11 Чистые пруды.m4a
Формат                                   : MPEG-4
Профиль формата                          : Apple audio with iTunes info
Идентификатор кодека                     : M4A
Размер файла                             : 36,2 Мбайт
Продолжительность                        : 5 м. 0 с.
Режим общего битрейта                    : Переменный
Общий поток                              : 1011 Кбит/сек
Альбом                                   : Избранное... 10 лет (Compilation)
Альбом/Исполнитель                       : Григорий Лепс
Трек                                     : Чистые пруды
Трек/Положение                           : 11
Трек/Всего                               : 17
Исполнитель                              : Григорий Лепс
Жанр                                     : Chanson, Pop
Дата записи                              : 2005
Дата кодирования                         : UTC 2014-06-06 12:46:14
Дата пометки                             : UTC 2014-06-06 18:58:39
Программа кодирования                    : CUETools 2.1.5
Обложка                                  : Yes
Примечание                               : ExactAudioCopy v0.95b4
CTDBDISCCONFIDENCE                       : 2/7
CTDBTRACKCONFIDENCE                      : 7/7
CDTOC                                    : 11+96+68E3+A957+1013B+1627F+1B649+1F87F+25FA3+2A017+31547+34A99+3A27D+3ED7D+43463+4947B+4CDE7+52211+56CB7

Аудио
Идентификатор                            : 1
Формат                                   : ALAC
Идентификатор кодека                     : alac
Идентификатор кодека/Информация          : Apple Lossless Audio Codec
Продолжительность                        : 5 м. 0 с.
Duration_LastFrame                       : -2 мс.
Вид битрейта                             : Переменный
Битрейт                                  : 997 Кбит/сек
Каналы                                   : 2 канала
Частота                                  : 44,1 КГц
Битовая глубина                          : 16 бит
Размер потока                            : 35,7 Мбайт (99%)
Дата кодирования                         : UTC 2014-06-06 12:46:14
Дата пометки                             : UTC 2014-06-06 18:58:39

Общее
Полное имя                               : /Users/Denis/Library/Containers/net.mediaarea.mediainfo.mac/Data/Music/iTunes/iTunes Media/Music/Григорий Лепс/Избранное... 10 лет (Compilation)/12 Рюмка водки на столе.m4a
Формат                                   : MPEG-4
Профиль формата                          : Apple audio with iTunes info
Идентификатор кодека                     : M4A
Размер файла                             : 32,7 Мбайт
Продолжительность                        : 4 м. 16 с.
Режим общего битрейта                    : Переменный
Общий поток                              : 1072 Кбит/сек
Альбом                                   : Избранное... 10 лет (Compilation)
Альбом/Исполнитель                       : Григорий Лепс
Трек                                     : Рюмка водки на столе
Трек/Положение                           : 12
Трек/Всего                               : 17
Исполнитель                              : Григорий Лепс
Жанр                                     : Chanson, Pop
Дата записи                              : 2005
Дата кодирования                         : UTC 2014-06-06 12:46:25
Дата пометки                             : UTC 2014-06-06 18:58:39
Программа кодирования                    : CUETools 2.1.5
Обложка                                  : Yes
Примечание                               : ExactAudioCopy v0.95b4
CTDBDISCCONFIDENCE                       : 2/7
CTDBTRACKCONFIDENCE                      : 7/7
CDTOC                                    : 11+96+68E3+A957+1013B+1627F+1B649+1F87F+25FA3+2A017+31547+34A99+3A27D+3ED7D+43463+4947B+4CDE7+52211+56CB7

Аудио
Идентификатор                            : 1
Формат                                   : ALAC
Идентификатор кодека                     : alac
Идентификатор кодека/Информация          : Apple Lossless Audio Codec
Продолжительность                        : 4 м. 16 с.
Duration_LastFrame                       : -70 мс.
Вид битрейта                             : Переменный
Битрейт                                  : 1056 Кбит/сек
Каналы                                   : 2 канала
Частота                                  : 44,1 КГц
Битовая глубина                          : 16 бит
Размер потока                            : 32,2 Мбайт (98%)
Дата кодирования                         : UTC 2014-06-06 12:46:25
Дата пометки                             : UTC 2014-06-06 18:58:39

Общее
Полное имя                               : /Users/Denis/Library/Containers/net.mediaarea.mediainfo.mac/Data/Music/iTunes/iTunes Media/Music/Григорий Лепс/Избранное... 10 лет (Compilation)/13 Крыса-ревность.m4a
Формат                                   : MPEG-4
Профиль формата                          : Apple audio with iTunes info
Идентификатор кодека                     : M4A
Размер файла                             : 31,1 Мбайт
Продолжительность                        : 4 м. 2 с.
Режим общего битрейта                    : Переменный
Общий поток                              : 1077 Кбит/сек
Альбом                                   : Избранное... 10 лет (Compilation)
Альбом/Исполнитель                       : Григорий Лепс
Трек                                     : Крыса-ревность
Трек/Положение                           : 13
Трек/Всего                               : 17
Исполнитель                              : Григорий Лепс
Жанр                                     : Chanson, Pop
Дата записи                              : 2005
Дата кодирования                         : UTC 2014-06-06 12:46:34
Дата пометки                             : UTC 2014-06-06 18:58:40
Программа кодирования                    : CUETools 2.1.5
Обложка                                  : Yes
Примечание                               : ExactAudioCopy v0.95b4
CTDBDISCCONFIDENCE                       : 2/7
CTDBTRACKCONFIDENCE                      : 7/7
CDTOC                                    : 11+96+68E3+A957+1013B+1627F+1B649+1F87F+25FA3+2A017+31547+34A99+3A27D+3ED7D+43463+4947B+4CDE7+52211+56CB7

Аудио
Идентификатор                            : 1
Формат                                   : ALAC
Идентификатор кодека                     : alac
Идентификатор кодека/Информация          : Apple Lossless Audio Codec
Продолжительность                        : 4 м. 2 с.
Duration_LastFrame                       : -45 мс.
Вид битрейта                             : Переменный
Битрейт                                  : 1060 Кбит/сек
Каналы                                   : 2 канала
Частота                                  : 44,1 КГц
Битовая глубина                          : 16 бит
Размер потока                            : 30,6 Мбайт (98%)
Дата кодирования                         : UTC 2014-06-06 12:46:34
Дата пометки                             : UTC 2014-06-06 18:58:40

Общее
Полное имя                               : /Users/Denis/Library/Containers/net.mediaarea.mediainfo.mac/Data/Music/iTunes/iTunes Media/Music/Григорий Лепс/Избранное... 10 лет (Compilation)/14 Спокойной ночи, господа.m4a
Формат                                   : MPEG-4
Профиль формата                          : Apple audio with iTunes info
Идентификатор кодека                     : M4A
Размер файла                             : 37,7 Мбайт
Продолжительность                        : 5 м. 28 с.
Режим общего битрейта                    : Переменный
Общий поток                              : 964 Кбит/сек
Альбом                                   : Избранное... 10 лет (Compilation)
Альбом/Исполнитель                       : Григорий Лепс
Трек                                     : Спокойной ночи, господа
Трек/Положение                           : 14
Трек/Всего                               : 17
Исполнитель                              : Григорий Лепс
Жанр                                     : Chanson, Pop
Дата записи                              : 2005
Дата кодирования                         : UTC 2014-06-06 12:46:46
Дата пометки                             : UTC 2014-06-06 18:58:40
Программа кодирования                    : CUETools 2.1.5
Обложка                                  : Yes
Примечание                               : ExactAudioCopy v0.95b4
CTDBDISCCONFIDENCE                       : 2/7
CTDBTRACKCONFIDENCE                      : 7/7
CDTOC                                    : 11+96+68E3+A957+1013B+1627F+1B649+1F87F+25FA3+2A017+31547+34A99+3A27D+3ED7D+43463+4947B+4CDE7+52211+56CB7

Аудио
Идентификатор                            : 1
Формат                                   : ALAC
Идентификатор кодека                     : alac
Идентификатор кодека/Информация          : Apple Lossless Audio Codec
Продолжительность                        : 5 м. 28 с.
Duration_LastFrame                       : -52 мс.
Вид битрейта                             : Переменный
Битрейт                                  : 951 Кбит/сек
Каналы                                   : 2 канала
Частота                                  : 44,1 КГц
Битовая глубина                          : 16 бит
Размер потока                            : 37,2 Мбайт (99%)
Дата кодирования                         : UTC 2014-06-06 12:46:46
Дата пометки                             : UTC 2014-06-06 18:58:40

Общее
Полное имя                               : /Users/Denis/Library/Containers/net.mediaarea.mediainfo.mac/Data/Music/iTunes/iTunes Media/Music/Григорий Лепс/Избранное... 10 лет (Compilation)/15 Шелест.m4a
Формат                                   : MPEG-4
Профиль формата                          : Apple audio with iTunes info
Идентификатор кодека                     : M4A
Размер файла                             : 26,1 Мбайт
Продолжительность                        : 3 м. 16 с.
Режим общего битрейта                    : Переменный
Общий поток                              : 1117 Кбит/сек
Альбом                                   : Избранное... 10 лет (Compilation)
Альбом/Исполнитель                       : Григорий Лепс
Трек                                     : Шелест
Трек/Положение                           : 15
Трек/Всего                               : 17
Исполнитель                              : Григорий Лепс
Жанр                                     : Chanson, Pop
Дата записи                              : 2005
Дата кодирования                         : UTC 2014-06-06 12:46:54
Дата пометки                             : UTC 2014-06-06 18:58:40
Программа кодирования                    : CUETools 2.1.5
Обложка                                  : Yes
Примечание                               : ExactAudioCopy v0.95b4
CTDBDISCCONFIDENCE                       : 2/7
CTDBTRACKCONFIDENCE                      : 4/7
CDTOC                                    : 11+96+68E3+A957+1013B+1627F+1B649+1F87F+25FA3+2A017+31547+34A99+3A27D+3ED7D+43463+4947B+4CDE7+52211+56CB7

Аудио
Идентификатор                            : 1
Формат                                   : ALAC
Идентификатор кодека                     : alac
Идентификатор кодека/Информация          : Apple Lossless Audio Codec
Продолжительность                        : 3 м. 16 с.
Duration_LastFrame                       : -69 мс.
Вид битрейта                             : Переменный
Битрейт                                  : 1095 Кбит/сек
Каналы                                   : 2 канала
Частота                                  : 44,1 КГц
Битовая глубина                          : 16 бит
Размер потока                            : 25,6 Мбайт (98%)
Дата кодирования                         : UTC 2014-06-06 12:46:54
Дата пометки                             : UTC 2014-06-06 18:58:40

Общее
Полное имя                               : /Users/Denis/Library/Containers/net.mediaarea.mediainfo.mac/Data/Music/iTunes/iTunes Media/Music/Григорий Лепс/Избранное... 10 лет (Compilation)/16 Ангел завтрашнего дня (дуэт с Ириной Аллегровой).m4a
Формат                                   : MPEG-4
Профиль формата                          : Apple audio with iTunes info
Идентификатор кодека                     : M4A
Размер файла                             : 35,6 Мбайт
Продолжительность                        : 4 м. 47 с.
Режим общего битрейта                    : Переменный
Общий поток                              : 1039 Кбит/сек
Альбом                                   : Избранное... 10 лет (Compilation)
Альбом/Исполнитель                       : Григорий Лепс
Трек                                     : Ангел завтрашнего дня (дуэт с Ириной Аллегровой)
Трек/Положение                           : 16
Трек/Всего                               : 17
Исполнитель                              : Григорий Лепс
Жанр                                     : Chanson, Pop
Дата записи                              : 2005
Дата кодирования                         : UTC 2014-06-06 12:47:08
Дата пометки                             : UTC 2014-06-06 18:58:40
Программа кодирования                    : CUETools 2.1.5
Обложка                                  : Yes
Примечание                               : ExactAudioCopy v0.95b4
CTDBDISCCONFIDENCE                       : 2/7
CTDBTRACKCONFIDENCE                      : 4/7
CDTOC                                    : 11+96+68E3+A957+1013B+1627F+1B649+1F87F+25FA3+2A017+31547+34A99+3A27D+3ED7D+43463+4947B+4CDE7+52211+56CB7

Аудио
Идентификатор                            : 1
Формат                                   : ALAC
Идентификатор кодека                     : alac
Идентификатор кодека/Информация          : Apple Lossless Audio Codec
Продолжительность                        : 4 м. 47 с.
Duration_LastFrame                       : -90 мс.
Вид битрейта                             : Переменный
Битрейт                                  : 1024 Кбит/сек
Каналы                                   : 2 канала
Частота                                  : 44,1 КГц
Битовая глубина                          : 16 бит
Размер потока                            : 35,1 Мбайт (99%)
Дата кодирования                         : UTC 2014-06-06 12:47:08
Дата пометки                             : UTC 2014-06-06 18:58:40

Общее
Полное имя                               : /Users/Denis/Library/Containers/net.mediaarea.mediainfo.mac/Data/Music/iTunes/iTunes Media/Music/Григорий Лепс/Избранное... 10 лет (Compilation)/17 Раздумья мои.m4a
Формат                                   : MPEG-4
Профиль формата                          : Apple audio with iTunes info
Идентификатор кодека                     : M4A
Размер файла                             : 33,4 Мбайт
Продолжительность                        : 4 м. 14 с.
Режим общего битрейта                    : Переменный
Общий поток                              : 1101 Кбит/сек
Альбом                                   : Избранное... 10 лет (Compilation)
Альбом/Исполнитель                       : Григорий Лепс
Трек                                     : Раздумья мои
Трек/Положение                           : 17
Трек/Всего                               : 17
Исполнитель                              : Григорий Лепс
Жанр                                     : Chanson, Pop
Дата записи                              : 2005
Дата кодирования                         : UTC 2014-06-06 12:47:18
Дата пометки                             : UTC 2014-06-06 18:58:40
Программа кодирования                    : CUETools 2.1.5
Обложка                                  : Yes
Примечание                               : ExactAudioCopy v0.95b4
CTDBDISCCONFIDENCE                       : 2/7
CTDBTRACKCONFIDENCE                      : 2/7
CDTOC                                    : 11+96+68E3+A957+1013B+1627F+1B649+1F87F+25FA3+2A017+31547+34A99+3A27D+3ED7D+43463+4947B+4CDE7+52211+56CB7

Аудио
Идентификатор                            : 1
Формат                                   : ALAC
Идентификатор кодека                     : alac
Идентификатор кодека/Информация          : Apple Lossless Audio Codec
Продолжительность                        : 4 м. 14 с.
Duration_LastFrame                       : -62 мс.
Вид битрейта                             : Переменный
Битрейт                                  : 1084 Кбит/сек
Каналы                                   : 2 канала
Частота                                  : 44,1 КГц
Битовая глубина                          : 16 бит
Размер потока                            : 32,9 Мбайт (98%)
Дата кодирования                         : UTC 2014-06-06 12:47:18
Дата пометки                             : UTC 2014-06-06 18:58:40
Код:

-----------------------

DON'T MODIFY THIS FILE

-----------------------

PERFORMER: auCDtect Task Manager, ver. 1.6.0 RC1 build 1.6.0.1
Copyright (c) 2008-2010 y-soft. All rights reserved
http://y-soft.org

ANALYZER: auCDtect: CD records authenticity detector, version 0.8.2
Copyright (c) 2004 Oleg Berngardt. All rights reserved.
Copyright (c) 2004 Alexander Djourik. All rights reserved.

FILE: 17 Раздумья мои.m4a
  Size: 35072682 Hash: D4EB4E91F3D11AD87B558209E1575137 Accuracy: -m8
  Conclusion: CDDA 100%
  Signature: A53F10A766BD8F8FEEBE99C06BF989D15E83D884
FILE: 16 Ангел завтрашнего дня (дуэт с Ириной Аллегровой).m4a
  Size: 37324917 Hash: 521B2F574B2EFF58A6856D7D7C73231B Accuracy: -m8
  Conclusion: CDDA 100%
  Signature: D6FB98FA09D1738107888A1348FA8C42E70B74F2
FILE: 15 Шелест.m4a
  Size: 27363916 Hash: EC7CB3339F93C2EA348F486A3EF3E033 Accuracy: -m0
  Conclusion: CDDA 100%
  Signature: C6A35293B9C152CE8B64DA2475F7AAE48ABAEA0F
FILE: 14 Спокойной ночи, господа.m4a
  Size: 39530277 Hash: 8672B8369B3CCF288DDE037CEB6E229E Accuracy: -m8
  Conclusion: CDDA 100%
  Signature: A4107EFDCD30A0E7DE31151E002541C02F8E6B30
FILE: 13 Крыса-ревность.m4a
  Size: 32585336 Hash: D835ADC4F6681D682E8A90F89B4D3891 Accuracy: -m8
  Conclusion: CDDA 100%
  Signature: 32309F55FDACF49802B55E3C46F79BE926B11AF8
FILE: 12 Рюмка водки на столе.m4a
  Size: 34319873 Hash: D75548C1B330B8E829DDD5BFF9DAFA1B Accuracy: -m8
  Conclusion: CDDA 100%
  Signature: 39A10E99421B1F8318B5B48093AF2FE2F78D3AAE
FILE: 11 Чистые пруды.m4a
  Size: 37918252 Hash: 83242C189B6A20611BC79BF659D6600D Accuracy: -m8
  Conclusion: CDDA 100%
  Signature: 9A336CC8BF8E2882B39B60BDF2EBAC73198DF0F1
FILE: 10 Парус.m4a
  Size: 24268603 Hash: E84FA3C40FECA97E21CB56A1FDDAF184 Accuracy: -m0
  Conclusion: CDDA 100%
  Signature: DCDCB8B1F0B564F9DBBB643A6784579B20C0984F
FILE: 09 Купола.m4a
  Size: 52746411 Hash: 61E5B6DA4902A6EA992B0B40BD384447 Accuracy: -m8
  Conclusion: CDDA 100%
  Signature: 8689741F030B9E70527E081D6B8C46335942A360
FILE: 08 Я верю, я дождусь.m4a
  Size: 30612709 Hash: 52A0EE89909425FD763D0F1575E68E54 Accuracy: -m8
  Conclusion: CDDA 100%
  Signature: FD6B4015B8572D5D70FD625C9655A6DB104B789F
FILE: 07 На струнах дождя.m4a
  Size: 44433979 Hash: 63579DA796268040F2E5D10EA301C98F Accuracy: -m8
  Conclusion: CDDA 100%
  Signature: 0629C1A3CEFD1A6D8AA8382893DFB22B2167C6C2
FILE: 06 Танго разбитых сердец.m4a
  Size: 31574064 Hash: 4280929DDBBE2866A3DB0461011AE158 Accuracy: -m8
  Conclusion: CDDA 100%
  Signature: 1DE0C0FA3B3CF80C5E95D7D8306BAB94A29AB509
FILE: 05 Натали.m4a
  Size: 39301217 Hash: 824B2B658E360F62AA25A3878C467925 Accuracy: -m8
  Conclusion: CDDA 100%
  Signature: 02C4B979C4CCDBE42DF0FE0669F736DB67137720
FILE: 04 В городе дождь.m4a
  Size: 40993147 Hash: 9C8BCB5D5498C240512CBDF4B2C53EDF Accuracy: -m8
  Conclusion: CDDA 100%
  Signature: 69A3FA47FE878832BCA653D013F0127FE760DBA5
FILE: 03 Ну и что.m4a
  Size: 39544357 Hash: E71716D8D17317D359B216565CD53BE8 Accuracy: -m0
  Conclusion: CDDA 100%
  Signature: 1D3356BA6835B66B1E940363DC721ABDC4824007
FILE: 02 Летай.m4a
  Size: 29511493 Hash: E2ECB360F97CAA43EEDA05B6ADAADB23 Accuracy: -m8
  Conclusion: CDDA 100%
  Signature: 340C83868D810A36886BCD55F9A946D9A7BC70FE
FILE: 01 Я слушал дождь.m4a
  Size: 45957836 Hash: DE371C3BDE9BC26821D9EE61EFB1A3FC Accuracy: -m8
  Conclusion: CDDA 100%
  Signature: 8D307CF9952F906D02BC53619996865FF9F4B2F1
Все альбомы и сборники Григория Лепса в ALAC

Время раздачи: с 20-00 до 02-00 постоянно, часто 24/7
[NNM-Club.me]_Leps (2005) Izbrannoe.torrent
 Торрент: Платиновая раздача  Зарегистрирован
 
Скачать


Примагнититься
 Зарегистрирован:   06 Июн 2014 20:17:02
 Размер:   594 MB  (
 Рейтинг:   4.4 (Голосов: 24)
 Поблагодарили:   96
 Проверка:   Оформление проверено модератором 06 Июн 2014 21:07:09
Как cкачать  ·  Как раздать  ·  Правильно оформить  ·  Поднять ратио!  
Показать сообщения:   
Начать новую тему   Ответить на тему    Торрент-трекер NNM-Club -> Аудио и Видео -> Музыка Lossless (ALAC) Часовой пояс: GMT + 3
Страница 1 из 1