Классический форум-трекер
canvas not supported
Нас вместе: 4 196 034

Шоу Трумана / The Truman Show (1998) BDRip [H.264/720p-LQ] [Hi10P]


 
 
RSS
Начать новую тему   Ответить на тему    Торрент-трекер NNM-Club -> Зарубежное кино -> Зарубежные Фильмы (SD)
Автор Сообщение
sinteros ®
Стаж: 13 лет 4 мес.
Сообщений: 560
Ratio: 75.558
Поблагодарили: 61247
100%
Шоу Трумана / The Truman Show (1998)
BDRip [H.264/720p-LQ] [Hi10P]

Год выпуска: 1998
Жанр: Фантастика, Драма, Комедия
Перевод: Многоголосый x3, Авторский x2
Оригинальная аудио дорожка: Английская
Язык субтитров: Русский, Английский
Вид субтитров: Вшитые (отключаемые)

Описание фильма: Труман Бербэнк узнает, что он — главный герой реалити-шоу, которое снимается с самого его рождения. Все люди, с которыми Труман общается каждый день — актеры. А мир вокруг — всего лишь декорация. Теперь у Трумана появляется выбор: остаться марионеткой в вымышленном безопасном мире или переселиться в мир настоящий, незнакомый и полный опасностей. Зрители, затаив дыхание, ждут, какое решение примет их любимый герой.

Режиссер: Питер Уир

Актеры: Джим Кэрри, Лора Линни, Ноа Эммерих, Наташа МакЭлоун, Холланд Тэйлор, Брайан Дилэйт, Питер Краузе, Рон Тэйлор, Дон Тэйлор, Тед Рэймонд, Джуди Клэйтон, Джадсон Вон, Энтони Короне, Марио Эрнесто Санчес, Джон Роселиус, Тони Тодд, Роберт Дэвис, Эд Харрис, Пол Джаматти, Адам Томей, Хэрри Ширер, Уна Дэймон, Филип Бейкер Холл, Джон Плешетт, Филип Гласс, О-Лан Джонс, Эл Фостер, Терри Камиллери, Донна Харди, Джоэл МакКиннон Миллер, Юдзи Окумото, Джейк Эберли, Мелисса Фицджералд, Марк Маколэй

Качество видео: BDRip
Продолжительность: 01:42:57



Основной файл весит 2,55 с одной звуковой дорожкой!

Видео: MPEG-4 AVC/H.264, 1280x720(16:9), 23,976fps, 3040 Кbps, 0.138bit/pixel
Аудио 1: MVO Russian, AC3, 6ch, 48 kHz, 448 kbps, (Многоголосый - Позитив)
Аудио 2: MVO Russian, AC3, 6ch, 48 kHz, 448 kbps, (Многоголосый - Universal Pictures) - Отдельным файлом
Аудио 3: MVO Russian, AC3, 6ch, 48 kHz, 224 kbps, (Многоголосый - СТС) - Отдельным файлом
Аудио 4: AVO Russian, AC3, 6ch, 48 kHz, 448 kbps, (Одноголосый - Живов) - Отдельным файлом
Аудио 5: AVO Russian, AC3, 2ch, 48 kHz, 192 kbps, (Одноголосый - Визгунов) - Отдельным файлом
Аудио 6: English, AC3, 6ch, 48 kHz, 448 kbps, (Оригинал) - Отдельным файлом
Общее
Полное имя : Шоу Трумана (1998) BDRip-AVC.mkv
Формат : Matroska
Версия формата : Version 4 / Version 2
Размер файла : 3,83 Гбайт
Продолжительность : 1 ч. 42 м.
Общий поток : 5320 Кбит/сек
Название фильма : Шоу Трумана / The Truman Show (1998) BDRip-AVC (Sinteros)
Attachment : Yes

Видео
Идентификатор : 1
Формат : AVC
Формат/Информация : Advanced Video Codec
Профиль формата : High 10@L4.1
Параметр CABAC формата : Да
Параметр ReFrames формата : 11 кадров
Идентификатор кодека : V_MPEG4/ISO/AVC
Продолжительность : 1 ч. 42 м.
Битрейт : 3040 Кбит/сек
Ширина : 1280 пикселей
Высота : 720 пикселей
Соотношение сторон : 16:9
Режим частоты кадров : Постоянный
Частота кадров : 23,976 кадра/сек
Цветовое пространство : YUV
Субдискретизация насыщенности : 4:2:0
Битовая глубина : 10 бит
Тип развёртки : Прогрессивная
Бит/(Пиксели*Кадры) : 0.138
Размер потока : 2,16 Гбайт (57%)
Заголовок : MPEG-4 AVC/H.264, 1280x720(16:9), 23,976fps, 3040 Кbps, 0.138bit/pixel
Библиотека кодирования : x264 core 133 r2334 a3ac64b
Настройки программы : cabac=1 / ref=11 / deblock=1:-1:-1 / analyse=0x3:0x133 / me=tesa / subme=9 / psy=1 / psy_rd=1.00:0.00 / mixed_ref=1 / me_range=24 / chroma_me=1 / trellis=0 / 8x8dct=1 / cqm=0 / deadzone=21,11 / fast_pskip=1 / chroma_qp_offset=-2 / threads=4 / lookahead_threads=1 / sliced_threads=0 / nr=0 / decimate=1 / interlaced=0 / bluray_compat=0 / constrained_intra=0 / bframes=6 / b_pyramid=2 / b_adapt=2 / b_bias=0 / direct=1 / weightb=1 / open_gop=0 / weightp=2 / keyint=250 / keyint_min=50 / scenecut=40 / intra_refresh=0 / rc_lookahead=50 / rc=crf / mbtree=1 / crf=21.0 / qcomp=0.60 / qpmin=1 / qpmax=51 / qpstep=11 / ip_ratio=1.40 / aq=1:0.90
Язык : English
Default : Да
Forced : Нет

Аудио #1
Идентификатор : 2
Формат : AC-3
Формат/Информация : Audio Coding 3
Расширение режима : CM (complete main)
Параметр Endianness формата : Big
Идентификатор кодека : A_AC3
Продолжительность : 1 ч. 42 м.
Вид битрейта : Постоянный
Битрейт : 448 Кбит/сек
Каналы : 6 каналов
Расположение каналов : Front: L C R, Side: L R, LFE
Частота : 48,0 КГц
Битовая глубина : 16 бит
Метод сжатия : С потерями
Размер потока : 330 Мбайт (8%)
Заголовок : MVO Russian, AC3, 6ch, 48 kHz, 448 kbps, (Многоголосый - Позитив)
Язык : Russian
Default : Да
Forced : Нет

Аудио #2 - Отдельным файлом
Идентификатор : 3
Формат : AC-3
Формат/Информация : Audio Coding 3
Расширение режима : CM (complete main)
Параметр Endianness формата : Big
Идентификатор кодека : A_AC3
Продолжительность : 1 ч. 42 м.
Вид битрейта : Постоянный
Битрейт : 448 Кбит/сек
Каналы : 6 каналов
Расположение каналов : Front: L C R, Side: L R, LFE
Частота : 48,0 КГц
Битовая глубина : 16 бит
Метод сжатия : С потерями
Размер потока : 330 Мбайт (8%)
Заголовок : MVO Russian, AC3, 6ch, 48 kHz, 448 kbps, (Многоголосый - Universal Pictures) - Отдельным файлом
Язык : Russian
Default : Нет
Forced : Нет

Аудио #3 - Отдельным файлом
Идентификатор : 4
Формат : AC-3
Формат/Информация : Audio Coding 3
Расширение режима : CM (complete main)
Параметр Endianness формата : Big
Идентификатор кодека : A_AC3
Продолжительность : 1 ч. 42 м.
Вид битрейта : Постоянный
Битрейт : 224 Кбит/сек
Каналы : 6 каналов
Расположение каналов : Front: L C R, Side: L R, LFE
Частота : 48,0 КГц
Битовая глубина : 16 бит
Метод сжатия : С потерями
Размер потока : 165 Мбайт (4%)
Заголовок : MVO Russian, AC3, 6ch, 48 kHz, 224 kbps, (Многоголосый - СТС) - Отдельным файлом
Язык : Russian
Default : Нет
Forced : Нет

Аудио #4 - Отдельным файлом
Идентификатор : 5
Формат : AC-3
Формат/Информация : Audio Coding 3
Расширение режима : CM (complete main)
Параметр Endianness формата : Big
Идентификатор кодека : A_AC3
Продолжительность : 1 ч. 42 м.
Вид битрейта : Постоянный
Битрейт : 448 Кбит/сек
Каналы : 6 каналов
Расположение каналов : Front: L C R, Side: L R, LFE
Частота : 48,0 КГц
Битовая глубина : 16 бит
Метод сжатия : С потерями
Размер потока : 330 Мбайт (8%)
Заголовок : AVO Russian, AC3, 6ch, 48 kHz, 448 kbps, (Одноголосый - Живов) - Отдельным файлом
Язык : Russian
Default : Нет
Forced : Нет

Аудио #5 - Отдельным файлом
Идентификатор : 6
Формат : AC-3
Формат/Информация : Audio Coding 3
Расширение режима : CM (complete main)
Параметр Endianness формата : Big
Идентификатор кодека : A_AC3
Продолжительность : 1 ч. 42 м.
Вид битрейта : Постоянный
Битрейт : 192 Кбит/сек
Каналы : 2 канала
Расположение каналов : Front: L R
Частота : 48,0 КГц
Битовая глубина : 16 бит
Метод сжатия : С потерями
Размер потока : 141 Мбайт (4%)
Заголовок : AVO Russian, AC3, 2ch, 48 kHz, 192 kbps, (Одноголосый - Визгунов) - Отдельным файлом
Язык : Russian
Default : Нет
Forced : Нет

Аудио #6 - Отдельным файлом
Идентификатор : 7
Формат : AC-3
Формат/Информация : Audio Coding 3
Расширение режима : CM (complete main)
Параметр Endianness формата : Big
Идентификатор кодека : A_AC3
Продолжительность : 1 ч. 42 м.
Вид битрейта : Постоянный
Битрейт : 448 Кбит/сек
Каналы : 6 каналов
Расположение каналов : Front: L C R, Side: L R, LFE
Частота : 48,0 КГц
Битовая глубина : 16 бит
Метод сжатия : С потерями
Размер потока : 330 Мбайт (8%)
Заголовок : English, AC3, 6ch, 48 kHz, 448 kbps, (Оригинал) - Отдельным файлом
Язык : English
Default : Нет
Forced : Нет

Текст #1
Идентификатор : 8
Формат : UTF-8
Идентификатор кодека : S_TEXT/UTF8
Идентификатор кодека/Информация : UTF-8 Plain Text
Язык : Russian
Default : Нет
Forced : Нет

Текст #2
Идентификатор : 9
Формат : UTF-8
Идентификатор кодека : S_TEXT/UTF8
Идентификатор кодека/Информация : UTF-8 Plain Text
Язык : English
Default : Нет
Forced : Нет

Меню
00:00:00.000 : en:
00:02:42.537 : en:
00:06:49.283 : en:
00:09:06.712 : en:
00:09:43.457 : en:
00:11:31.357 : en:
00:17:14.700 : en:
00:29:29.225 : en:
00:36:58.215 : en:
00:42:33.926 : en:
00:45:41.112 : en:
00:47:43.819 : en:
00:51:12.444 : en:
00:52:56.631 : en:
00:55:23.027 : en:
01:01:08.039 : en:
01:09:57.985 : en:
01:13:20.896 : en:
01:21:01.356 : en:
01:23:22.747 : en:
01:27:44.091 : en:
01:31:51.214 : en:
01:34:49.308 : en:
01:36:00.755 : en:
Примечание: Рип в High 10 Profile, в настоящее время не поддерживается большинством аппаратных проигрывателей, поэтому предназначен исключительно для воспроизведения на ПК. Для корректного воспроизведения может потребоваться обновление ПО.

Скриншоты:



Шоу Трумана на NNM-club

Время раздачи: 24/7 (жду до 10-15 скачавших, а дальше могу уйти с радачи)
[NNM-Club.me]_SHou Trumana (1998) BDRip-AVC.torrent
 Торрент: Платиновая раздача  Зарегистрирован
 
Скачать


Примагнититься
 Зарегистрирован:   19 Авг 2014 23:26:37
 Размер:   3.82 GB  (
 Рейтинг:   4.9 (Голосов: 103)
 Поблагодарили:   326
 Проверка:   Оформление проверено модератором 20 Авг 2014 05:21:14
Как cкачать  ·  Как раздать  ·  Правильно оформить  ·  Поднять ратио!  
iarxivator
Стаж: 9 лет 7 мес.
Сообщений: 259
Ratio: 4.365
0%
наш мир так и устроен
Menn1
Стаж: 8 лет
Сообщений: 447
Ratio: 24.964
Раздал: 14.96 TB
Поблагодарили: 504
100%
Откуда: Тольятти
russia.gif
спасибо
pupun

Online
Стаж: 12 лет
Сообщений: 1834
Ratio: 15.302
Поблагодарили: 10018
100%
Откуда: Moscow
russia.gif
iarxivator писал(а): Перейти к сообщению
наш мир так и устроен

это ты в каком маня мирке живешь?

_________________
Asikosan
Стаж: 12 лет 1 мес.
Сообщений: 3
Ratio: 20.402
100%
russia.gif
нетленка
galystian54
Стаж: 11 лет 6 мес.
Сообщений: 654
Ratio: 5.222
15.36%
wild_hogs.gif
жаль что про войну
Malahay
 
Стаж: 11 лет 2 мес.
Сообщений: 73
Ratio: 11.963
Поблагодарили: 24
100%
russia.gif
Только что посмотрел. Отличный фильм! Настоятельно рекомендую к просмотру!
Показать сообщения:   
Начать новую тему   Ответить на тему    Торрент-трекер NNM-Club -> Зарубежное кино -> Зарубежные Фильмы (SD) Часовой пояс: GMT + 3
Страница 1 из 1