Классический форум-трекер
canvas not supported
Нас вместе: 4 232 280

Felix Mendelssohn - Symphonies nos. 1 & 5 "Reformation" conductor Claudio Abbado (1984)/[FLAC|Lossless]<Classical>


 
 
RSS
Начать новую тему   Ответить на тему    Торрент-трекер NNM-Club -> Классика -> Оркестровая (Lossless)
Автор Сообщение
Yon2 ®
Стаж: 12 лет 4 мес.
Сообщений: 144
Раздал: 876 GB
Поблагодарили: 2310
100%
Mendelssohn - Symphonies nos. 1 & 5 "Reformation"
London Symphony Orchestra
Claudio Abbado

Год: 1997
Жанр: Classical
Продолжительность: 01:07:24

Кодек: FLAC
Битрейт: Lossless
Тип рипа: tracks
Страна-производитель диска: Germany
Издатель (лейбл): Deutsche Grammophon
Номер по каталогу: 445596-2
Catalog number: 28944559620
Источник: Web
Наличие сканов в содержимом раздачи: да

Треклист:
Symphony no. 1 in C minor, op. 11
01 (1) Allegro molto [10:41]
02 (2) Andante [06:40]
03 (3) Menuetto. Allegro molto [06:44]
04 (4) Allegro con fuoco [08:14]
05 Scherzo in G minor from the Octet, op. 20 [03:56]
Symphony no. 5 in D major 'Reformation', op. 107
06 (1) Andante - Allegro [12:12]
07 (2) Allegro vivace [05:48]
08 (3) Andante [03:46]
09 (4) Choral [09:09]
Код: выделить все

Exact Audio Copy V1.0 beta 3 from 29. August 2011

EAC extraction logfile from 27. October 2013, 23:37

Mendelssohn / Symphonien Nos. 1 & 5 "Reformation" (Abbado - LSO)

Used drive  : Optiarc DVD RW AD-5170A   Adapter: 3  ID: 0

Read mode               : Secure
Utilize accurate stream : Yes
Defeat audio cache      : Yes
Make use of C2 pointers : No

Read offset correction                      : 48
Overread into Lead-In and Lead-Out          : No
Fill up missing offset samples with silence : Yes
Delete leading and trailing silent blocks   : No
Null samples used in CRC calculations       : Yes
Used interface                              : Native Win32 interface for Win NT & 2000
Gap handling                                : Appended to previous track

Used output format              : User Defined Encoder
Selected bitrate                : 896 kBit/s
Quality                         : High
Add ID3 tag                     : No
Command line compressor         : C:\Program Files\Exact Audio Copy\FLAC\FLAC.EXE
Additional command line options : -8 -V -T "ARTIST=%artist%" -T "TITLE=%title%" -T "ALBUM=%albumtitle%" -T "DATE=%year%" -T "TRACKNUMBER=%tracknr%" -T "GENRE=%genre%" -T "COMMENT=%comment%" -T "BAND=%albuminterpret%" -T "ALBUMARTIST=%albuminterpret%" -T "COMPOSER=%composer%" %haslyrics%--tag-from-file=LYRICS="%lyricsfile%"%haslyrics% -T "DISCNUMBER=%cdnumber%" -T "TOTALDISCS=%totalcds%" -T "TOTALTRACKS=%numtracks%" %hascover%--picture="%coverfile%"%hascover% %source% -o %dest%

TOC of the extracted CD

     Track |   Start  |  Length  | Start sector | End sector
    ---------------------------------------------------------
        1  |  0:00.33 | 10:41.00 |        33    |    48107
        2  | 10:41.33 |  6:40.00 |     48108    |    78107
        3  | 17:21.33 |  6:44.00 |     78108    |   108407
        4  | 24:05.33 |  8:21.00 |    108408    |   145982
        5  | 32:26.33 |  4:03.00 |    145983    |   164207
        6  | 36:29.33 | 12:12.00 |    164208    |   219107
        7  | 48:41.33 |  5:48.00 |    219108    |   245207
        8  | 54:29.33 |  3:45.67 |    245208    |   262149
        9  | 58:15.25 |  9:09.08 |    262150    |   303332

Track  1

     Filename M:\Mp3, new\Flac\EAC\Mendelssohn - Symphonien Nos. 1 & 5 'Reformation' (Abbado - LSO) [flac]\01 Symphony no. 1 in C minor (1) Allegro molto.wav

     Pre-gap length  0:00:02.33

     Peak level 99.9 %
     Extraction speed 5.4 X
     Track quality 100.0 %
     Test CRC DA9A2B68
     Copy CRC DA9A2B68
     Track not present in AccurateRip database
     Copy OK

Track  2

     Filename M:\Mp3, new\Flac\EAC\Mendelssohn - Symphonien Nos. 1 & 5 'Reformation' (Abbado - LSO) [flac]\02 Symphony no. 1 in C minor (2) Andante.wav

     Peak level 54.6 %
     Extraction speed 6.2 X
     Track quality 100.0 %
     Test CRC 3E9A806E
     Copy CRC 3E9A806E
     Track not present in AccurateRip database
     Copy OK

Track  3

     Filename M:\Mp3, new\Flac\EAC\Mendelssohn - Symphonien Nos. 1 & 5 'Reformation' (Abbado - LSO) [flac]\03 Symphony no. 1 in C minor (3) Menuetto. Allegro molto.wav

     Peak level 92.1 %
     Extraction speed 6.7 X
     Track quality 100.0 %
     Test CRC 369D99C9
     Copy CRC 369D99C9
     Track not present in AccurateRip database
     Copy OK

Track  4

     Filename M:\Mp3, new\Flac\EAC\Mendelssohn - Symphonien Nos. 1 & 5 'Reformation' (Abbado - LSO) [flac]\04 Symphony no. 1 in C minor (4) Allegro con fuoco.wav

     Peak level 99.9 %
     Extraction speed 6.4 X
     Track quality 99.9 %
     Test CRC EC28C0A7
     Copy CRC EC28C0A7
     Track not present in AccurateRip database
     Copy OK

Track  5

     Filename M:\Mp3, new\Flac\EAC\Mendelssohn - Symphonien Nos. 1 & 5 'Reformation' (Abbado - LSO) [flac]\05 Scherzo in G minor from the Octet, op. 20 [3].wav

     Pre-gap length  0:00:07.00

     Peak level 47.8 %
     Extraction speed 5.8 X
     Track quality 99.9 %
     Test CRC 8EA3197E
     Copy CRC 8EA3197E
     Track not present in AccurateRip database
     Copy OK

Track  6

     Filename M:\Mp3, new\Flac\EAC\Mendelssohn - Symphonien Nos. 1 & 5 'Reformation' (Abbado - LSO) [flac]\06 Symphony no. 5 in D major (1) Andante - Allegro con fuoco.wav

     Pre-gap length  0:00:07.00

     Peak level 99.9 %
     Extraction speed 8.5 X
     Track quality 100.0 %
     Test CRC 61D2ED9B
     Copy CRC 61D2ED9B
     Track not present in AccurateRip database
     Copy OK

Track  7

     Filename M:\Mp3, new\Flac\EAC\Mendelssohn - Symphonien Nos. 1 & 5 'Reformation' (Abbado - LSO) [flac]\07 Symphony no. 5 in D major (2) Allegro vivace.wav

     Peak level 99.5 %
     Extraction speed 8.7 X
     Track quality 100.0 %
     Test CRC 2FC79B28
     Copy CRC 2FC79B28
     Track not present in AccurateRip database
     Copy OK

Track  8

     Filename M:\Mp3, new\Flac\EAC\Mendelssohn - Symphonien Nos. 1 & 5 'Reformation' (Abbado - LSO) [flac]\08 Symphony no. 5 in D major (3) Andante.wav

     Peak level 88.2 %
     Extraction speed 8.5 X
     Track quality 100.0 %
     Test CRC 919DB859
     Copy CRC 919DB859
     Track not present in AccurateRip database
     Copy OK

Track  9

     Filename M:\Mp3, new\Flac\EAC\Mendelssohn - Symphonien Nos. 1 & 5 'Reformation' (Abbado - LSO) [flac]\09 Symphony no. 5 in D major (4) Andante con moto - Allegro maestoso (сhoral 'Ein' feste Burg ist unser Gott').wav

     Peak level 99.9 %
     Extraction speed 8.6 X
     Track quality 99.9 %
     Test CRC 33643C4B
     Copy CRC 33643C4B
     Track not present in AccurateRip database
     Copy OK

None of the tracks are present in the AccurateRip database

No errors occurred

End of status report

==== Log checksum 0B514682B323269557E2CDEC24BDFDF56C68C7C4D80C888073FEAACD3C6AFFB3 ====
Код: выделить все

-----------------------

DON'T MODIFY THIS FILE

-----------------------

PERFORMER: auCDtect Task Manager, ver. 1.5.1RC6 build 1.5.1.7
Copyright (c) 2008-2010 y-soft. All rights reserved
http://y-soft.org

ANALYZER: auCDtect: CD records authenticity detector, version 0.8.2
Copyright (c) 2004 Oleg Berngardt. All rights reserved.
Copyright (c) 2004 Alexander Djourik. All rights reserved.

FILE: 09 S5 'Reformation' (4) Choral..flac
  Size: 46975461 Hash: 51FEC687B4E6B073444FA1EE85770C8F Accuracy: -m0
  Conclusion: CDDA 99%
  Signature: 3AB8D45D5252563BD501C44DC177885CAC9B93CC
FILE: 08 S5 'Reformation' (3) Andante.flac
  Size: 14413522 Hash: B85FCD8CE402C1799C0CCCEEB18D1AC4 Accuracy: -m0
  Conclusion: CDDA 100%
  Signature: FAB30A26F01B54549F51944FCA5F4604D564C58F
FILE: 07 S5 'Reformation' (2) Allegro vivace.flac
  Size: 23298035 Hash: 2614D165F5AC870E82D10ACEDABEB972 Accuracy: -m0
  Conclusion: CDDA 100%
  Signature: 9255597A20B5AB0C038E192FF7B79D2CD4AB43F6
FILE: 06 S5 'Reformation' (1) Andante - Allegro..flac
  Size: 56011302 Hash: 19194F4AC5D48069D87D8CE2B7829A2C Accuracy: -m0
  Conclusion: CDDA 100%
  Signature: A651FE483B8258A9160951EE91A0C0F665AABF48
FILE: 05 Scherzo, op. 20 [3].flac
  Size: 14027301 Hash: 907BB9BD01FCF973F1670FE0E3B96726 Accuracy: -m0
  Conclusion: CDDA 100%
  Signature: 686BE0950959F2387C803FB5438770C23557A04C
FILE: 04 S1 (4) Allegro con fuoco.flac
  Size: 41568055 Hash: B4A55FB6C3A4276A0F91A2BA80BB824D Accuracy: -m0
  Conclusion: CDDA 100%
  Signature: 6D1CA0DDA076E4EE3060038BD39DCE1E8C09EDE2
FILE: 03 S1 (3) Menuetto. Allegro molto.flac
  Size: 29649843 Hash: 66C14EC3C31812DE1F3217A43A43FC5B Accuracy: -m0
  Conclusion: CDDA 100%
  Signature: AE81F10B1AD0F9B10460C7FA08C125DE63818144
FILE: 02 S1 (2) Andante.flac
  Size: 24363155 Hash: D79557CA46E99FF03C56348E6F44AAA0 Accuracy: -m0
  Conclusion: CDDA 100%
  Signature: 5416F266D14E1645EAE32A3F3DB49A031C4FEC3B
FILE: 01 S1 (1) Allegro molto.flac
  Size: 53057921 Hash: BE53E9FA58D103DF021E000980758E7A Accuracy: -m0
  Conclusion: CDDA 100%
  Signature: 58DDDEDD1A9038DE3EDBF62A409A03119AE71A05
Симфонии Мендельсона первая и пятая «Реформационная», оркестровая версия композитора скерцо из его струнного октета (может использоваться в качестве альтернативной 3-й части для первой симфонии).
Год записи: 1984

Исполнители:
Клаудио Аббадо (итал. Claudio Abbado; 26 июня 1933, Милан — 20 января 2014, Болонья) — итальянский оперный и симфонический дирижёр и музыкальный деятель.

Биография:
Клаудио Аббадо родился в Милане, в семье известного скрипача Микеланджело Аббадо. Окончив Миланскую консерваторию им. Верди, Аббадо в дальнейшем совершенствовался у Ханса Сваровски в Венской Академии музыки и исполнительского искусства.

В 1958 году он получил 1-ю премию на конкурсе дирижёров им. С. А. Кусевицкого в США, а в 1963 году — 1-ю премию и на конкурсе им. Д. Митропулоса.

В качестве оперного дирижёра Аббадо дебютировал в 1965 году на Зальцбургском фестивале с «Севильским цирюльником» Дж. Россини. В 1971—1986 годах он был главным дирижёром и художественным руководителем театра «Ла Скала», в 1986—1991 годах — Венской государственной оперы. Одновременно выступал и как симфонический дирижёр: в 1979—1987 годах Аббадо возглавлял Лондонский симфонический оркестр, в 1989 году, после смерти Герберта фон Караяна, возглавил Берлинский филармонический, который покинул в 2002 году.

В 1978 году Аббадо основал Молодёжный оркестр Европейского союза. Страстный поклонник Густава Малера, он 1985 году в Лондоне организовал и возглавил фестиваль «Малер, Вена и XX век»; в 1986 году создал Молодёжный оркестр им. Густава Малера, став его художественным руководителем и главным дирижёром. Являлся также художественным советником Камерного оркестра Европы.

В 1988 году положил начало ежегодному культурному событию в Вене — «Вин модерн», проходившему как фестиваль современной музыки, но постепенно охватившему все сферы современного искусства. В 1991 году учредил Международный конкурс композиторов в Вене; в 1992 году вместе с Натальей Гутман основал фестиваль камерной музыки «Берлинские встречи». С 1994 года Аббадо являлся художественным руководителем Зальцбургского пасхального фестиваля.

Аббадо гастролировал во многих странах, в том числе в 1974 году — в Москве, с театром «Ла Скала». 1 мая 1996 года дал концерт в Мариинском театре в Петербурге с Берлинским филармоническим оркестром. В программе были Прокофьев, Рахманинов, Бетховен и Чайковский.
Описание:
Манере Клаудио Аббадо были присущи спокойный, властный жест и сдержанность.
Признание:
Аббадо награждён многими наградами, среди которых Большой крест ордена «За заслуги перед Итальянской Республикой», Большой крест ордена Почётного легиона, Большой Крест «За заслуги» Германии, Почётное Кольцо города Вены, Большой Золотой Почётный знак Австрийской Республики. Лауреат премии Эрнста фон Сименса (1994), премии Вольфа (2008).

По результатам опроса, проведённого в ноябре 2010 года британским журналом о классической музыке BBC Music Magazine среди ста дирижёров из разных стран, среди которых такие музыканты, как Колин Дэвис (Великобритания), Мравинский (Россия), Густаво Дудамель (Венесуэла), Марис Янсонс (Латвия), Клаудио Аббадо занял третье место в списке из двадцати наиболее выдающихся дирижёров всех времён.

YouTube
Время раздачи: 10:00 - 23:00

Реставрация релиза:
svpavkin63



Поглощение/вытеснение
Только с согласия релизера

DesideriuM
[NNM-Club.me]_Mendelssohn - Symphonien Nos. 1 & 5 'Reformation' (Abbado - LSO) [flac].torrent
 Торрент: Платиновая раздача  Зарегистрирован
 
Скачать


Примагнититься
 Зарегистрирован:   04 Янв 2014 16:42:15
 Размер:   291 MB  (
 Рейтинг:   4.8 (Голосов: 22)
 Поблагодарили:   69
 Проверка:   Оформление проверено модератором 04 Янв 2014 16:44:22
Как cкачать  ·  Как раздать  ·  Правильно оформить  ·  Поднять ратио!  
Yon2 ®
Стаж: 12 лет 4 мес.
Сообщений: 144
Раздал: 876 GB
Поблагодарили: 2310
100%
Цитата:
Felix Mendelssohn-Symphonies nos. 1 & 5 "Reformation" conductor Claudio Abbado (1984)/[FLAC|Lossless]<Classical>
Кто так переделал заголовок? Я молчу про имя композитора, которое я не писал, так как считаю лишним, но зачем было переделывать тире в дефис? (То есть убирать пробелы вокруг. Напоминаю про такого композитора как Римский-Корсаков, вот в фамили конечно пишется без пробела. Это ведь принципиально разные функции: тире разделяет, а дефис служит для объединения слов.)

За более подробное оформление и "идеальный рип" спасибо :D
svpavkin63
Стаж: 13 лет 9 мес.
Сообщений: 1057
Ratio: 106.596
Поблагодарили: 12670
100%
russia.gif
Yon2 писал(а): Перейти к сообщению
Цитата:
Felix Mendelssohn-Symphonies nos. 1 & 5 "Reformation" conductor Claudio Abbado (1984)/[FLAC|Lossless]<Classical>
Кто так переделал заголовок? Я молчу про имя композитора, которое я не писал, так как считаю лишним, но зачем было переделывать тире в дефис? (То есть убирать пробелы вокруг. Напоминаю про такого композитора как Римский-Корсаков, вот в фамили конечно пишется без пробела. Это ведь принципиально разные функции: тире разделяет, а дефис служит для объединения слов.)

За более подробное оформление и "идеальный рип" спасибо :D


Ну... если Вы так горяче этого хотите - пожалуйста.
Однако, публично постить ни к чему.
Подпись реставратора присутствует. Пишите ему в личку и урегулируйте спорный вопрос. =)
Yon2 ®
Стаж: 12 лет 4 мес.
Сообщений: 144
Раздал: 876 GB
Поблагодарили: 2310
100%
Да меня не сильно парило, просто спросил и высказал мнение. Спасибо.
Показать сообщения:   
Начать новую тему   Ответить на тему    Торрент-трекер NNM-Club -> Классика -> Оркестровая (Lossless) Часовой пояс: GMT + 3
Страница 1 из 1