Классический форум-трекер
canvas not supported
Нас вместе: 4 172 620

Реймонд Хеттинджер | Super — это супер! (2015) HDTV


 
 
RSS
Начать новую тему   Ответить на тему    Торрент-трекер NNM-Club -> Обучающие видеоматериалы -> IT, Компьютерные видеокурсы
Автор Сообщение
idlesign ®
Стаж: 7 лет 6 мес.
Сообщений: 20
Ratio: 17.771
Поблагодарили: 1063
65.38%
russia.gif
Raymond Hettinger | Super — это супер! (2015) HDTV
Автор: Реймонд Хеттинджер
Жанр: Программирование
Продолжительность: 00:44:30
Качество видео: HDTV
Видеокодек: XviD
Битрейт видео: ~1233 kbps
Размер кадра: 1280x720
Аудиокодек: MP3
Битрейт аудио: 128 Kbps (CBR), 2 Ch, 44100 Hz

Описание:
Доклад с PyCon US 2015 — ежегодной конференции python-разработчиков.

Функция super() в Питоне является мощным и отлично спроектированным инструментом, действие которого, однако же, может обескуражить, если не знать истинного его назначения.

Речь в докладе идёт о возможностях и особенностях работы функции, а также о том, чем она может быть полезна в деле тестирования приложений.
General
Complete name : /home/idle/PyCon2015-Super_considered_super-Hettinger.avi
Format : AVI
Format/Info : Audio Video Interleave
File size : 437 MiB
Duration : 44mn 30s
Overall bit rate : 1 373 Kbps
Writing library : VirtualDub build 32842/release

Video
ID : 0
Format : MPEG-4 Visual
Format profile : Advanced Simple@L5
Format settings, BVOP : 2
Format settings, QPel : No
Format settings, GMC : No warppoints
Format settings, Matrix : Default (H.263)
Codec ID : XVID
Codec ID/Hint : XviD
Duration : 44mn 30s
Bit rate : 1 233 Kbps
Width : 1 280 pixels
Height : 720 pixels
Display aspect ratio : 16:9
Frame rate : 30.000 fps
Color space : YUV
Chroma subsampling : 4:2:0
Bit depth : 8 bits
Scan type : Progressive
Compression mode : Lossy
Bits/(Pixel*Frame) : 0.045
Stream size : 392 MiB (90%)
Writing library : XviD 65

Audio
ID : 1
Format : MPEG Audio
Format version : Version 1
Format profile : Layer 3
Codec ID : 55
Codec ID/Hint : MP3
Duration : 44mn 30s
Bit rate mode : Constant
Bit rate : 128 Kbps
Channel(s) : 2 channels
Sampling rate : 44.1 KHz
Compression mode : Lossy
Stream size : 40.7 MiB (9%)
Alignment : Split accross interleaves
Interleave, duration : 33 ms (1.00 video frame)
Interleave, preload duration : 500 ms
Скриншоты:


Время раздачи: 24/7
[NNM-Club.me]_PyCon2015-Super_considered_super-Hettinger.avi.torrent
 Торрент: Платиновая раздача  Зарегистрирован
 
Скачать


Примагнититься
 Зарегистрирован:   17 Апр 2015 17:50:51
 Размер:   437 MB  (
 Рейтинг:   4.9 (Голосов: 17)
 Поблагодарили:   68
 Проверка:   Оформление проверено модератором 18 Апр 2015 20:47:04
Как cкачать  ·  Как раздать  ·  Правильно оформить  ·  Поднять ратио!  
RastaMb
Стаж: 10 лет 8 мес.
Сообщений: 709
Ratio: 3.097
Раздал: 4.75 TB
100%
ussr.gif
English?
idlesign ®
Стаж: 7 лет 6 мес.
Сообщений: 20
Ratio: 17.771
Поблагодарили: 1063
65.38%
russia.gif
RastaMb писал(а): Перейти к сообщению
English?


Russian!
Показать сообщения:   
Начать новую тему   Ответить на тему    Торрент-трекер NNM-Club -> Обучающие видеоматериалы -> IT, Компьютерные видеокурсы Часовой пояс: GMT + 3
Страница 1 из 1