Классический форум-трекер
canvas not supported
Нас вместе: 4 172 629

Воскресение - Легенды русского рока (1996) [ALAC|Tracks]<Rock>


 
 
RSS
Начать новую тему   Ответить на тему    Торрент-трекер NNM-Club -> Аудио и Видео -> Музыка Lossless (ALAC)
Автор Сообщение
sseless ®
Меломан, Реставратор
Стаж: 9 лет 1 мес.
Сообщений: 3542
Ratio: 1386.827
Раздал: 45.33 TB
Поблагодарили: 160558
100%
north_korea.gif
Воскресение - Легенды русского рока (1996)
Год: 1996
Страна-производитель диска: Россия
Лейбл: MOROZ Records
Каталожный №: dMR 03198 CD
Жанр: Rock
Продолжительность: 01:03:18

Кодек: ALAC
Битрейт: Lossless
Тип раздачи: Tracks
Тексты: Добавлены
Обложки: Вшиты
Кодирование: iTunes

Треклист:
01. Все сначала
02. Кто виноват
03. По дороге разочарований
04. В жизни, как в темной чаще
05. Я ни разу за морем небыл
06. Друзьям
07. Сон
08. Лето
09. Сколько было звезд
10. Так бывает
11. Вера, Надежда, Любовь
12. Солдат вселенной
13. Хороший парень
14. Случилось что-то
15. Есть у меня
16. Поезд
Код:

Общее
Полное имя                               : C:\1996 - Легенды Русского Рока\01 Все Сначала.m4a
Формат                                   : MPEG-4
Профиль формата                          : Apple audio with iTunes info
Идентификатор кодека                     : M4A
Размер файла                             : 30,8 Мбайт
Продолжительность                        : 3 м. 37 с.
Режим общего битрейта                    : Переменный
Общий поток                              : 1186 Кбит/сек
Альбом                                   : Легенды Русского Рока
Альбом/Исполнитель                       : Воскресение
Часть/Положение                          : 1
Часть/Всего                              : 1
Трек                                     : Все Сначала
Трек/Положение                           : 1
Трек/Всего                               : 16
Исполнитель                              : Воскресение
Композитор                               : Алексей Романов
Жанр                                     : Rock
Дата записи                              : 1995
Дата кодирования                         : UTC 2012-03-27 19:40:52
Дата пометки                             : UTC 2014-02-06 10:32:36
Программа кодирования                    : iTunes 10.6.0.40
Обложка                                  : Yes
Encoding Params                          : (Binary)
UFIDhttp://www.cddb.com/id3/taginfo1.htm : 3CD3M110Q133802811V5876B430BA3879D8170FF6015361180741P0
©lyr                                     : (А.Романов) /  / Я во что-то верил и чего-то ждал / В толчее бессмысленных дней, / Только я устал, только я не стал / Ни богаче, ни умней. /  / Я менял любовь на любовь, / Я искал добра от добра, / Только вижу теперь, - / Всё напрасно. /  / А когда-то был целым миром двор, / Был полон тайн чердак. / Семь тысяч дней прошло с тех пор, / Я не заметил как. / Видно что-то пора менять, / Только что, - не могу понять. / Обещали мне - всё впереди, - / Как знать... /  / И казалось мне, без моих идей / Мир не сможет прожить и дня, / Оказалось в мире полно людей, / И все умней меня. / Отчего же за столько лет / Так лениво меняется свет, / И бредут мудрецы / След в след. /  / И я хотел познать добро и зло, / Чтоб отличить добро от зла, / Мне повезло, - я смог понять, / Как труден шаг от слов к делам. / И как глупо рубить с плеча, / И как просто быть правым в речах, / И как просто бывает начать / Всё сначала
soal                                     : Воскресение 1996
soar                                     : Воскресение
soaa                                     : Воскресение

Аудио
Идентификатор                            : 1
Формат                                   : ALAC
Идентификатор кодека                     : alac
Идентификатор кодека/Информация          : Apple Lossless Audio Codec
Продолжительность                        : 3 м. 37 с.
Duration_LastFrame                       : -70 мс.
Вид битрейта                             : Переменный
Битрейт                                  : 898 Кбит/сек
Каналы                                   : 2 канала
Частота                                  : 44,1 КГц
Битовая глубина                          : 16 бит
Размер потока                            : 23,3 Мбайт (76%)
Дата кодирования                         : UTC 2012-03-27 19:40:52
Дата пометки                             : UTC 2014-02-06 10:32:36

Общее
Полное имя                               : C:\1996 - Легенды Русского Рока\02 Кто Виноват.m4a
Формат                                   : MPEG-4
Профиль формата                          : Apple audio with iTunes info
Идентификатор кодека                     : M4A
Размер файла                             : 21,8 Мбайт
Продолжительность                        : 4 м. 20 с.
Режим общего битрейта                    : Переменный
Общий поток                              : 703 Кбит/сек
Альбом                                   : Легенды Русского Рока
Альбом/Исполнитель                       : Воскресение
Часть/Положение                          : 1
Часть/Всего                              : 1
Трек                                     : Кто Виноват
Трек/Положение                           : 2
Трек/Всего                               : 16
Исполнитель                              : Воскресение
Композитор                               : Алексей Романов
Жанр                                     : Rock
Дата записи                              : 1981
Дата кодирования                         : UTC 2012-03-27 19:41:42
Дата пометки                             : UTC 2014-02-06 10:32:37
Программа кодирования                    : iTunes 10.6.0.40
Обложка                                  : Yes
Encoding Params                          : (Binary)
UFIDhttp://www.cddb.com/id3/taginfo1.htm : 3CD3O2Q133802812V08079EC97C0B8CEB1ADB0FF7A1634267EFP4
©lyr                                     : А.Романов) /  / Кто виноват, что ты устал, / Что не нашел, чего так ждал, / Всё потерял, что так искал, / Поднялся в небо и упал. /  / И чья вина, что день за днём / Уходит жизнь чужим путём / И одиноким стал твой дом, / И пусто за твоим окном. /  / И меркнет свет и молкнут звуки, / Новой руки ищут руки, / И, если боль твоя стихает, / Значит будет новая беда. /  / Кто виноват, скажи-ка брат, / Один женат, другой богат, / Один смешон, другой влюблён, / Один дурак, другой твой враг? /  / И чья вина, что там и тут / Друг друга ждут и тем живут, / Но долог день, и ночь пуста, / Забиты теплые места. /  / Кто виноват, и чём секрет, / Что горя нет и счастья нет, / Без поражений нет побед / И равен счет удач и бед? /  / И чья вина, что ты один / И жизнь одна и так длинна, / И так скучна, а ты всё ждёшь, / Что ты когда-нибудь умрёшь. /  / И меркнет свет и молкнут звуки, / Новой руки ищут руки, / И, если боль твоя стихает, / Значит будет новая беда.
soal                                     : Воскресение 1996
soar                                     : Воскресение
soaa                                     : Воскресение

Аудио
Идентификатор                            : 1
Формат                                   : ALAC
Идентификатор кодека                     : alac
Идентификатор кодека/Информация          : Apple Lossless Audio Codec
Продолжительность                        : 4 м. 20 с.
Duration_LastFrame                       : -63 мс.
Вид битрейта                             : Переменный
Битрейт                                  : 696 Кбит/сек
Каналы                                   : 2 канала
Частота                                  : 44,1 КГц
Битовая глубина                          : 16 бит
Размер потока                            : 21,6 Мбайт (99%)
Дата кодирования                         : UTC 2012-03-27 19:41:42
Дата пометки                             : UTC 2014-02-06 10:32:37

Общее
Полное имя                               : C:\1996 - Легенды Русского Рока\03 По Дороге Разочарований.m4a
Формат                                   : MPEG-4
Профиль формата                          : Apple audio with iTunes info
Идентификатор кодека                     : M4A
Размер файла                             : 31,1 Мбайт
Продолжительность                        : 5 м. 25 с.
Режим общего битрейта                    : Переменный
Общий поток                              : 801 Кбит/сек
Альбом                                   : Легенды Русского Рока
Альбом/Исполнитель                       : Воскресение
Часть/Положение                          : 1
Часть/Всего                              : 1
Трек                                     : По Дороге Разочарований
Трек/Положение                           : 3
Трек/Всего                               : 16
Исполнитель                              : Воскресение
Композитор                               : Алексей Романов
Жанр                                     : Rock
Дата записи                              : 1981
Дата кодирования                         : UTC 2012-03-27 19:42:33
Дата пометки                             : UTC 2014-02-06 10:32:37
Программа кодирования                    : iTunes 10.6.0.40
Обложка                                  : Yes
Encoding Params                          : (Binary)
UFIDhttp://www.cddb.com/id3/taginfo1.htm : 3CD3O5Q133802813V482608A3033F42EE968782A8AE6F3FE3B5P0
©lyr                                     : (А.Романов) /  / По дороге разочарований, / Снова очарованный пройду. / Разум полон светлых ожиданий, / Сердце чует новую беду. /  / До чего же вновь меня тревожит / Голос, что зовет из темноты: / “Путь ещё не пройден, век не прожит / Тою ли дорогой бродишь ты?” /  / То ли темнота глаза таращит, / То ли тишина скрывает крик: / “Где теперь искать тебя, пропащий, / Оглянешься, ты уже старик...” /  / По дороге смутных побуждений, / Там, где ветер яростен и свеж, / Долог путь моих перерождений / В дальний край несбывшихся надежд. / Сбросив гору с плеч, расправил плечи. / Гордо приказал себе: “Лети!” / Если я попался вам на встречу, / Значит вам со мной не по пути. /  / Слышу голоса, что вечно правы, / И пугаюсь этой правоты: / “Для того роса, чтоб лечь на траву, / Поутру с росой растаешь ты...” /  / Поутру, дорогой откровений, / Мимо родника девичьих слез, / Выйду возле кладбища сомнений, / На крутой отчаянья утёс. / В лад весне и с осенью в ладу, / В зыбкий час назначенных свиданий, / Снова очарованный пойду / По дороге разочарований.
soal                                     : Воскресение 1996
soar                                     : Воскресение
soaa                                     : Воскресение

Аудио
Идентификатор                            : 1
Формат                                   : ALAC
Идентификатор кодека                     : alac
Идентификатор кодека/Информация          : Apple Lossless Audio Codec
Продолжительность                        : 5 м. 25 с.
Duration_LastFrame                       : -51 мс.
Вид битрейта                             : Переменный
Битрейт                                  : 689 Кбит/сек
Каналы                                   : 2 канала
Частота                                  : 44,1 КГц
Битовая глубина                          : 16 бит
Размер потока                            : 26,7 Мбайт (86%)
Дата кодирования                         : UTC 2012-03-27 19:42:33
Дата пометки                             : UTC 2014-02-06 10:32:37

Общее
Полное имя                               : C:\1996 - Легенды Русского Рока\04 В Жизни, Как В Темной Чаще.m4a
Формат                                   : MPEG-4
Профиль формата                          : Apple audio with iTunes info
Идентификатор кодека                     : M4A
Размер файла                             : 42,5 Мбайт
Продолжительность                        : 5 м. 54 с.
Режим общего битрейта                    : Переменный
Общий поток                              : 1007 Кбит/сек
Альбом                                   : Легенды Русского Рока
Альбом/Исполнитель                       : Воскресение
Часть/Положение                          : 1
Часть/Всего                              : 1
Трек                                     : В Жизни, Как В Темной Чаще
Трек/Положение                           : 4
Трек/Всего                               : 16
Исполнитель                              : Воскресение
Композитор                               : Алексей Романов
Жанр                                     : Rock
Дата записи                              : 1979
Дата кодирования                         : UTC 2012-03-27 19:43:30
Дата пометки                             : UTC 2014-02-06 10:32:37
Программа кодирования                    : iTunes 10.6.0.40
Обложка                                  : Yes
Encoding Params                          : (Binary)
UFIDhttp://www.cddb.com/id3/taginfo1.htm : 3CD3O9Q133802814V48991FB9E48A36A170CDEF72E682442755P3
©lyr                                     : (А.Романов) /  / В жизни, как в темной чаще, / Каждый чуть-чуть пропащий, / Как заблудившиеся дети. / Ищут друг друга слепо, / Словно в бреду нелепом, / Зовут того, кто не ответит. /  / День у ночи во власти, / Утро сулит ненастье, / Грядущий день встаёт из мрака; / Может быть кто-то свыше, / Горе твоё услышит, / Когда б ты только смел заплакать. /  / В поисках вольной воли, / Люди, как лодки в море, / Бесцельно носятся по свету; / В этих волнах безлюдных / Встретится дважды трудно / Тем, кто поверит слепо ветру. /  / Где-то в забытых странах / Цветут на лесных полянах / Цветы твоих минувших вёсен. / Плыл бы ты в лодке легкой, / К тем берегам далеким, / Когда б имел ты пару вёсел. /  / В мире соблазнов много, / Люди не верят в бога, / Но кто из них не верит в чёрта? / Он обо всех нас помнит, / Он каждой беды виновник, / И это каждый помнит твёрдо. /  / Но разве не рад бы каждый / Душу продать однажды, / За всё, что так для счастья нужно? / Ты бы дерзать не смея, / Сделал себя умнее, / Когда б ты продал чёрту душу.
soal                                     : Воскресение 1996
soar                                     : Воскресение
soaa                                     : Воскресение

Аудио
Идентификатор                            : 1
Формат                                   : ALAC
Идентификатор кодека                     : alac
Идентификатор кодека/Информация          : Apple Lossless Audio Codec
Продолжительность                        : 5 м. 54 с.
Duration_LastFrame                       : -44 мс.
Вид битрейта                             : Переменный
Битрейт                                  : 904 Кбит/сек
Каналы                                   : 2 канала
Частота                                  : 44,1 КГц
Битовая глубина                          : 16 бит
Размер потока                            : 38,2 Мбайт (90%)
Дата кодирования                         : UTC 2012-03-27 19:43:30
Дата пометки                             : UTC 2014-02-06 10:32:37

Общее
Полное имя                               : C:\1996 - Легенды Русского Рока\05 Я Ни Разу За Морем Не Был.m4a
Формат                                   : MPEG-4
Профиль формата                          : Apple audio with iTunes info
Идентификатор кодека                     : M4A
Размер файла                             : 17,5 Мбайт
Продолжительность                        : 3 м. 23 с.
Режим общего битрейта                    : Переменный
Общий поток                              : 722 Кбит/сек
Альбом                                   : Легенды Русского Рока
Альбом/Исполнитель                       : Воскресение
Часть/Положение                          : 1
Часть/Всего                              : 1
Трек                                     : Я Ни Разу За Морем Не Был
Трек/Положение                           : 5
Трек/Всего                               : 16
Исполнитель                              : Воскресение
Композитор                               : Алексей Романов
Жанр                                     : Rock
Дата записи                              : 1981
Дата кодирования                         : UTC 2012-03-27 19:44:28
Дата пометки                             : UTC 2014-02-06 10:32:37
Программа кодирования                    : iTunes 10.6.0.40
Обложка                                  : Yes
Encoding Params                          : (Binary)
UFIDhttp://www.cddb.com/id3/taginfo1.htm : 3CD3N12Q133802815V48591B876524529B7BCFFE53480AD8E4A1P0
©lyr                                     : (А.Романов) /  / Я ни разу за морем не был, / Сердце тешит привычная мысль,- / Там такое же синее небо, / И такая же сложная жизнь. / Может там веселей и богаче, / Ярче краски и лето теплей. / Только так же от боли там плачут, / Так же в муках рожают детей. /  / Может я не совсем понимаю / Явной выгоды тайных измен. / Отчего то я чаще теряю, / Ничего не имея взамен. / За какими же новыми благами, / Вольным - воля, спасённому - рай, / Всё бегут, притворяясь бродягами, / Пилигримы в неведомый край. /  / Что задумано, сделано, пройдено, / Бросишь всё, ни о чем не скорбя. / Только где-то кончается Родина, / Если Родина есть у тебя. / Оглянись на прощанье, и, - вот она / Под ногами чужая земля. / То ли птицы летят перелётные, / То ли крысы бегут с корабля.
soal                                     : Воскресение 1996
soar                                     : Воскресение
soaa                                     : Воскресение

Аудио
Идентификатор                            : 1
Формат                                   : ALAC
Идентификатор кодека                     : alac
Идентификатор кодека/Информация          : Apple Lossless Audio Codec
Продолжительность                        : 3 м. 23 с.
Duration_LastFrame                       : -33 мс.
Вид битрейта                             : Переменный
Битрейт                                  : 714 Кбит/сек
Каналы                                   : 2 канала
Частота                                  : 44,1 КГц
Битовая глубина                          : 16 бит
Размер потока                            : 17,3 Мбайт (99%)
Дата кодирования                         : UTC 2012-03-27 19:44:28
Дата пометки                             : UTC 2014-02-06 10:32:37

Общее
Полное имя                               : C:\1996 - Легенды Русского Рока\06 Друзьям.m4a
Формат                                   : MPEG-4
Профиль формата                          : Apple audio with iTunes info
Идентификатор кодека                     : M4A
Размер файла                             : 20,7 Мбайт
Продолжительность                        : 3 м. 27 с.
Режим общего битрейта                    : Переменный
Общий поток                              : 837 Кбит/сек
Альбом                                   : Легенды Русского Рока
Альбом/Исполнитель                       : Воскресение
Часть/Положение                          : 1
Часть/Всего                              : 1
Трек                                     : Друзьям
Трек/Положение                           : 6
Трек/Всего                               : 16
Исполнитель                              : Воскресение
Композитор                               : Алексей Романов
Жанр                                     : Rock
Дата записи                              : 1982
Дата кодирования                         : UTC 2012-03-27 19:44:59
Дата пометки                             : UTC 2014-02-06 10:32:37
Программа кодирования                    : iTunes 10.6.0.40
Обложка                                  : Yes
Encoding Params                          : (Binary)
UFIDhttp://www.cddb.com/id3/taginfo1.htm : 3CD3N15Q133802816V18631808A86E27B7C6FFB69B8552A45B0AP0
©lyr                                     : (А.Романов) /  / Мне грустно видеть, как уходят годы, / Мне больно видеть, что моих друзей / Так рано старят мелкие невзгоды / Беда стареть, не делаясь мудрей. /  / Какими были мы с тобой когда-то, / Завидовали тем, кто старше нас / Как много мы с тобой с тех пор забыли, / Раскаянье придет, всему свой час. /  / Прости, мой друг, я так же слаб, как ты / Я с детства был помолвлен с неудачей. / Остались наши светлые мечты / На чердаке забытой летней дачи. /  / Я сам переживу свои печали, / С друзьями стану радости делить. / Как мало мы друзьям своим сказали / Так много успевая говорить... /  /
soal                                     : Воскресение 1996
soar                                     : Воскресение
soaa                                     : Воскресение

Аудио
Идентификатор                            : 1
Формат                                   : ALAC
Идентификатор кодека                     : alac
Идентификатор кодека/Информация          : Apple Lossless Audio Codec
Продолжительность                        : 3 м. 27 с.
Duration_LastFrame                       : -80 мс.
Вид битрейта                             : Переменный
Битрейт                                  : 829 Кбит/сек
Каналы                                   : 2 канала
Частота                                  : 44,1 КГц
Битовая глубина                          : 16 бит
Размер потока                            : 20,5 Мбайт (99%)
Дата кодирования                         : UTC 2012-03-27 19:44:59
Дата пометки                             : UTC 2014-02-06 10:32:37

Общее
Полное имя                               : C:\1996 - Легенды Русского Рока\07 Сон.m4a
Формат                                   : MPEG-4
Профиль формата                          : Apple audio with iTunes info
Идентификатор кодека                     : M4A
Размер файла                             : 31,8 Мбайт
Продолжительность                        : 4 м. 38 с.
Режим общего битрейта                    : Переменный
Общий поток                              : 958 Кбит/сек
Альбом                                   : Легенды Русского Рока
Альбом/Исполнитель                       : Воскресение
Часть/Положение                          : 1
Часть/Всего                              : 1
Трек                                     : Сон
Трек/Положение                           : 7
Трек/Всего                               : 16
Исполнитель                              : Воскресение
Композитор                               : Алексей Романов
Жанр                                     : Rock
Дата записи                              : 1982
Дата кодирования                         : UTC 2012-03-27 19:45:29
Дата пометки                             : UTC 2014-02-06 10:32:37
Программа кодирования                    : iTunes 10.6.0.40
Обложка                                  : Yes
Encoding Params                          : (Binary)
UFIDhttp://www.cddb.com/id3/taginfo1.htm : 3CD3N18Q133802817U128FA6A56D6B0991FA41BCCDEC1814DDE89P6
©lyr                                     : А.Романов) /  / Снилось мне, / Неожиданно выпал снег, / В мире наступили тишина и свет, / Свет и тишина, покой и белый снег. / Жаль, что это только снилось мне. /  / Снилось мне, / По притихшему городу, / Проплывает медленное облако, / Облако покоя в светлом городе. / Жаль, что это только снилось мне. /  / И теперь, наяву, я живу и не живу, / Сохранить пытаясь тишину. / Но приходит за мной / Сумасшедший день земной / И меня уводит за собой. /  / Снилось мне, / Что впервые за много лет, / Счастье, почему-то, улыбнулось мне, / Призрачное счастье в суматохе лет / Жаль, что это только снилось мне. /  / Снилось мне, / Что печали кончаются, / Люди одинокие встречаются. / Встретятся, молчат и улыбаются / Жаль, что это только снилось мне, / Жаль...
soal                                     : Воскресение 1996
soar                                     : Воскресение
soaa                                     : Воскресение

Аудио
Идентификатор                            : 1
Формат                                   : ALAC
Идентификатор кодека                     : alac
Идентификатор кодека/Информация          : Apple Lossless Audio Codec
Продолжительность                        : 4 м. 38 с.
Duration_LastFrame                       : -1 мс.
Вид битрейта                             : Переменный
Битрейт                                  : 827 Кбит/сек
Каналы                                   : 2 канала
Частота                                  : 44,1 КГц
Битовая глубина                          : 16 бит
Размер потока                            : 27,4 Мбайт (86%)
Дата кодирования                         : UTC 2012-03-27 19:45:29
Дата пометки                             : UTC 2014-02-06 10:32:37

Общее
Полное имя                               : C:\1996 - Легенды Русского Рока\08 Лето.m4a
Формат                                   : MPEG-4
Профиль формата                          : Apple audio with iTunes info
Идентификатор кодека                     : M4A
Размер файла                             : 20,9 Мбайт
Продолжительность                        : 3 м. 11 с.
Режим общего битрейта                    : Переменный
Общий поток                              : 916 Кбит/сек
Альбом                                   : Легенды Русского Рока
Альбом/Исполнитель                       : Воскресение
Часть/Положение                          : 1
Часть/Всего                              : 1
Трек                                     : Лето
Трек/Положение                           : 8
Трек/Всего                               : 16
Исполнитель                              : Воскресение
Композитор                               : Алексей Романов
Жанр                                     : Rock
Дата записи                              : 1979
Дата кодирования                         : UTC 2012-03-27 19:46:08
Дата пометки                             : UTC 2014-02-06 10:32:37
Программа кодирования                    : iTunes 10.6.0.40
Обложка                                  : Yes
Encoding Params                          : (Binary)
UFIDhttp://www.cddb.com/id3/taginfo1.htm : 3CD3N22Q133802818V3800F9073578E1314110192D002F0DDDF5P6
©lyr                                     : (А.Романов) /  / Всю ночь перелистывал ветер ушедшее лето, / Убавится за ночь на свете зелёного цвета. / Но ты не заметишь зимы приближенье / Ты смотришь в окно, / А глядишь на своё отражение. /  / Ты всё позабудешь и бросишь / И спрячешься где-то. / И заново будешь выдумывать, / Что недопето. / Несут твою лодку потоки сомнений, / Ты очень спешишь, / Убегая от собственной тени. /  / Найди приют себе по нраву / На светлых берегах. / И те, кто лгут, и те, кто правы, / Тоже бродят впотьмах. / А если ты кому-то нужен, / Забудь про лень и покой - / Найди себе своё оружие - / Стань самим собой. /  / Всё уже было на свете, / Но этого мало. / Всё проходило и всё начиналось сначала. / Но то, что ушло не сумеет вернуться / И если уходишь на веки, / Спеши оглянуться.
soal                                     : Воскресение 1996
soar                                     : Воскресение
soaa                                     : Воскресение

Аудио
Идентификатор                            : 1
Формат                                   : ALAC
Идентификатор кодека                     : alac
Идентификатор кодека/Информация          : Apple Lossless Audio Codec
Продолжительность                        : 3 м. 11 с.
Duration_LastFrame                       : -92 мс.
Вид битрейта                             : Переменный
Битрейт                                  : 907 Кбит/сек
Каналы                                   : 2 канала
Частота                                  : 44,1 КГц
Битовая глубина                          : 16 бит
Размер потока                            : 20,7 Мбайт (99%)
Дата кодирования                         : UTC 2012-03-27 19:46:08
Дата пометки                             : UTC 2014-02-06 10:32:37

Общее
Полное имя                               : C:\1996 - Легенды Русского Рока\09 Сколько Было Звезд.m4a
Формат                                   : MPEG-4
Профиль формата                          : Apple audio with iTunes info
Идентификатор кодека                     : M4A
Размер файла                             : 20,4 Мбайт
Продолжительность                        : 3 м. 29 с.
Режим общего битрейта                    : Переменный
Общий поток                              : 814 Кбит/сек
Альбом                                   : Легенды Русского Рока
Альбом/Исполнитель                       : Воскресение
Часть/Положение                          : 1
Часть/Всего                              : 1
Трек                                     : Сколько Было Звезд
Трек/Положение                           : 9
Трек/Всего                               : 16
Исполнитель                              : Воскресение
Композитор                               : Евгений Маргулис - Алексей Романов
Жанр                                     : Rock
Дата записи                              : 1979
Дата кодирования                         : UTC 2012-03-27 19:46:33
Дата пометки                             : UTC 2014-02-06 10:32:37
Программа кодирования                    : iTunes 10.6.0.40
Обложка                                  : Yes
Encoding Params                          : (Binary)
UFIDhttp://www.cddb.com/id3/taginfo1.htm : 3CD3N25Q133802819V8817751C49CDF0A6311EA49FA11B096CD0P6
©lyr                                     : (Е.Маргулис - А.Романов) /  / Сколько было звёзд, упавших с небосклона, / Сколько было слёз, и сколько было стонов. / Пламенный полёт звезды, сверкающей в дали / И остывающей в пыли. /  / Не спеши мой друг считать себя счастливцем, / Оглянись, а вдруг, кругом чужие лица, / Но не торопи тоску, теперь тебя никто не спросит: / Кого любил, и скольких бросил. /  / В свой самый лучший день,       / В свой самый лучший час        / Пускай любой из нас,          / Друзей ушедших тени          / Из темноты зовут / И пусть в разгар веселья / Не сводят с них счастливых глаз.
soal                                     : Воскресение 1996
soar                                     : Воскресение
soaa                                     : Воскресение

Аудио
Идентификатор                            : 1
Формат                                   : ALAC
Идентификатор кодека                     : alac
Идентификатор кодека/Информация          : Apple Lossless Audio Codec
Продолжительность                        : 3 м. 29 с.
Duration_LastFrame                       : -2 мс.
Вид битрейта                             : Переменный
Битрейт                                  : 806 Кбит/сек
Каналы                                   : 2 канала
Частота                                  : 44,1 КГц
Битовая глубина                          : 16 бит
Размер потока                            : 20,2 Мбайт (99%)
Дата кодирования                         : UTC 2012-03-27 19:46:33
Дата пометки                             : UTC 2014-02-06 10:32:37

Общее
Полное имя                               : C:\1996 - Легенды Русского Рока\10 Так Бывает.m4a
Формат                                   : MPEG-4
Профиль формата                          : Apple audio with iTunes info
Идентификатор кодека                     : M4A
Размер файла                             : 18,0 Мбайт
Продолжительность                        : 2 м. 59 с.
Режим общего битрейта                    : Переменный
Общий поток                              : 842 Кбит/сек
Альбом                                   : Легенды Русского Рока
Альбом/Исполнитель                       : Воскресение
Часть/Положение                          : 1
Часть/Всего                              : 1
Трек                                     : Так Бывает
Трек/Положение                           : 10
Трек/Всего                               : 16
Исполнитель                              : Воскресение
Композитор                               : Алексей Романов
Жанр                                     : Rock
Дата записи                              : 1979
Дата кодирования                         : UTC 2012-03-27 19:47:01
Дата пометки                             : UTC 2014-02-06 10:32:37
Программа кодирования                    : iTunes 10.6.0.40
Обложка                                  : Yes
Encoding Params                          : (Binary)
UFIDhttp://www.cddb.com/id3/taginfo1.htm : 3CD3N28Q133802820V68196B2CBF7DC73BF745FAF045239BCF0DP5
©lyr                                     : (А.Романов) /  / Так бывает, обещает / Утро ясный теплый день, / А к обеду дождь со снегом / Затевает канитель. / Я- то знаю, что скрывает / Дождевая пелена: / Смех и горе- все проходит, / Вслед зиме глядит весна. /  / Будет время для апреля / После мартовских ветров, / Лишь бы сбылось все, что снилось, / Стал бы мир не так суров. / Год за годом, повторяясь, / Время прямо держит путь, / Можно все начать сначала, / Ничего нельзя вернуть. /  / Помню, в детстве знал я средство / Неудачи избегать- / Строил крепости из кресел / И еще умел летать. / Вот бы мне подняться в небо / И усталость сбросить с плеч. / Мир- согласье, волю- счастье / Где найти и как сберечь? /  / Счастье это только лето, / В ожидании весны, / Краткий миг во власти света, / Посреди кромешной тьмы / Цепь закатов и рассветов, / Долгих зим, коротких лет. / Тень вопроса, след ответа, / Крылья есть, а счастья нет.
soal                                     : Воскресение 1996
soar                                     : Воскресение
soaa                                     : Воскресение

Аудио
Идентификатор                            : 1
Формат                                   : ALAC
Идентификатор кодека                     : alac
Идентификатор кодека/Информация          : Apple Lossless Audio Codec
Продолжительность                        : 2 м. 59 с.
Duration_LastFrame                       : -31 мс.
Вид битрейта                             : Переменный
Битрейт                                  : 833 Кбит/сек
Каналы                                   : 2 канала
Частота                                  : 44,1 КГц
Битовая глубина                          : 16 бит
Размер потока                            : 17,8 Мбайт (99%)
Дата кодирования                         : UTC 2012-03-27 19:47:01
Дата пометки                             : UTC 2014-02-06 10:32:37

Общее
Полное имя                               : C:\1996 - Легенды Русского Рока\11 Вера, Надежда, Любовь.m4a
Формат                                   : MPEG-4
Профиль формата                          : Apple audio with iTunes info
Идентификатор кодека                     : M4A
Размер файла                             : 21,3 Мбайт
Продолжительность                        : 3 м. 50 с.
Режим общего битрейта                    : Переменный
Общий поток                              : 775 Кбит/сек
Альбом                                   : Легенды Русского Рока
Альбом/Исполнитель                       : Воскресение
Часть/Положение                          : 1
Часть/Всего                              : 1
Трек                                     : Вера, Надежда, Любовь
Трек/Положение                           : 11
Трек/Всего                               : 16
Исполнитель                              : Воскресение
Композитор                               : Алексей Романов
Жанр                                     : Rock
Дата записи                              : 1982
Дата кодирования                         : UTC 2012-03-27 19:47:24
Дата пометки                             : UTC 2014-02-06 10:32:37
Программа кодирования                    : iTunes 10.6.0.40
Обложка                                  : Yes
Encoding Params                          : (Binary)
UFIDhttp://www.cddb.com/id3/taginfo1.htm : 3CD3N31Q133802821U16814F5BA96C97D30F0D265C1278FFAAC99P7
©lyr                                     : (А.Романов) /  / Мы искали незыблемых истин, / Мы словами играли, горя, / Свято веря в могущество мысли, / Только время потратили зря. / Звали в светлые дали и сами / Поднимались и падали вновь, / Только так и остались всего лишь словами / Наша Вера, Надежда, Любовь. /  / Мы живем в ожидании чуда, / И беда, как меж пальцев вода, / Наш девиз - мы пришли ниоткуда, / Наш удел - исчезать без следа. / И бежим мы, не трогаясь с места, / И спешим мы, стараясь отстать, / И любые надежды умрут с нами вместе, / Умрут и родятся опять. /  / И, тревоги встречая с улыбкой, / Провожаем удачу без слёз, / Мы готовы признать все ошибки / И ответить на каждый вопрос. / Мы устали, мы загнаны в угол, / Наши горести всем напоказ, / И не веря судьбе мы чужие друг другу, - / Мы чем-то похожи на вас. /  / Вы, быть может, сильней и моложе, / Ну а мы, - это то, что вас ждёт. / Пустота, одиночество, - тоже / На пути вас однажды найдёт. / И померкнут манящие дали, / И остынет кипящая кровь, / Но пока мы ещё никому не продали / Нашу Веру, Надежду, Любовь.
soal                                     : Воскресение 1996
soar                                     : Воскресение
soaa                                     : Воскресение

Аудио
Идентификатор                            : 1
Формат                                   : ALAC
Идентификатор кодека                     : alac
Идентификатор кодека/Информация          : Apple Lossless Audio Codec
Продолжительность                        : 3 м. 50 с.
Duration_LastFrame                       : -88 мс.
Вид битрейта                             : Переменный
Битрейт                                  : 767 Кбит/сек
Каналы                                   : 2 канала
Частота                                  : 44,1 КГц
Битовая глубина                          : 16 бит
Размер потока                            : 21,1 Мбайт (99%)
Дата кодирования                         : UTC 2012-03-27 19:47:24
Дата пометки                             : UTC 2014-02-06 10:32:37

Общее
Полное имя                               : C:\1996 - Легенды Русского Рока\12 Солдат Вселенной.m4a
Формат                                   : MPEG-4
Профиль формата                          : Apple audio with iTunes info
Идентификатор кодека                     : M4A
Размер файла                             : 39,0 Мбайт
Продолжительность                        : 5 м. 46 с.
Режим общего битрейта                    : Переменный
Общий поток                              : 946 Кбит/сек
Альбом                                   : Легенды Русского Рока
Альбом/Исполнитель                       : Воскресение
Часть/Положение                          : 1
Часть/Всего                              : 1
Трек                                     : Солдат Вселенной
Трек/Положение                           : 12
Трек/Всего                               : 16
Исполнитель                              : Воскресение
Композитор                               : Алексей Романов
Жанр                                     : Rock
Дата записи                              : 1979
Дата кодирования                         : UTC 2012-03-27 19:47:52
Дата пометки                             : UTC 2014-02-06 10:32:37
Программа кодирования                    : iTunes 10.6.0.40
Обложка                                  : Yes
Encoding Params                          : (Binary)
UFIDhttp://www.cddb.com/id3/taginfo1.htm : 3CD3N35Q133802822U268C93B9B9DF7775B5D5B1C85F8610724F8P6
©lyr                                     : (А.Романов) /  / Я привык бродить один / И смотреть в чужие окна, / В суете немых картин / Отражаться в мокрых стёклах, / Мне хотелось бы узнать / Что вас ждет / И что тревожит ваши сны / Но вот опять приходит ночь / И день напрасно прожит /  / Мы устали от потерь, / А находим слишком редко. / Мы скитались, а теперь / Мы живем в хрустальных клетках. / И теперь чужая радость / Не осушит наших слез / И нам осталось / Только ждать, какая малость, / Ждать того, кто не придёт. /  / Трудно ждать себе не веря, / Все стерпеть ещё труднее. / Зажгите свет, откройте двери, / Быть может мы ещё успеем, / Быть может мы ещё услышим, / Грохот льдин в реке и я из дома вышел, / И увидел, я один и только / Снег на крышах. /  / И я бежал из ледяного плена, / Слишком мало на земле тепла, / Но я не сдался, я солдат вселенной, / В мировой войне добра и зла. / И грянул бой на целый белый свет / И через миг земля очнулась ото сна / А на земле, как всегда, / То зима, то весна...
soal                                     : Воскресение 1996
soar                                     : Воскресение
soaa                                     : Воскресение

Аудио
Идентификатор                            : 1
Формат                                   : ALAC
Идентификатор кодека                     : alac
Идентификатор кодека/Информация          : Apple Lossless Audio Codec
Продолжительность                        : 5 м. 46 с.
Duration_LastFrame                       : -4 мс.
Вид битрейта                             : Переменный
Битрейт                                  : 841 Кбит/сек
Каналы                                   : 2 канала
Частота                                  : 44,1 КГц
Битовая глубина                          : 16 бит
Размер потока                            : 34,7 Мбайт (89%)
Дата кодирования                         : UTC 2012-03-27 19:47:52
Дата пометки                             : UTC 2014-02-06 10:32:37

Общее
Полное имя                               : C:\1996 - Легенды Русского Рока\13 Хороший Парень.m4a
Формат                                   : MPEG-4
Профиль формата                          : Apple audio with iTunes info
Идентификатор кодека                     : M4A
Размер файла                             : 20,9 Мбайт
Продолжительность                        : 3 м. 15 с.
Режим общего битрейта                    : Переменный
Общий поток                              : 900 Кбит/сек
Альбом                                   : Легенды Русского Рока
Альбом/Исполнитель                       : Воскресение
Часть/Положение                          : 1
Часть/Всего                              : 1
Трек                                     : Хороший Парень
Трек/Положение                           : 13
Трек/Всего                               : 16
Исполнитель                              : Воскресение
Композитор                               : Алексей Романов - Алексей Макаревич
Жанр                                     : Rock
Дата записи                              : 1979
Дата кодирования                         : UTC 2012-03-27 19:48:32
Дата пометки                             : UTC 2014-02-06 10:32:37
Программа кодирования                    : iTunes 10.6.0.40
Обложка                                  : Yes
Encoding Params                          : (Binary)
UFIDhttp://www.cddb.com/id3/taginfo1.htm : 3CD3N38Q133802823U278058F383CC4BD4059457D473CBF83DCC0P3
©lyr                                     : (А.Романов - Ал.Макаревич) /  / Он шел наугад / Он шел, спотыкаясь в бреду / По тонкому льду. / И был снегопад, / И след потерялся в снегу / На том берегу. /  / Слезой по щеке / Сползают остатки снегов / С крутых берегов. / И лёд на реке / Растает своей чередой, / И станет водой. /  / Он шёл в темноту, / И бездна казалась видна / До самого дна. / А я на свету / Никак не могу рассмотреть / Хотя-бы на треть. /  / Хотя-бы понять / Удачлив был он или смел, / И как он посмел / Беспечно ронять, / Как в воду бросают гроши, / Осколки души. /  / Но кажется мне, / Стоит он и машет рукой / За синей рекой. / И, словно во сне, / Бегу, задыхаясь, к нему / В кромешную тьму. /  / Но только шагну, / Уходит земля из-под ног, / И в горле комок. / Лишь только взгляну, / Как след потерялся в снегу / На том берегу.
soal                                     : Воскресение 1996
soar                                     : Воскресение
soaa                                     : Воскресение

Аудио
Идентификатор                            : 1
Формат                                   : ALAC
Идентификатор кодека                     : alac
Идентификатор кодека/Информация          : Apple Lossless Audio Codec
Продолжительность                        : 3 м. 15 с.
Duration_LastFrame                       : -86 мс.
Вид битрейта                             : Переменный
Битрейт                                  : 891 Кбит/сек
Каналы                                   : 2 канала
Частота                                  : 44,1 КГц
Битовая глубина                          : 16 бит
Размер потока                            : 20,8 Мбайт (99%)
Дата кодирования                         : UTC 2012-03-27 19:48:32
Дата пометки                             : UTC 2014-02-06 10:32:37

Общее
Полное имя                               : C:\1996 - Легенды Русского Рока\14 Случилось Что-То.m4a
Формат                                   : MPEG-4
Профиль формата                          : Apple audio with iTunes info
Идентификатор кодека                     : M4A
Размер файла                             : 21,4 Мбайт
Продолжительность                        : 4 м. 2 с.
Режим общего битрейта                    : Переменный
Общий поток                              : 739 Кбит/сек
Альбом                                   : Легенды Русского Рока
Альбом/Исполнитель                       : Воскресение
Часть/Положение                          : 1
Часть/Всего                              : 1
Трек                                     : Случилось Что-То
Трек/Положение                           : 14
Трек/Всего                               : 16
Исполнитель                              : Воскресение
Композитор                               : Алексей Романов
Жанр                                     : Rock
Дата записи                              : 1995
Дата кодирования                         : UTC 2012-03-27 19:48:54
Дата пометки                             : UTC 2014-02-06 10:32:37
Программа кодирования                    : iTunes 10.6.0.40
Обложка                                  : Yes
Encoding Params                          : (Binary)
UFIDhttp://www.cddb.com/id3/taginfo1.htm : 3CD3N41Q133802824V88472CDAF0B99F3BC75AFEC21F617E16F6P2
©lyr                                     : (А.Романов) /  / Случилось что-то в городе моём / Бульвары встрепенулись, словно крылья, / А просто скука, смытая дождём / Была, как оказалось, просто пылью. /  / И понял я, что также я не волен / В случайных поворотах бытия / Что я не одинок, что я не болен / Растерянность уйдет, останусь я. /  / Что я останусь, но еще успею / Уйти, не оглянувшись, в пустоту / И с кем расстанусь, тем пока не смею / Сказать, что мне уже невмоготу /  / А мир пожалуй стоит изменить, / Пусть станем мы добрей и старомодней. / Доверчивей, наивнее любить / И искренней, а стало быть свободней. /  / Но ведь случилось что-то в мире под дождем, / Пустыни раскаленные остыли. / Смеются люди в городе моём, / Дождем освобождённые от пыли.
soal                                     : Воскресение 1996
soar                                     : Воскресение
soaa                                     : Воскресение

Аудио
Идентификатор                            : 1
Формат                                   : ALAC
Идентификатор кодека                     : alac
Идентификатор кодека/Информация          : Apple Lossless Audio Codec
Продолжительность                        : 4 м. 2 с.
Duration_LastFrame                       : -16 мс.
Вид битрейта                             : Переменный
Битрейт                                  : 732 Кбит/сек
Каналы                                   : 2 канала
Частота                                  : 44,1 КГц
Битовая глубина                          : 16 бит
Размер потока                            : 21,2 Мбайт (99%)
Дата кодирования                         : UTC 2012-03-27 19:48:54
Дата пометки                             : UTC 2014-02-06 10:32:37

Общее
Полное имя                               : C:\1996 - Легенды Русского Рока\15 Есть У Меня.m4a
Формат                                   : MPEG-4
Профиль формата                          : Apple audio with iTunes info
Идентификатор кодека                     : M4A
Размер файла                             : 16,7 Мбайт
Продолжительность                        : 2 м. 51 с.
Режим общего битрейта                    : Переменный
Общий поток                              : 815 Кбит/сек
Альбом                                   : Легенды Русского Рока
Альбом/Исполнитель                       : Воскресение
Часть/Положение                          : 1
Часть/Всего                              : 1
Трек                                     : Есть У Меня
Трек/Положение                           : 15
Трек/Всего                               : 16
Исполнитель                              : Воскресение
Композитор                               : Алексей Романов
Жанр                                     : Rock
Дата записи                              : 1995
Дата кодирования                         : UTC 2012-03-27 19:49:21
Дата пометки                             : UTC 2014-02-06 10:32:38
Программа кодирования                    : iTunes 10.6.0.40
Обложка                                  : Yes
Encoding Params                          : (Binary)
UFIDhttp://www.cddb.com/id3/taginfo1.htm : 3CD3N45Q133802825V880B3F7AD2FCCA43942C980046BCB16077P2
©lyr                                     : А.Романов) /  / Есть у меня песни различные, / Есть необычные, вам ни к чему. / Есть у меня песни обычные, / Но безразличные мне самому. /  / Есть песни для девочек, песни для праздников, / Грустные песни и просто стихи, / Романсы и танцы, какая вам разница. / Много плохих, но они для глухих. /  / В ворохе песен для каждого случая, / Есть тихая радость и громкая грусть, / Вопли и вздохи, и самая лучшая / Песня не спета еще, ну и пусть. /  / А если достигну я славы и почестей / А после постигну, что все суета, / Есть значит правда, она в одиночестве, / Вечная правда, а в ней красота.
soal                                     : Воскресение 1996
soar                                     : Воскресение
soaa                                     : Воскресение

Аудио
Идентификатор                            : 1
Формат                                   : ALAC
Идентификатор кодека                     : alac
Идентификатор кодека/Информация          : Apple Lossless Audio Codec
Продолжительность                        : 2 м. 51 с.
Duration_LastFrame                       : -42 мс.
Вид битрейта                             : Переменный
Битрейт                                  : 806 Кбит/сек
Каналы                                   : 2 канала
Частота                                  : 44,1 КГц
Битовая глубина                          : 16 бит
Размер потока                            : 16,5 Мбайт (99%)
Дата кодирования                         : UTC 2012-03-27 19:49:21
Дата пометки                             : UTC 2014-02-06 10:32:38

Общее
Полное имя                               : C:\1996 - Легенды Русского Рока\16 Поезд.m4a
Формат                                   : MPEG-4
Профиль формата                          : Apple audio with iTunes info
Идентификатор кодека                     : M4A
Размер файла                             : 19,8 Мбайт
Продолжительность                        : 3 м. 5 с.
Режим общего битрейта                    : Переменный
Общий поток                              : 893 Кбит/сек
Альбом                                   : Легенды Русского Рока
Альбом/Исполнитель                       : Воскресение
Часть/Положение                          : 1
Часть/Всего                              : 1
Трек                                     : Поезд
Трек/Положение                           : 16
Трек/Всего                               : 16
Исполнитель                              : Воскресение
Композитор                               : Алексей Романов
Жанр                                     : Rock
Дата записи                              : 1995
Дата кодирования                         : UTC 2012-03-27 19:49:41
Дата пометки                             : UTC 2014-02-06 10:32:38
Программа кодирования                    : iTunes 10.6.0.40
Обложка                                  : Yes
Encoding Params                          : (Binary)
UFIDhttp://www.cddb.com/id3/taginfo1.htm : 3CD3N48Q133802826U2881D90B439A4B4C5538E098644DA09DED3P7
©lyr                                     : (А.Романов) /  / Мчится поезд, / Поезд мчится и навязчиво маняще, / В такт колес висках стучится: / “Завтра что-нибудь случится, / Завтра то, что нынче снится, / Может сбыться в настоящем.” / Мчится поезд /  / В темноте, виском прижавшись / К запотевшему стеклу, / Я слежу, как разбежавшись / Мысль на воле оказавшись, / Обретает смысл и сжатость / Слова, сказанного вслух. /  / Путь бесцельный, миг беспечный, / Вижу город незнакомый. / И, доехав до конечной, / Тороплюсь на поезд встречный. / Верить хочется, что вечно / Все пути приводят к дому. /  / Торопись, беги, прощайся, / Не успеешь оглянуться, / Ни на горе, ни на счастье / Вверь, надейся, жди, отчайся, / Но возвращайся, возвращайся, / Если есть, куда вернуться...
soal                                     : Воскресение 1996
soar                                     : Воскресение
soaa                                     : Воскресение

Аудио
Идентификатор                            : 1
Формат                                   : ALAC
Идентификатор кодека                     : alac
Идентификатор кодека/Информация          : Apple Lossless Audio Codec
Продолжительность                        : 3 м. 5 с.
Duration_LastFrame                       : -13 мс.
Вид битрейта                             : Переменный
Битрейт                                  : 884 Кбит/сек
Каналы                                   : 2 канала
Частота                                  : 44,1 КГц
Битовая глубина                          : 16 бит
Размер потока                            : 19,6 Мбайт (99%)
Дата кодирования                         : UTC 2012-03-27 19:49:41
Дата пометки                             : UTC 2014-02-06 10:32:38
Код:

Exact Audio Copy V0.99 prebeta 4 from 23. January 2008

EAC extraction logfile from 17. October 2009, 20:32

Воскресение / Легенды русского рока, выпуск 1

Used drive : _NEC DVD_RW ND-3520AW Adapter: 0 ID: 0

Read mode : Secure
Utilize accurate stream : Yes
Defeat audio cache : Yes
Make use of C2 pointers : No

Read offset correction : 48
Overread into Lead-In and Lead-Out : No
Fill up missing offset samples with silence : Yes
Delete leading and trailing silent blocks : No
Null samples used in CRC calculations : Yes
Used interface : Native Win32 interface for Win NT & 2000

Used output format : Internal WAV Routines
Sample format : 44.100 Hz; 16 Bit; Stereo

TOC of the extracted CD

Track | Start | Length | Start sector | End sector
---------------------------------------------------------
1 | 0:00.00 | 3:35.55 | 0 | 16179
2 | 3:35.55 | 4:18.07 | 16180 | 35536
3 | 7:53.62 | 5:23.23 | 35537 | 59784
4 | 13:17.10 | 5:52.15 | 59785 | 86199
5 | 19:09.25 | 3:21.42 | 86200 | 101316
6 | 22:30.67 | 3:25.38 | 101317 | 116729
7 | 25:56.30 | 4:36.20 | 116730 | 137449
8 | 30:32.50 | 3:09.32 | 137450 | 151656
9 | 33:42.07 | 3:27.68 | 151657 | 167249
10 | 37:10.00 | 2:57.17 | 167250 | 180541
11 | 40:07.17 | 3:48.33 | 180542 | 197674
12 | 43:55.50 | 5:44.05 | 197675 | 223479
13 | 49:39.55 | 3:13.25 | 223480 | 237979
14 | 52:53.05 | 4:00.37 | 237980 | 256016
15 | 56:53.42 | 2:49.45 | 256017 | 268736
16 | 59:43.12 | 3:05.63 | 268737 | 282674

Range status and errors

Selected range

Filename F:\Music Lossless\Voskresenie - Russian Rock Legend (1996, 2002)\vol. 1\Voskresenie - Russian Rock Legend, vol. 1.wav

Peak level 89.1 %
Range quality 99.9 %
Test CRC C130B421
Copy CRC C130B421
Copy OK

No errors occurred

AccurateRip summary

Track 1 not present in database
Track 2 not present in database
Track 3 not present in database
Track 4 not present in database
Track 5 not present in database
Track 6 not present in database
Track 7 not present in database
Track 8 not present in database
Track 9 not present in database
Track 10 not present in database
Track 11 not present in database
Track 12 not present in database
Track 13 not present in database
Track 14 not present in database
Track 15 not present in database
Track 16 not present in database

None of the tracks are present in the AccurateRip database

End of status report
Код:

-----------------------

DON'T MODIFY THIS FILE

-----------------------

PERFORMER: auCDtect Task Manager, ver. 1.6.0 RC1 build 1.6.0.1
Copyright (c) 2008-2010 y-soft. All rights reserved
http://y-soft.org

ANALYZER: auCDtect: CD records authenticity detector, version 0.8.2
Copyright (c) 2004 Oleg Berngardt. All rights reserved.
Copyright (c) 2004 Alexander Djourik. All rights reserved.

FILE: 16 Поезд.m4a
  Size: 20738792 Hash: 038B2DC51B9458F5DAAB86A62EAD73FB Accuracy: -m0
  Conclusion: CDDA 99%
  Signature: 080DA239EF3CD33AE4DCCEDA4EF2FC43484C2470
FILE: 15 Есть У Меня.m4a
  Size: 17491884 Hash: B0763ACAD934209021BB5C56D41F09FF Accuracy: -m0
  Conclusion: CDDA 99%
  Signature: E56603FFCE5ABA934588CA53999FCC231882B6E6
FILE: 14 Случилось Что-То.m4a
  Size: 22402187 Hash: B960CA0C8E6B7A0A64D71BE8BC80227A Accuracy: -m0
  Conclusion: CDDA 100%
  Signature: E6E638CD52BC2C2EEB45AB2C2B9728184C066492
FILE: 13 Хороший Парень.m4a
  Size: 21963502 Hash: E1CA9FC10B32003B26EBBF48DC95F107 Accuracy: -m0
  Conclusion: CDDA 100%
  Signature: 9EC6D40DEAAA8B84F0447BC6373FD538536683AE
FILE: 12 Солдат Вселенной.m4a
  Size: 40917994 Hash: 8C685B50609B77E66CEA3265F5CE6CBF Accuracy: -m0
  Conclusion: CDDA 100%
  Signature: B381C3896F31F2241B18DA6A1D216C2CC77167D7
FILE: 11 Вера, Надежда, Любовь.m4a
  Size: 22313092 Hash: C7D7E04F2917992C1F30000B0F1F2790 Accuracy: -m0
  Conclusion: CDDA 100%
  Signature: ADD564ADC25DD60F22840A1C56A8FD3116296893
FILE: 10 Так Бывает.m4a
  Size: 18862449 Hash: 73F3D4C5F7F3FBFA4D0027D66288599E Accuracy: -m0
  Conclusion: CDDA 100%
  Signature: D47A0D134BFB5015ECBDC604E13F5969F4F8F1EB
FILE: 09 Сколько Было Звезд.m4a
  Size: 21354244 Hash: 8F465B93AF849EEA1BCE0B7F2EC5D47E Accuracy: -m0
  Conclusion: CDDA 100%
  Signature: B381ED77D4B057D9A9D653DEB6671AF45F279369
FILE: 08 Лето.m4a
  Size: 21909305 Hash: 8F691F0BD671787E012BDC1370791580 Accuracy: -m0
  Conclusion: CDDA 100%
  Signature: 99C2AED99AE63F2C9753B0EBF19B5864EC00FB88
FILE: 07 Сон.m4a
  Size: 33336684 Hash: 774B2058C8731066C9681AC027B874F1 Accuracy: -m0
  Conclusion: CDDA 100%
  Signature: 207621DDDABC6F01490A4786D7C10714A69C78A7
FILE: 06 Друзьям.m4a
  Size: 21721155 Hash: 2AEDC95871B4490E5A18196864CDE73E Accuracy: -m0
  Conclusion: CDDA 100%
  Signature: 81FA571BA0FB720ED1D1AD4E7723853F6A6AAA9F
FILE: 05 Я Ни Разу За Морем Не Был.m4a
  Size: 18372717 Hash: C00C1F789197649384FF51B6C090648C Accuracy: -m0
  Conclusion: CDDA 100%
  Signature: 9B73BB0EF7977267FF734840918CC77C00013838
FILE: 04 В Жизни, Как В Темной Чаще.m4a
  Size: 44595908 Hash: 7D49DBDE4CE094AB952F02ECDE3D6704 Accuracy: -m0
  Conclusion: CDDA 100%
  Signature: 9CAF270F936798442ADAAEA024B40C53BA5F0F2C
FILE: 03 По Дороге Разочарований.m4a
  Size: 32562467 Hash: 478257180B88A4AE31F0AA918788B9A9 Accuracy: -m0
  Conclusion: CDDA 100%
  Signature: 8A67CEA7E0346C4045CC3FD642DEE972759A3C33
FILE: 02 Кто Виноват.m4a
  Size: 22852698 Hash: FC7DA9FEA600CCF54D585E57F4F8FD2E Accuracy: -m0
  Conclusion: CDDA 100%
  Signature: E948C5A184ED07B1C286642DAAF037B6E45F10A6
FILE: 01 Все Сначала.m4a
  Size: 32271623 Hash: 335FEF414559867F4A4AFE8F3A592DC9 Accuracy: -m0
  Conclusion: CDDA 100%
  Signature: 65E85CFDD5A02871BBEE463D2872B24B2D625774
Время раздачи: ( с 09:00 - 20:00 - до первых десяти сидов )
[NNM-Club.me]_Voskresenie - Legendyi russkogo roka (1996).torrent
 Торрент: Платиновая раздача  Зарегистрирован
 
Скачать


Примагнититься
 Зарегистрирован:   06 Фев 2014 09:51:41
 Размер:   395 MB  (
 Рейтинг:   4.9 (Голосов: 63)
 Поблагодарили:   224
 Проверка:   Оформление проверено модератором 06 Фев 2014 10:05:55
Как cкачать  ·  Как раздать  ·  Правильно оформить  ·  Поднять ратио!  
VikLe
Стаж: 11 лет 7 мес.
Сообщений: 89
Ratio: 8.34
44.44%
russia.gif
Удивительные песни. Неподвластные времени. Сколько лет прошло.
zuich
Стаж: 12 лет 7 мес.
Сообщений: 5
Ratio: 4.64
23.07%
russia.gif
VikLe писал(а): Перейти к сообщению
Удивительные песни. Неподвластные времени. Сколько лет прошло.


Согласен
KOB
Стаж: 10 лет 6 мес.
Сообщений: 118
Ratio: 29.265
Раздал: 5.871 TB
100%
Откуда: Москва
russia.gif
Поднимают настроение, кстати )
olegr251
Стаж: 14 лет 1 мес.
Сообщений: 113
Ratio: 1.462
100%
ukraine.gif
Станьте на раздачу, плиз
Показать сообщения:   
Начать новую тему   Ответить на тему    Торрент-трекер NNM-Club -> Аудио и Видео -> Музыка Lossless (ALAC) Часовой пояс: GMT + 3
Страница 1 из 1