Классический форум-трекер
canvas not supported
Нас вместе: 4 166 224

Red Hot Chili Peppers - Road Trippin Through Time (2011) [ALAC|Lossless]<Funk>


 
 
RSS
Начать новую тему   Ответить на тему    Торрент-трекер NNM-Club -> Аудио и Видео -> Музыка Lossless (ALAC)
Автор Сообщение
U2jp ®
Покровитель талантов
Стаж: 9 лет 7 мес.
Сообщений: 279
Ratio: 3.347
Поблагодарили: 2624
100%
pirates.png
Red Hot Chili Peppers - Road Trippin Through Time (2011)
Год: 2011
Жанр: Funk
Издатель (лейбл): Warner Bros. Records
Кодек: ALAC
Битрейт: Lossless

Источник (релизер): GHOST_Assassin

Продолжительность: 01:18:54

Трек лист:
01 Give It Away 4:46
02 Under The Bridge 4:36
03 Suck My Kiss 3:37
04 Scar Tissue 3:38
05 Breaking The Girl 4:56
06 Around The World 4:00
07 Otherside 4:17
08 Aeroplane 4:12
09 Californication 5:22
10 By The Way 3:37
11 Snow (Hey Oh) 5:37
12 Soul To Squeeze 4:52
13 Tell Me Baby 4:10
14 Dani California 4:45
15 Can't Stop 4:31
16 Parallel Universe 4:32
17 The Zephyr Song 3:54
18 Road Trippin' 3:25
Код:
Общее
Полное имя                               : C:\Users\User\Desktop\Red Hot Chili Peppers - Road Trippin' Through Time - 2011 [ALAC]\01. Give It Away.m4a
Формат                                   : MPEG-4
Профиль формата                          : Apple audio with iTunes info
Идентификатор кодека                     : M4A
Размер файла                             : 41,2 Мбайт
Продолжительность                        : 4 м. 46 с.
Режим общего битрейта                    : Переменный
Общий поток                              : 1208 Кбит/сек
Альбом                                   : Road Trippin' Through Time
Трек                                     : Give It Away
Трек/Положение                           : 1
Исполнитель                              : Red Hot Chili Peppers
Жанр                                     : Rock
Дата записи                              : 2011
Дата кодирования                         : UTC 2013-05-25 20:17:25
Дата пометки                             : UTC 2013-05-25 20:17:29
Программа кодирования                    : Easy CD-DA Extractor (http://www.poikosoft.com)
Обложка                                  : Yes

Аудио
Идентификатор                            : 1
Формат                                   : ALAC
Идентификатор кодека                     : alac
Идентификатор кодека/Информация          : Apple Lossless Audio Codec
Продолжительность                        : 4 м. 46 с.
Duration_LastFrame                       : -2 мс.
Вид битрейта                             : Переменный
Битрейт                                  : 1206 Кбит/сек
Каналы                                   : 2 канала
Частота                                  : 44,1 КГц
Битовая глубина                          : 16 бит
Размер потока                            : 41,2 Мбайт (100%)
Язык                                     : English
Дата кодирования                         : UTC 2013-05-25 20:17:25
Дата пометки                             : UTC 2013-05-25 20:17:29

Общее
Полное имя                               : C:\Users\User\Desktop\Red Hot Chili Peppers - Road Trippin' Through Time - 2011 [ALAC]\02. Under The Bridge.m4a
Формат                                   : MPEG-4
Профиль формата                          : Apple audio with iTunes info
Идентификатор кодека                     : M4A
Размер файла                             : 28,9 Мбайт
Продолжительность                        : 4 м. 36 с.
Режим общего битрейта                    : Переменный
Общий поток                              : 876 Кбит/сек
Альбом                                   : Road Trippin' Through Time
Трек                                     : Under The Bridge
Трек/Положение                           : 2
Исполнитель                              : Red Hot Chili Peppers
Жанр                                     : Rock
Дата записи                              : 2011
Дата кодирования                         : UTC 2013-05-25 20:17:26
Дата пометки                             : UTC 2013-05-25 20:17:29
Программа кодирования                    : Easy CD-DA Extractor (http://www.poikosoft.com)
Обложка                                  : Yes

Аудио
Идентификатор                            : 1
Формат                                   : ALAC
Идентификатор кодека                     : alac
Идентификатор кодека/Информация          : Apple Lossless Audio Codec
Продолжительность                        : 4 м. 36 с.
Duration_LastFrame                       : -24 мс.
Вид битрейта                             : Переменный
Битрейт                                  : 873 Кбит/сек
Каналы                                   : 2 канала
Частота                                  : 44,1 КГц
Битовая глубина                          : 16 бит
Размер потока                            : 28,8 Мбайт (100%)
Язык                                     : English
Дата кодирования                         : UTC 2013-05-25 20:17:26
Дата пометки                             : UTC 2013-05-25 20:17:29

Общее
Полное имя                               : C:\Users\User\Desktop\Red Hot Chili Peppers - Road Trippin' Through Time - 2011 [ALAC]\03. Suck My Kiss.m4a
Формат                                   : MPEG-4
Профиль формата                          : Apple audio with iTunes info
Идентификатор кодека                     : M4A
Размер файла                             : 29,5 Мбайт
Продолжительность                        : 3 м. 37 с.
Режим общего битрейта                    : Переменный
Общий поток                              : 1137 Кбит/сек
Альбом                                   : Road Trippin' Through Time
Трек                                     : Suck My Kiss
Трек/Положение                           : 3
Исполнитель                              : Red Hot Chili Peppers
Жанр                                     : Rock
Дата записи                              : 2011
Дата кодирования                         : UTC 2013-05-25 20:17:29
Дата пометки                             : UTC 2013-05-25 20:17:32
Программа кодирования                    : Easy CD-DA Extractor (http://www.poikosoft.com)
Обложка                                  : Yes

Аудио
Идентификатор                            : 1
Формат                                   : ALAC
Идентификатор кодека                     : alac
Идентификатор кодека/Информация          : Apple Lossless Audio Codec
Продолжительность                        : 3 м. 37 с.
Duration_LastFrame                       : -30 мс.
Вид битрейта                             : Переменный
Битрейт                                  : 1133 Кбит/сек
Каналы                                   : 2 канала
Частота                                  : 44,1 КГц
Битовая глубина                          : 16 бит
Размер потока                            : 29,4 Мбайт (100%)
Язык                                     : English
Дата кодирования                         : UTC 2013-05-25 20:17:29
Дата пометки                             : UTC 2013-05-25 20:17:32

Общее
Полное имя                               : C:\Users\User\Desktop\Red Hot Chili Peppers - Road Trippin' Through Time - 2011 [ALAC]\04. Scar Tissue.m4a
Формат                                   : MPEG-4
Профиль формата                          : Apple audio with iTunes info
Идентификатор кодека                     : M4A
Размер файла                             : 25,6 Мбайт
Продолжительность                        : 3 м. 38 с.
Режим общего битрейта                    : Переменный
Общий поток                              : 981 Кбит/сек
Альбом                                   : Road Trippin' Through Time
Трек                                     : Scar Tissue
Трек/Положение                           : 4
Исполнитель                              : Red Hot Chili Peppers
Жанр                                     : Rock
Дата записи                              : 2011
Дата кодирования                         : UTC 2013-05-25 20:17:29
Дата пометки                             : UTC 2013-05-25 20:17:32
Программа кодирования                    : Easy CD-DA Extractor (http://www.poikosoft.com)
Обложка                                  : Yes

Аудио
Идентификатор                            : 1
Формат                                   : ALAC
Идентификатор кодека                     : alac
Идентификатор кодека/Информация          : Apple Lossless Audio Codec
Продолжительность                        : 3 м. 38 с.
Duration_LastFrame                       : -78 мс.
Вид битрейта                             : Переменный
Битрейт                                  : 978 Кбит/сек
Каналы                                   : 2 канала
Частота                                  : 44,1 КГц
Битовая глубина                          : 16 бит
Размер потока                            : 25,5 Мбайт (100%)
Язык                                     : English
Дата кодирования                         : UTC 2013-05-25 20:17:29
Дата пометки                             : UTC 2013-05-25 20:17:32

Общее
Полное имя                               : C:\Users\User\Desktop\Red Hot Chili Peppers - Road Trippin' Through Time - 2011 [ALAC]\05. Breaking The Girl.m4a
Формат                                   : MPEG-4
Профиль формата                          : Apple audio with iTunes info
Идентификатор кодека                     : M4A
Размер файла                             : 36,9 Мбайт
Продолжительность                        : 4 м. 56 с.
Режим общего битрейта                    : Переменный
Общий поток                              : 1043 Кбит/сек
Альбом                                   : Road Trippin' Through Time
Трек                                     : Breaking The Girl
Трек/Положение                           : 5
Исполнитель                              : Red Hot Chili Peppers
Жанр                                     : Rock
Дата записи                              : 2011
Дата кодирования                         : UTC 2013-05-25 20:17:32
Дата пометки                             : UTC 2013-05-25 20:17:35
Программа кодирования                    : Easy CD-DA Extractor (http://www.poikosoft.com)
Обложка                                  : Yes

Аудио
Идентификатор                            : 1
Формат                                   : ALAC
Идентификатор кодека                     : alac
Идентификатор кодека/Информация          : Apple Lossless Audio Codec
Продолжительность                        : 4 м. 56 с.
Duration_LastFrame                       : -71 мс.
Вид битрейта                             : Переменный
Битрейт                                  : 1041 Кбит/сек
Каналы                                   : 2 канала
Частота                                  : 44,1 КГц
Битовая глубина                          : 16 бит
Размер потока                            : 36,8 Мбайт (100%)
Язык                                     : English
Дата кодирования                         : UTC 2013-05-25 20:17:32
Дата пометки                             : UTC 2013-05-25 20:17:35

Общее
Полное имя                               : C:\Users\User\Desktop\Red Hot Chili Peppers - Road Trippin' Through Time - 2011 [ALAC]\06. Around The World.m4a
Формат                                   : MPEG-4
Профиль формата                          : Apple audio with iTunes info
Идентификатор кодека                     : M4A
Размер файла                             : 30,2 Мбайт
Продолжительность                        : 4 м. 0 с.
Режим общего битрейта                    : Переменный
Общий поток                              : 1054 Кбит/сек
Альбом                                   : Road Trippin' Through Time
Трек                                     : Around The World
Трек/Положение                           : 6
Исполнитель                              : Red Hot Chili Peppers
Жанр                                     : Rock
Дата записи                              : 2011
Дата кодирования                         : UTC 2013-05-25 20:17:32
Дата пометки                             : UTC 2013-05-25 20:17:35
Программа кодирования                    : Easy CD-DA Extractor (http://www.poikosoft.com)
Обложка                                  : Yes

Аудио
Идентификатор                            : 1
Формат                                   : ALAC
Идентификатор кодека                     : alac
Идентификатор кодека/Информация          : Apple Lossless Audio Codec
Продолжительность                        : 4 м. 0 с.
Duration_LastFrame                       : -14 мс.
Вид битрейта                             : Переменный
Битрейт                                  : 1051 Кбит/сек
Каналы                                   : 2 канала
Частота                                  : 44,1 КГц
Битовая глубина                          : 16 бит
Размер потока                            : 30,1 Мбайт (100%)
Язык                                     : English
Дата кодирования                         : UTC 2013-05-25 20:17:32
Дата пометки                             : UTC 2013-05-25 20:17:35

Общее
Полное имя                               : C:\Users\User\Desktop\Red Hot Chili Peppers - Road Trippin' Through Time - 2011 [ALAC]\07. Otherside.m4a
Формат                                   : MPEG-4
Профиль формата                          : Apple audio with iTunes info
Идентификатор кодека                     : M4A
Размер файла                             : 31,0 Мбайт
Продолжительность                        : 4 м. 17 с.
Режим общего битрейта                    : Переменный
Общий поток                              : 1007 Кбит/сек
Альбом                                   : Road Trippin' Through Time
Трек                                     : Otherside
Трек/Положение                           : 7
Исполнитель                              : Red Hot Chili Peppers
Жанр                                     : Rock
Дата записи                              : 2011
Дата кодирования                         : UTC 2013-05-25 20:17:35
Дата пометки                             : UTC 2013-05-25 20:17:38
Программа кодирования                    : Easy CD-DA Extractor (http://www.poikosoft.com)
Обложка                                  : Yes

Аудио
Идентификатор                            : 1
Формат                                   : ALAC
Идентификатор кодека                     : alac
Идентификатор кодека/Информация          : Apple Lossless Audio Codec
Продолжительность                        : 4 м. 17 с.
Duration_LastFrame                       : -21 мс.
Вид битрейта                             : Переменный
Битрейт                                  : 1004 Кбит/сек
Каналы                                   : 2 канала
Частота                                  : 44,1 КГц
Битовая глубина                          : 16 бит
Размер потока                            : 30,9 Мбайт (100%)
Язык                                     : English
Дата кодирования                         : UTC 2013-05-25 20:17:35
Дата пометки                             : UTC 2013-05-25 20:17:38

Общее
Полное имя                               : C:\Users\User\Desktop\Red Hot Chili Peppers - Road Trippin' Through Time - 2011 [ALAC]\08. Aeroplane.m4a
Формат                                   : MPEG-4
Профиль формата                          : Apple audio with iTunes info
Идентификатор кодека                     : M4A
Размер файла                             : 29,4 Мбайт
Продолжительность                        : 4 м. 12 с.
Режим общего битрейта                    : Переменный
Общий поток                              : 979 Кбит/сек
Альбом                                   : Road Trippin' Through Time
Трек                                     : Aeroplane
Трек/Положение                           : 8
Исполнитель                              : Red Hot Chili Peppers
Жанр                                     : Rock
Дата записи                              : 2011
Дата кодирования                         : UTC 2013-05-25 20:17:36
Дата пометки                             : UTC 2013-05-25 20:17:39
Программа кодирования                    : Easy CD-DA Extractor (http://www.poikosoft.com)
Обложка                                  : Yes

Аудио
Идентификатор                            : 1
Формат                                   : ALAC
Идентификатор кодека                     : alac
Идентификатор кодека/Информация          : Apple Lossless Audio Codec
Продолжительность                        : 4 м. 12 с.
Duration_LastFrame                       : -9 мс.
Вид битрейта                             : Переменный
Битрейт                                  : 976 Кбит/сек
Каналы                                   : 2 канала
Частота                                  : 44,1 КГц
Битовая глубина                          : 16 бит
Размер потока                            : 29,3 Мбайт (100%)
Язык                                     : English
Дата кодирования                         : UTC 2013-05-25 20:17:36
Дата пометки                             : UTC 2013-05-25 20:17:39

Общее
Полное имя                               : C:\Users\User\Desktop\Red Hot Chili Peppers - Road Trippin' Through Time - 2011 [ALAC]\09. Californication.m4a
Формат                                   : MPEG-4
Профиль формата                          : Apple audio with iTunes info
Идентификатор кодека                     : M4A
Размер файла                             : 38,2 Мбайт
Продолжительность                        : 5 м. 22 с.
Режим общего битрейта                    : Переменный
Общий поток                              : 993 Кбит/сек
Альбом                                   : Road Trippin' Through Time
Трек                                     : Californication
Трек/Положение                           : 9
Исполнитель                              : Red Hot Chili Peppers
Жанр                                     : Rock
Дата записи                              : 2011
Дата кодирования                         : UTC 2013-05-25 20:17:38
Дата пометки                             : UTC 2013-05-25 20:17:42
Программа кодирования                    : Easy CD-DA Extractor (http://www.poikosoft.com)
Обложка                                  : Yes

Аудио
Идентификатор                            : 1
Формат                                   : ALAC
Идентификатор кодека                     : alac
Идентификатор кодека/Информация          : Apple Lossless Audio Codec
Продолжительность                        : 5 м. 22 с.
Duration_LastFrame                       : -40 мс.
Вид битрейта                             : Переменный
Битрейт                                  : 991 Кбит/сек
Каналы                                   : 2 канала
Частота                                  : 44,1 КГц
Битовая глубина                          : 16 бит
Размер потока                            : 38,1 Мбайт (100%)
Язык                                     : English
Дата кодирования                         : UTC 2013-05-25 20:17:38
Дата пометки                             : UTC 2013-05-25 20:17:42

Общее
Полное имя                               : C:\Users\User\Desktop\Red Hot Chili Peppers - Road Trippin' Through Time - 2011 [ALAC]\10. By The Way.m4a
Формат                                   : MPEG-4
Профиль формата                          : Apple audio with iTunes info
Идентификатор кодека                     : M4A
Размер файла                             : 25,6 Мбайт
Продолжительность                        : 3 м. 37 с.
Режим общего битрейта                    : Переменный
Общий поток                              : 988 Кбит/сек
Альбом                                   : Road Trippin' Through Time
Трек                                     : By The Way
Трек/Положение                           : 10
Исполнитель                              : Red Hot Chili Peppers
Жанр                                     : Rock
Дата записи                              : 2011
Дата кодирования                         : UTC 2013-05-25 20:17:39
Дата пометки                             : UTC 2013-05-25 20:17:41
Программа кодирования                    : Easy CD-DA Extractor (http://www.poikosoft.com)
Обложка                                  : Yes

Аудио
Идентификатор                            : 1
Формат                                   : ALAC
Идентификатор кодека                     : alac
Идентификатор кодека/Информация          : Apple Lossless Audio Codec
Продолжительность                        : 3 м. 37 с.
Duration_LastFrame                       : -18 мс.
Вид битрейта                             : Переменный
Битрейт                                  : 985 Кбит/сек
Каналы                                   : 2 канала
Частота                                  : 44,1 КГц
Битовая глубина                          : 16 бит
Размер потока                            : 25,5 Мбайт (100%)
Язык                                     : English
Дата кодирования                         : UTC 2013-05-25 20:17:39
Дата пометки                             : UTC 2013-05-25 20:17:41

Общее
Полное имя                               : C:\Users\User\Desktop\Red Hot Chili Peppers - Road Trippin' Through Time - 2011 [ALAC]\11. Snow (Hey Oh).m4a
Формат                                   : MPEG-4
Профиль формата                          : Apple audio with iTunes info
Идентификатор кодека                     : M4A
Размер файла                             : 40,3 Мбайт
Продолжительность                        : 5 м. 37 с.
Режим общего битрейта                    : Переменный
Общий поток                              : 1001 Кбит/сек
Альбом                                   : Road Trippin' Through Time
Трек                                     : Snow (Hey Oh)
Трек/Положение                           : 11
Исполнитель                              : Red Hot Chili Peppers
Жанр                                     : Rock
Дата записи                              : 2011
Дата кодирования                         : UTC 2013-05-25 20:17:42
Дата пометки                             : UTC 2013-05-25 20:17:46
Программа кодирования                    : Easy CD-DA Extractor (http://www.poikosoft.com)
Обложка                                  : Yes

Аудио
Идентификатор                            : 1
Формат                                   : ALAC
Идентификатор кодека                     : alac
Идентификатор кодека/Информация          : Apple Lossless Audio Codec
Продолжительность                        : 5 м. 37 с.
Duration_LastFrame                       : -60 мс.
Вид битрейта                             : Переменный
Битрейт                                  : 999 Кбит/сек
Каналы                                   : 2 канала
Частота                                  : 44,1 КГц
Битовая глубина                          : 16 бит
Размер потока                            : 40,2 Мбайт (100%)
Язык                                     : English
Дата кодирования                         : UTC 2013-05-25 20:17:42
Дата пометки                             : UTC 2013-05-25 20:17:46

Общее
Полное имя                               : C:\Users\User\Desktop\Red Hot Chili Peppers - Road Trippin' Through Time - 2011 [ALAC]\12. Soul To Squeeze.m4a
Формат                                   : MPEG-4
Профиль формата                          : Apple audio with iTunes info
Идентификатор кодека                     : M4A
Размер файла                             : 34,3 Мбайт
Продолжительность                        : 4 м. 52 с.
Режим общего битрейта                    : Переменный
Общий поток                              : 983 Кбит/сек
Альбом                                   : Road Trippin' Through Time
Трек                                     : Soul To Squeeze
Трек/Положение                           : 12
Исполнитель                              : Red Hot Chili Peppers
Жанр                                     : Rock
Дата записи                              : 2011
Дата кодирования                         : UTC 2013-05-25 20:17:43
Дата пометки                             : UTC 2013-05-25 20:17:46
Программа кодирования                    : Easy CD-DA Extractor (http://www.poikosoft.com)
Обложка                                  : Yes

Аудио
Идентификатор                            : 1
Формат                                   : ALAC
Идентификатор кодека                     : alac
Идентификатор кодека/Информация          : Apple Lossless Audio Codec
Продолжительность                        : 4 м. 52 с.
Duration_LastFrame                       : -39 мс.
Вид битрейта                             : Переменный
Битрейт                                  : 980 Кбит/сек
Каналы                                   : 2 канала
Частота                                  : 44,1 КГц
Битовая глубина                          : 16 бит
Размер потока                            : 34,2 Мбайт (100%)
Язык                                     : English
Дата кодирования                         : UTC 2013-05-25 20:17:43
Дата пометки                             : UTC 2013-05-25 20:17:46

Общее
Полное имя                               : C:\Users\User\Desktop\Red Hot Chili Peppers - Road Trippin' Through Time - 2011 [ALAC]\13. Tell Me Baby.m4a
Формат                                   : MPEG-4
Профиль формата                          : Apple audio with iTunes info
Идентификатор кодека                     : M4A
Размер файла                             : 31,0 Мбайт
Продолжительность                        : 4 м. 10 с.
Режим общего битрейта                    : Переменный
Общий поток                              : 1038 Кбит/сек
Альбом                                   : Road Trippin' Through Time
Трек                                     : Tell Me Baby
Трек/Положение                           : 13
Исполнитель                              : Red Hot Chili Peppers
Жанр                                     : Rock
Дата записи                              : 2011
Дата кодирования                         : UTC 2013-05-25 20:17:46
Дата пометки                             : UTC 2013-05-25 20:17:49
Программа кодирования                    : Easy CD-DA Extractor (http://www.poikosoft.com)
Обложка                                  : Yes

Аудио
Идентификатор                            : 1
Формат                                   : ALAC
Идентификатор кодека                     : alac
Идентификатор кодека/Информация          : Apple Lossless Audio Codec
Продолжительность                        : 4 м. 10 с.
Duration_LastFrame                       : -57 мс.
Вид битрейта                             : Переменный
Битрейт                                  : 1035 Кбит/сек
Каналы                                   : 2 канала
Частота                                  : 44,1 КГц
Битовая глубина                          : 16 бит
Размер потока                            : 30,9 Мбайт (100%)
Язык                                     : English
Дата кодирования                         : UTC 2013-05-25 20:17:46
Дата пометки                             : UTC 2013-05-25 20:17:49

Общее
Полное имя                               : C:\Users\User\Desktop\Red Hot Chili Peppers - Road Trippin' Through Time - 2011 [ALAC]\14. Dani California.m4a
Формат                                   : MPEG-4
Профиль формата                          : Apple audio with iTunes info
Идентификатор кодека                     : M4A
Размер файла                             : 36,2 Мбайт
Продолжительность                        : 4 м. 45 с.
Режим общего битрейта                    : Переменный
Общий поток                              : 1062 Кбит/сек
Альбом                                   : Road Trippin' Through Time
Трек                                     : Dani California
Трек/Положение                           : 14
Исполнитель                              : Red Hot Chili Peppers
Жанр                                     : Rock
Дата записи                              : 2011
Дата кодирования                         : UTC 2013-05-25 20:17:46
Дата пометки                             : UTC 2013-05-25 20:17:50
Программа кодирования                    : Easy CD-DA Extractor (http://www.poikosoft.com)
Обложка                                  : Yes

Аудио
Идентификатор                            : 1
Формат                                   : ALAC
Идентификатор кодека                     : alac
Идентификатор кодека/Информация          : Apple Lossless Audio Codec
Продолжительность                        : 4 м. 45 с.
Duration_LastFrame                       : -58 мс.
Вид битрейта                             : Переменный
Битрейт                                  : 1059 Кбит/сек
Каналы                                   : 2 канала
Частота                                  : 44,1 КГц
Битовая глубина                          : 16 бит
Размер потока                            : 36,1 Мбайт (100%)
Язык                                     : English
Дата кодирования                         : UTC 2013-05-25 20:17:46
Дата пометки                             : UTC 2013-05-25 20:17:50

Общее
Полное имя                               : C:\Users\User\Desktop\Red Hot Chili Peppers - Road Trippin' Through Time - 2011 [ALAC]\15. Can't Stop.m4a
Формат                                   : MPEG-4
Профиль формата                          : Apple audio with iTunes info
Идентификатор кодека                     : M4A
Размер файла                             : 33,3 Мбайт
Продолжительность                        : 4 м. 31 с.
Режим общего битрейта                    : Переменный
Общий поток                              : 1031 Кбит/сек
Альбом                                   : Road Trippin' Through Time
Трек                                     : Can't Stop
Трек/Положение                           : 15
Исполнитель                              : Red Hot Chili Peppers
Жанр                                     : Rock
Дата записи                              : 2011
Дата кодирования                         : UTC 2013-05-25 20:17:49
Дата пометки                             : UTC 2013-05-25 20:17:53
Программа кодирования                    : Easy CD-DA Extractor (http://www.poikosoft.com)
Обложка                                  : Yes

Аудио
Идентификатор                            : 1
Формат                                   : ALAC
Идентификатор кодека                     : alac
Идентификатор кодека/Информация          : Apple Lossless Audio Codec
Продолжительность                        : 4 м. 31 с.
Duration_LastFrame                       : -62 мс.
Вид битрейта                             : Переменный
Битрейт                                  : 1028 Кбит/сек
Каналы                                   : 2 канала
Частота                                  : 44,1 КГц
Битовая глубина                          : 16 бит
Размер потока                            : 33,2 Мбайт (100%)
Язык                                     : English
Дата кодирования                         : UTC 2013-05-25 20:17:49
Дата пометки                             : UTC 2013-05-25 20:17:52

Общее
Полное имя                               : C:\Users\User\Desktop\Red Hot Chili Peppers - Road Trippin' Through Time - 2011 [ALAC]\16. Parallel Universe.m4a
Формат                                   : MPEG-4
Профиль формата                          : Apple audio with iTunes info
Идентификатор кодека                     : M4A
Размер файла                             : 34,3 Мбайт
Продолжительность                        : 4 м. 32 с.
Режим общего битрейта                    : Переменный
Общий поток                              : 1058 Кбит/сек
Альбом                                   : Road Trippin' Through Time
Трек                                     : Parallel Universe
Трек/Положение                           : 16
Исполнитель                              : Red Hot Chili Peppers
Жанр                                     : Rock
Дата записи                              : 2011
Дата кодирования                         : UTC 2013-05-25 20:17:50
Дата пометки                             : UTC 2013-05-25 20:17:53
Программа кодирования                    : Easy CD-DA Extractor (http://www.poikosoft.com)
Обложка                                  : Yes

Аудио
Идентификатор                            : 1
Формат                                   : ALAC
Идентификатор кодека                     : alac
Идентификатор кодека/Информация          : Apple Lossless Audio Codec
Продолжительность                        : 4 м. 32 с.
Duration_LastFrame                       : -70 мс.
Вид битрейта                             : Переменный
Битрейт                                  : 1055 Кбит/сек
Каналы                                   : 2 канала
Частота                                  : 44,1 КГц
Битовая глубина                          : 16 бит
Размер потока                            : 34,3 Мбайт (100%)
Язык                                     : English
Дата кодирования                         : UTC 2013-05-25 20:17:50
Дата пометки                             : UTC 2013-05-25 20:17:53

Общее
Полное имя                               : C:\Users\User\Desktop\Red Hot Chili Peppers - Road Trippin' Through Time - 2011 [ALAC]\17. The Zephyr Song.m4a
Формат                                   : MPEG-4
Профиль формата                          : Apple audio with iTunes info
Идентификатор кодека                     : M4A
Размер файла                             : 29,2 Мбайт
Продолжительность                        : 3 м. 54 с.
Режим общего битрейта                    : Переменный
Общий поток                              : 1044 Кбит/сек
Альбом                                   : Road Trippin' Through Time
Трек                                     : The Zephyr Song
Трек/Положение                           : 17
Исполнитель                              : Red Hot Chili Peppers
Жанр                                     : Rock
Дата записи                              : 2011
Дата кодирования                         : UTC 2013-05-25 20:17:53
Дата пометки                             : UTC 2013-05-25 20:17:56
Программа кодирования                    : Easy CD-DA Extractor (http://www.poikosoft.com)
Обложка                                  : Yes

Аудио
Идентификатор                            : 1
Формат                                   : ALAC
Идентификатор кодека                     : alac
Идентификатор кодека/Информация          : Apple Lossless Audio Codec
Продолжительность                        : 3 м. 54 с.
Duration_LastFrame                       : -30 мс.
Вид битрейта                             : Переменный
Битрейт                                  : 1041 Кбит/сек
Каналы                                   : 2 канала
Частота                                  : 44,1 КГц
Битовая глубина                          : 16 бит
Размер потока                            : 29,1 Мбайт (100%)
Язык                                     : English
Дата кодирования                         : UTC 2013-05-25 20:17:53
Дата пометки                             : UTC 2013-05-25 20:17:56

Общее
Полное имя                               : C:\Users\User\Desktop\Red Hot Chili Peppers - Road Trippin' Through Time - 2011 [ALAC]\18. Road Trippin'.m4a
Формат                                   : MPEG-4
Профиль формата                          : Apple audio with iTunes info
Идентификатор кодека                     : M4A
Размер файла                             : 22,2 Мбайт
Продолжительность                        : 3 м. 25 с.
Режим общего битрейта                    : Переменный
Общий поток                              : 906 Кбит/сек
Альбом                                   : Road Trippin' Through Time
Трек                                     : Road Trippin'
Трек/Положение                           : 18
Исполнитель                              : Red Hot Chili Peppers
Жанр                                     : Rock
Дата записи                              : 2011
Дата кодирования                         : UTC 2013-05-25 20:17:53
Дата пометки                             : UTC 2013-05-25 20:17:56
Программа кодирования                    : Easy CD-DA Extractor (http://www.poikosoft.com)
Обложка                                  : Yes

Аудио
Идентификатор                            : 1
Формат                                   : ALAC
Идентификатор кодека                     : alac
Идентификатор кодека/Информация          : Apple Lossless Audio Codec
Продолжительность                        : 3 м. 25 с.
Duration_LastFrame                       : -88 мс.
Вид битрейта                             : Переменный
Битрейт                                  : 902 Кбит/сек
Каналы                                   : 2 канала
Частота                                  : 44,1 КГц
Битовая глубина                          : 16 бит
Размер потока                            : 22,1 Мбайт (100%)
Язык                                     : English
Дата кодирования                         : UTC 2013-05-25 20:17:53
Дата пометки                             : UTC 2013-05-25 20:17:56

Общее
Полное имя                               : C:\Users\User\Desktop\Red Hot Chili Peppers - Road Trippin' Through Time - 2011 [ALAC]\Folder.auCDtect.txt
Размер файла                             : 7,13 Кбайт

Код:

-----------------------

DON'T MODIFY THIS FILE

-----------------------

PERFORMER: auCDtect Task Manager, ver. 1.6.0 RC1 build 1.6.0.1
Copyright (c) 2008-2010 y-soft. All rights reserved
http://y-soft.org

ANALYZER: auCDtect: CD records authenticity detector, version 0.8.2
Copyright (c) 2004 Oleg Berngardt. All rights reserved.
Copyright (c) 2004 Alexander Djourik. All rights reserved.

FILE: 18. Road Trippin'.m4a
  Size: 23299627 Hash: 6A68937448DC33BC50B4ABF4C72BB601 Accuracy: -m0
  Conclusion: CDDA 100%
  Signature: 63D71C33B82FC99D31F45ADD468CAF6CF81F5356
FILE: 17. The Zephyr Song.m4a
  Size: 30567663 Hash: F95261F43372B0981AB35C859B4CD116 Accuracy: -m0
  Conclusion: CDDA 100%
  Signature: A1E5EB4EDCA979AB405C5B61E83BBC928863743A
FILE: 16. Parallel Universe.m4a
  Size: 36015456 Hash: 7ABAF10887C8539E015B8FFD9647A09C Accuracy: -m0
  Conclusion: CDDA 100%
  Signature: 6D4086A82EADBE82A1845C3221740558A48DB5A7
FILE: 15. Can't Stop.m4a
  Size: 34943597 Hash: C7494C21C253E7A0B089E86196B3B010 Accuracy: -m0
  Conclusion: CDDA 100%
  Signature: 9832A0150FF438AD0B1B322A4FBFF8219F71F7B5
FILE: 14. Dani California.m4a
  Size: 37915598 Hash: 26BE8A1655289CC85CCC934C01610F73 Accuracy: -m0
  Conclusion: CDDA 100%
  Signature: 7567544F67B8F9095BFA86D7BFB552243F8027E4
FILE: 13. Tell Me Baby.m4a
  Size: 32472502 Hash: A274142BA0DA4727B2202D8C02409B19 Accuracy: -m0
  Conclusion: CDDA 100%
  Signature: 0F867214A571414EA005831365CDC55F10A36D5A
FILE: 12. Soul To Squeeze.m4a
  Size: 35926276 Hash: 02A1188517029E1346E5DBF79E5C64D7 Accuracy: -m0
  Conclusion: CDDA 100%
  Signature: 6BC3EA9570F7B5987939C10713A470BD6122702A
FILE: 11. Snow (Hey Oh).m4a
  Size: 42214922 Hash: 68EECA3D29B7ED2908DC8C837B054D6F Accuracy: -m0
  Conclusion: CDDA 100%
  Signature: BD4772A3C7D8FE8AD37F0158FFDDC95D52B8D872
FILE: 10. By The Way.m4a
  Size: 26844802 Hash: 06E676411531BA3E100D864165FF8B97 Accuracy: -m0
  Conclusion: CDDA 100%
  Signature: 7A33C868FCC75683B65C3C58C39E3A8521317F06
FILE: 09. Californication.m4a
  Size: 40005412 Hash: F5FD3D6F4D018E71E2817D4DF4EA67CE Accuracy: -m0
  Conclusion: CDDA 100%
  Signature: 2C49DBC620559C3819BDF8181D36F8EEA72F6D2A
FILE: 08. Aeroplane.m4a
  Size: 30855289 Hash: BA870D710E25A49EC23F43FADA7CACEE Accuracy: -m0
  Conclusion: CDDA 100%
  Signature: 715110ABFEE651B310344FB0FBEA9C267B75F594
FILE: 07. Otherside.m4a
  Size: 32466639 Hash: DE49B04390F1179FE7AE27500650BCDF Accuracy: -m0
  Conclusion: CDDA 99%
  Signature: DBBB172F0C5014604FD05E84204CC871A6ABBFD6
FILE: 06. Around The World.m4a
  Size: 31618551 Hash: 1CA8B1CD2C959CE1CD33D8054B19A6BF Accuracy: -m0
  Conclusion: CDDA 100%
  Signature: 91464D36BB4B86B7C045D872C0F65FBBCB5AB9E5
FILE: 05. Breaking The Girl.m4a
  Size: 38685610 Hash: 7999F23706A38E78C82C3D1601714407 Accuracy: -m0
  Conclusion: CDDA 100%
  Signature: C3435D3B0DA5D8A1014A00ECE35F05A82F1E0496
FILE: 04. Scar Tissue.m4a
  Size: 26816071 Hash: AE01E400BFB64072C8DDCC9099278321 Accuracy: -m0
  Conclusion: CDDA 100%
  Signature: CA49619B8521A1D36929E350EDDEA9A28FD0123C
FILE: 03. Suck My Kiss.m4a
  Size: 30924513 Hash: FE68B0C1EAFDF7B0D36EFBA1A111AFBC Accuracy: -m0
  Conclusion: CDDA 100%
  Signature: 0CDB42B043A36A8616D60169B5F9BC24C1057033
FILE: 02. Under The Bridge.m4a
  Size: 30253734 Hash: ED406D5A5932FF9548A9F46E2D5AC759 Accuracy: -m0
  Conclusion: CDDA 100%
  Signature: 04B1F1A0CCB18FF358DA57FC6D80374FEDB4A8F2
FILE: 01. Give It Away.m4a
  Size: 43240145 Hash: 884E7948F0144C721C8BF23D7E78D940 Accuracy: -m0
  Conclusion: CDDA 100%
  Signature: E308621AE7AA3BE9F75D4C8AF1504F969857DA10
Время раздачи: 24/7 до трех скачавших
[NNM-Club.ru]_Red Hot Chili Peppers - Road Trippin Through Time.torrent
 Торрент: Платиновая раздача  Зарегистрирован
 
Скачать


 Зарегистрирован:   26 Май 2013 20:07:22
 Размер:   577 MB  (
 Рейтинг:   4.9 (Голосов: 28)
 Поблагодарили:   125
 Проверка:   Оформление проверено модератором 26 Май 2013 20:22:42
Как cкачать  ·  Как раздать  ·  Правильно оформить  ·  Поднять ратио!  
Maximum1506
Стаж: 11 лет
Сообщений: 6
Ratio: 3.088
Поблагодарили: 16
100%
russia.gif
Доброй ночи, встанбте на раздачу, пожалуйста!)
Показать сообщения:   
Начать новую тему   Ответить на тему    Торрент-трекер NNM-Club -> Аудио и Видео -> Музыка Lossless (ALAC) Часовой пояс: GMT + 3
Страница 1 из 1