Классический форум-трекер
canvas not supported
Нас вместе: 4 166 486

П. И. Чайковский - Балет "Щелкунчик": Андре Превин и Лондонский симфонический оркестр (1972) ремастеринг /2012, EMI Records/ [ALAC 24/96|WEB-DL]<Classical>


 
 
RSS
Начать новую тему   Ответить на тему    Торрент-трекер NNM-Club -> Аудио и Видео -> Музыка Lossless (ALAC)
Автор Сообщение
kat@kat ®
Модератор Apple
Стаж: 11 лет 10 мес.
Сообщений: 37972
Ratio: 260.076
Поблагодарили: 567417
100%
Петр Чайковский - Щелкунчик
Андре Превин и Лондонский симфонический оркестр (1972) Remaster /2012/

Tchaikovsky - The Nutcracker (Andre Previn & London Symphony Orchestra)

Год: 2012
Жанр: Classical
Источник: HDtracks |24bit 96kHz
Лейбл: EMI Records Ltd.
℗ 2011 The copyright in this sound recording is owned by EMI Records Ltd. Digital Remastering
℗ 1972 by EMI Records Ltd.
Продолжительность: 01:25:59

Кодек: ALAC
Битрейт: Lossless
Тип раздачи: Tracks
Вшитые обложки: Есть
Кодирование: X Lossless Decoder 20130720, QuickTime 7.7.1
Исходник: flac|Tracks

Треклист:
01. Miniature Overture (3:29)
02. Decoration of the Christmas Tree (4:17)
03. March (2:24)
04. Children's Galop and Entry of the Parents (2:27)
05. Arrival of Drosselmayer (5:43)
06. The Nutcracker and Grandfather Dance (5:43)
07. Departure of the guests (Clara and the Nutcracker) (6:36)
08. The Battle and Transformation Scene (3:21)
09. The forest of fir trees in Winter (Journey through the snow) (3:58)
10. Waltz of the Snowfalkes (6:21)
11. The Enchanted Palace of the Kingdom of Sweets (The magic castle) (4:30)
12. Arrival of Clara and the Nutcracker (4:34)
13. Chocolate (Spanish Dance) (1:11)
14. Coffee (Arab Dance) (3:12)
15. Tea (Chinese Dance) (1:07)
16. Trepak (Russian Dance) (1:07)
17. Dance of the Mirlitons (Flutes) (2:17)
18. Mother Gigogne and the Clowns (2:57)
19. Waltz of the Flowers (6:54)
20. Pas de deux (4:57)
21. Variation I (Tarantella) (0:41)
22. Variation II (Dance of the Sugar-Plum Fairy) & Coda (3:29)
23. Final Waltz & Apotheose (5:00)
Код:

General
Complete name          : /Volumes/TM/M/Andrew Skeet-London Philharmonic Orchestra (2012) Tchaikovsky-The Nutcracker (Remaster) (ALAC 24:96)/01 Miniature Overture.m4a
Format              : MPEG-4
Format profile            : Apple audio with iTunes info
Codec ID              : M4A
File size              : 66.6 MiB
Duration              : 3mn 29s
Overall bit rate mode        : Variable
Overall bit rate          : 2 673 Kbps
Album              : Tchaikovsky: The Nutcracker (2011 - Remaster)
Album/Performer          : Andre Previn & London Symphony Orchestra
Part/Position            : 1
Part/Total            : 1
Track name            : Miniature Overture
Track name/Position        : 1
Track name/Total          : 23
Performer            : Andre Previn & London Symphony Orchestra
Composer            : Pyotr Il'yich Tchaikovsky
Genre              : Classical
Recorded date            : 2012
Tagged date            : UTC 2013-09-23 18:32:26
Writing application          : X Lossless Decoder 20130720, QuickTime 7.7.1
Cover              : Yes

Audio
ID                : 1
Format              : ALAC
Codec ID              : alac
Codec ID/Info            : Apple Lossless Audio Codec
Duration              : 3mn 29s
Duration_LastFrame        : -37ms
Bit rate mode            : Variable
Bit rate              : 2 659 Kbps
Channel(s)            : 2 channels
Sampling rate            : 96.0 KHz
Bit depth              : 24 bits
Stream size            : 66.3 MiB (99%)
Language            : English
General
Complete name          : /Volumes/TM/M/Andrew Skeet-London Philharmonic Orchestra (2012) Tchaikovsky-The Nutcracker (Remaster) (ALAC 24:96)/02 Decoration of the Christmas Tree.m4a
Format              : MPEG-4
Format profile            : Apple audio with iTunes info
Codec ID              : M4A
File size              : 83.3 MiB
Duration              : 4mn 16s
Overall bit rate mode        : Variable
Overall bit rate          : 2 718 Kbps
Album              : Tchaikovsky: The Nutcracker (2011 - Remaster)
Album/Performer          : Andre Previn & London Symphony Orchestra
Part/Position            : 1
Part/Total            : 1
Track name            : Decoration of the Christmas Tree
Track name/Position        : 2
Track name/Total          : 23
Performer            : Andre Previn & London Symphony Orchestra
Composer            : Pyotr Il'yich Tchaikovsky
Genre              : Classical
Recorded date            : 2012
Tagged date            : UTC 2013-09-23 18:32:32
Writing application          : X Lossless Decoder 20130720, QuickTime 7.7.1
Cover              : Yes

Audio
ID                : 1
Format              : ALAC
Codec ID              : alac
Codec ID/Info            : Apple Lossless Audio Codec
Duration              : 4mn 16s
Duration_LastFrame        : -23ms
Bit rate mode            : Variable
Bit rate              : 2 706 Kbps
Channel(s)            : 2 channels
Sampling rate            : 96.0 KHz
Bit depth              : 24 bits
Stream size            : 82.9 MiB (100%)
Language            : English
General
Complete name          : /Volumes/TM/M/Andrew Skeet-London Philharmonic Orchestra (2012) Tchaikovsky-The Nutcracker (Remaster) (ALAC 24:96)/03 March.m4a
Format              : MPEG-4
Format profile            : Apple audio with iTunes info
Codec ID              : M4A
File size              : 47.8 MiB
Duration              : 2mn 23s
Overall bit rate mode        : Variable
Overall bit rate          : 2 788 Kbps
Album              : Tchaikovsky: The Nutcracker (2011 - Remaster)
Album/Performer          : Andre Previn & London Symphony Orchestra
Part/Position            : 1
Part/Total            : 1
Track name            : March
Track name/Position        : 3
Track name/Total          : 23
Performer            : Andre Previn & London Symphony Orchestra
Composer            : Pyotr Il'yich Tchaikovsky
Genre              : Classical
Recorded date            : 2012
Tagged date            : UTC 2013-09-23 18:32:38
Writing application          : X Lossless Decoder 20130720, QuickTime 7.7.1
Cover              : Yes

Audio
ID                : 1
Format              : ALAC
Codec ID              : alac
Codec ID/Info            : Apple Lossless Audio Codec
Duration              : 2mn 23s
Duration_LastFrame        : -11ms
Bit rate mode            : Variable
Bit rate              : 2 767 Kbps
Channel(s)            : 2 channels
Sampling rate            : 96.0 KHz
Bit depth              : 24 bits
Stream size            : 47.4 MiB (99%)
Language            : English
General
Complete name          : /Volumes/TM/M/Andrew Skeet-London Philharmonic Orchestra (2012) Tchaikovsky-The Nutcracker (Remaster) (ALAC 24:96)/04 Children's Galop and Entry of the Parents.m4a
Format              : MPEG-4
Format profile            : Apple audio with iTunes info
Codec ID              : M4A
File size              : 50.3 MiB
Duration              : 2mn 27s
Overall bit rate mode        : Variable
Overall bit rate          : 2 862 Kbps
Album              : Tchaikovsky: The Nutcracker (2011 - Remaster)
Album/Performer          : Andre Previn & London Symphony Orchestra
Part/Position            : 1
Part/Total            : 1
Track name            : Children's Galop and Entry of the Parents
Track name/Position        : 4
Track name/Total          : 23
Performer            : Andre Previn & London Symphony Orchestra
Composer            : Pyotr Il'yich Tchaikovsky
Genre              : Classical
Recorded date            : 2012
Tagged date            : UTC 2013-09-23 18:32:45
Writing application          : X Lossless Decoder 20130720, QuickTime 7.7.1
Cover              : Yes

Audio
ID                : 1
Format              : ALAC
Codec ID              : alac
Codec ID/Info            : Apple Lossless Audio Codec
Duration              : 2mn 27s
Duration_LastFrame        : -23ms
Bit rate mode            : Variable
Bit rate              : 2 842 Kbps
Channel(s)            : 2 channels
Sampling rate            : 96.0 KHz
Bit depth              : 24 bits
Stream size            : 50.0 MiB (99%)
Language            : English
General
Complete name          : /Volumes/TM/M/Andrew Skeet-London Philharmonic Orchestra (2012) Tchaikovsky-The Nutcracker (Remaster) (ALAC 24:96)/05 Arrival of Drosselmayer.m4a
Format              : MPEG-4
Format profile            : Apple audio with iTunes info
Codec ID              : M4A
File size              : 112 MiB
Duration              : 5mn 42s
Overall bit rate mode        : Variable
Overall bit rate          : 2 753 Kbps
Album              : Tchaikovsky: The Nutcracker (2011 - Remaster)
Album/Performer          : Andre Previn & London Symphony Orchestra
Part/Position            : 1
Part/Total            : 1
Track name            : Arrival of Drosselmayer
Track name/Position        : 5
Track name/Total          : 23
Performer            : Andre Previn & London Symphony Orchestra
Composer            : Pyotr Il'yich Tchaikovsky
Genre              : Classical
Recorded date            : 2012
Tagged date            : UTC 2013-09-23 18:32:52
Writing application          : X Lossless Decoder 20130720, QuickTime 7.7.1
Cover              : Yes

Audio
ID                : 1
Format              : ALAC
Codec ID              : alac
Codec ID/Info            : Apple Lossless Audio Codec
Duration              : 5mn 42s
Duration_LastFrame        : -34ms
Bit rate mode            : Variable
Bit rate              : 2 744 Kbps
Channel(s)            : 2 channels
Sampling rate            : 96.0 KHz
Bit depth              : 24 bits
Stream size            : 112 MiB (100%)
Language            : English
General
Complete name          : /Volumes/TM/M/Andrew Skeet-London Philharmonic Orchestra (2012) Tchaikovsky-The Nutcracker (Remaster) (ALAC 24:96)/06 The Nutcracker and Grandfather Dance.m4a
Format              : MPEG-4
Format profile            : Apple audio with iTunes info
Codec ID              : M4A
File size              : 113 MiB
Duration              : 5mn 43s
Overall bit rate mode        : Variable
Overall bit rate          : 2 757 Kbps
Album              : Tchaikovsky: The Nutcracker (2011 - Remaster)
Album/Performer          : Andre Previn & London Symphony Orchestra
Part/Position            : 1
Part/Total            : 1
Track name            : The Nutcracker and Grandfather Dance
Track name/Position        : 6
Track name/Total          : 23
Performer            : Andre Previn & London Symphony Orchestra
Composer            : Pyotr Il'yich Tchaikovsky
Genre              : Classical
Recorded date            : 2012
Encoded date            : UTC 2027-05-02 22:59:26
Tagged date            : UTC 2013-09-23 18:32:58
Writing application          : X Lossless Decoder 20130720, QuickTime 7.7.1
Cover              : Yes

Audio
ID                : 1
Format              : ALAC
Codec ID              : alac
Codec ID/Info            : Apple Lossless Audio Codec
Duration              : 5mn 43s
Duration_LastFrame        : -24ms
Bit rate mode            : Variable
Bit rate              : 2 748 Kbps
Channel(s)            : 2 channels
Sampling rate            : 96.0 KHz
Bit depth              : 24 bits
Stream size            : 113 MiB (100%)
Language            : English
Encoded date            : UTC 2027-05-02 22:59:26
General
Complete name          : /Volumes/TM/M/Andrew Skeet-London Philharmonic Orchestra (2012) Tchaikovsky-The Nutcracker (Remaster) (ALAC 24:96)/07 Departure of the guests (Clara and the Nutcracker).m4a
Format              : MPEG-4
Format profile            : Apple audio with iTunes info
Codec ID              : M4A
File size              : 129 MiB
Duration              : 6mn 35s
Overall bit rate mode        : Variable
Overall bit rate          : 2 726 Kbps
Album              : Tchaikovsky: The Nutcracker (2011 - Remaster)
Album/Performer          : Andre Previn & London Symphony Orchestra
Part/Position            : 1
Part/Total            : 1
Track name            : Departure of the guests (Clara and the Nutcracker)
Track name/Position        : 7
Track name/Total          : 23
Performer            : Andre Previn & London Symphony Orchestra
Composer            : Pyotr Il'yich Tchaikovsky
Genre              : Classical
Recorded date            : 2012
Encoded date            : UTC 2028-12-05 12:00:14
Tagged date            : UTC 2013-09-23 18:33:05
Writing application          : X Lossless Decoder 20130720, QuickTime 7.7.1
Cover              : Yes

Audio
ID                : 1
Format              : ALAC
Codec ID              : alac
Codec ID/Info            : Apple Lossless Audio Codec
Duration              : 6mn 35s
Duration_LastFrame        : -10ms
Bit rate mode            : Variable
Bit rate              : 2 717 Kbps
Channel(s)            : 2 channels
Sampling rate            : 96.0 KHz
Bit depth              : 24 bits
Stream size            : 128 MiB (100%)
Language            : English
Encoded date            : UTC 2028-12-05 12:00:14
General
Complete name          : /Volumes/TM/M/Andrew Skeet-London Philharmonic Orchestra (2012) Tchaikovsky-The Nutcracker (Remaster) (ALAC 24:96)/08 The Battle and Transformation Scene.m4a
Format              : MPEG-4
Format profile            : Apple audio with iTunes info
Codec ID              : M4A
File size              : 69.3 MiB
Duration              : 3mn 20s
Overall bit rate mode        : Variable
Overall bit rate          : 2 894 Kbps
Album              : Tchaikovsky: The Nutcracker (2011 - Remaster)
Album/Performer          : Andre Previn & London Symphony Orchestra
Part/Position            : 1
Part/Total            : 1
Track name            : The Battle and Transformation Scene
Track name/Position        : 8
Track name/Total          : 23
Performer            : Andre Previn & London Symphony Orchestra
Composer            : Pyotr Il'yich Tchaikovsky
Genre              : Classical
Recorded date            : 2012
Encoded date            : UTC 2020-12-14 18:56:14
Tagged date            : UTC 2013-09-23 18:33:10
Writing application          : X Lossless Decoder 20130720, QuickTime 7.7.1
Cover              : Yes

Audio
ID                : 1
Format              : ALAC
Codec ID              : alac
Codec ID/Info            : Apple Lossless Audio Codec
Duration              : 3mn 20s
Duration_LastFrame        : -42ms
Bit rate mode            : Variable
Bit rate              : 2 879 Kbps
Channel(s)            : 2 channels
Sampling rate            : 96.0 KHz
Bit depth              : 24 bits
Stream size            : 68.9 MiB (100%)
Language            : English
Encoded date            : UTC 2020-12-14 18:56:14
General
Complete name          : /Volumes/TM/M/Andrew Skeet-London Philharmonic Orchestra (2012) Tchaikovsky-The Nutcracker (Remaster) (ALAC 24:96)/09 The forest of fir trees in Winter (Journey through the snow).m4a
Format              : MPEG-4
Format profile            : Apple audio with iTunes info
Codec ID              : M4A
File size              : 80.6 MiB
Duration              : 3mn 57s
Overall bit rate mode        : Variable
Overall bit rate          : 2 845 Kbps
Album              : Tchaikovsky: The Nutcracker (2011 - Remaster)
Album/Performer          : Andre Previn & London Symphony Orchestra
Part/Position            : 1
Part/Total            : 1
Track name            : The forest of fir trees in Winter (Journey through the snow)
Track name/Position        : 9
Track name/Total          : 23
Performer            : Andre Previn & London Symphony Orchestra
Composer            : Pyotr Il'yich Tchaikovsky
Genre              : Classical
Recorded date            : 2012
Encoded date            : UTC 2024-09-04 01:18:06
Tagged date            : UTC 2013-09-23 18:33:17
Writing application          : X Lossless Decoder 20130720, QuickTime 7.7.1
Cover              : Yes

Audio
ID                : 1
Format              : ALAC
Codec ID              : alac
Codec ID/Info            : Apple Lossless Audio Codec
Duration              : 3mn 57s
Duration_LastFrame        : -32ms
Bit rate mode            : Variable
Bit rate              : 2 833 Kbps
Channel(s)            : 2 channels
Sampling rate            : 96.0 KHz
Bit depth              : 24 bits
Stream size            : 80.3 MiB (100%)
Language            : English
Encoded date            : UTC 2024-09-04 01:18:06
General
Complete name          : /Volumes/TM/M/Andrew Skeet-London Philharmonic Orchestra (2012) Tchaikovsky-The Nutcracker (Remaster) (ALAC 24:96)/10 Waltz of the Snowfalkes.m4a
Format              : MPEG-4
Format profile            : Apple audio with iTunes info
Codec ID              : M4A
File size              : 126 MiB
Duration              : 6mn 21s
Overall bit rate mode        : Variable
Overall bit rate          : 2 764 Kbps
Album              : Tchaikovsky: The Nutcracker (2011 - Remaster)
Album/Performer          : Andre Previn & London Symphony Orchestra
Part/Position            : 1
Part/Total            : 1
Track name            : Waltz of the Snowfalkes
Track name/Position        : 10
Track name/Total          : 23
Performer            : Andre Previn & London Symphony Orchestra
Composer            : Pyotr Il'yich Tchaikovsky
Genre              : Classical
Recorded date            : 2012
Encoded date            : UTC 2029-06-17 16:20:30
Tagged date            : UTC 2013-09-23 18:33:22
Writing application          : X Lossless Decoder 20130720, QuickTime 7.7.1
Cover              : Yes

Audio
ID                : 1
Format              : ALAC
Codec ID              : alac
Codec ID/Info            : Apple Lossless Audio Codec
Duration              : 6mn 21s
Duration_LastFrame        : -42ms
Bit rate mode            : Variable
Bit rate              : 2 755 Kbps
Channel(s)            : 2 channels
Sampling rate            : 96.0 KHz
Bit depth              : 24 bits
Stream size            : 125 MiB (100%)
Language            : English
Encoded date            : UTC 2029-06-17 16:20:30
General
Complete name          : /Volumes/TM/M/Andrew Skeet-London Philharmonic Orchestra (2012) Tchaikovsky-The Nutcracker (Remaster) (ALAC 24:96)/11 The Enchanted Palace of the Kingdom of Sweets (The magic castle).m4a
Format              : MPEG-4
Format profile            : Apple audio with iTunes info
Codec ID              : M4A
File size              : 87.0 MiB
Duration              : 4mn 29s
Overall bit rate mode        : Variable
Overall bit rate          : 2 703 Kbps
Album              : Tchaikovsky: The Nutcracker (2011 - Remaster)
Album/Performer          : Andre Previn & London Symphony Orchestra
Part/Position            : 1
Part/Total            : 1
Track name            : The Enchanted Palace of the Kingdom of Sweets (The magic castle)
Track name/Position        : 11
Track name/Total          : 23
Performer            : Andre Previn & London Symphony Orchestra
Composer            : Pyotr Il'yich Tchaikovsky
Genre              : Classical
Recorded date            : 2012
Encoded date            : UTC 2024-02-22 20:57:50
Tagged date            : UTC 2013-09-23 18:33:29
Writing application          : X Lossless Decoder 20130720, QuickTime 7.7.1
Cover              : Yes

Audio
ID                : 1
Format              : ALAC
Codec ID              : alac
Codec ID/Info            : Apple Lossless Audio Codec
Duration              : 4mn 29s
Duration_LastFrame        : -39ms
Bit rate mode            : Variable
Bit rate              : 2 692 Kbps
Channel(s)            : 2 channels
Sampling rate            : 96.0 KHz
Bit depth              : 24 bits
Stream size            : 86.7 MiB (100%)
Language            : English
Encoded date            : UTC 2024-02-22 20:57:50
General
Complete name          : /Volumes/TM/M/Andrew Skeet-London Philharmonic Orchestra (2012) Tchaikovsky-The Nutcracker (Remaster) (ALAC 24:96)/12 Arrival of Clara and the Nutcracker.m4a
Format              : MPEG-4
Format profile            : Apple audio with iTunes info
Codec ID              : M4A
File size              : 91.3 MiB
Duration              : 4mn 33s
Overall bit rate mode        : Variable
Overall bit rate          : 2 799 Kbps
Album              : Tchaikovsky: The Nutcracker (2011 - Remaster)
Album/Performer          : Andre Previn & London Symphony Orchestra
Part/Position            : 1
Part/Total            : 1
Track name            : Arrival of Clara and the Nutcracker
Track name/Position        : 12
Track name/Total          : 23
Performer            : Andre Previn & London Symphony Orchestra
Composer            : Pyotr Il'yich Tchaikovsky
Genre              : Classical
Recorded date            : 2012
Encoded date            : UTC 2026-04-09 14:18:54
Tagged date            : UTC 2013-09-23 18:33:35
Writing application          : X Lossless Decoder 20130720, QuickTime 7.7.1
Cover              : Yes

Audio
ID                : 1
Format              : ALAC
Codec ID              : alac
Codec ID/Info            : Apple Lossless Audio Codec
Duration              : 4mn 33s
Duration_LastFrame        : -19ms
Bit rate mode            : Variable
Bit rate              : 2 788 Kbps
Channel(s)            : 2 channels
Sampling rate            : 96.0 KHz
Bit depth              : 24 bits
Stream size            : 90.9 MiB (100%)
Language            : English
Encoded date            : UTC 2026-04-09 14:18:54
General
Complete name          : /Volumes/TM/M/Andrew Skeet-London Philharmonic Orchestra (2012) Tchaikovsky-The Nutcracker (Remaster) (ALAC 24:96)/13 Chocolate (Spanish Dance).m4a
Format              : MPEG-4
Format profile            : Apple audio with iTunes info
Codec ID              : M4A
File size              : 23.8 MiB
Duration              : 1mn 10s
Overall bit rate mode        : Variable
Overall bit rate          : 2 825 Kbps
Album              : Tchaikovsky: The Nutcracker (2011 - Remaster)
Album/Performer          : Andre Previn & London Symphony Orchestra
Part/Position            : 1
Part/Total            : 1
Track name            : Chocolate (Spanish Dance)
Track name/Position        : 13
Track name/Total          : 23
Performer            : Andre Previn & London Symphony Orchestra
Composer            : Pyotr Il'yich Tchaikovsky
Genre              : Classical
Recorded date            : 2012
Encoded date            : UTC 2009-04-04 19:30:22
Tagged date            : UTC 2013-09-23 18:33:43
Writing application          : X Lossless Decoder 20130720, QuickTime 7.7.1
Cover              : Yes

Audio
ID                : 1
Format              : ALAC
Codec ID              : alac
Codec ID/Info            : Apple Lossless Audio Codec
Duration              : 1mn 10s
Duration_LastFrame        : -28ms
Bit rate mode            : Variable
Bit rate              : 2 783 Kbps
Channel(s)            : 2 channels
Sampling rate            : 96.0 KHz
Bit depth              : 24 bits
Stream size            : 23.5 MiB (99%)
Language            : English
Encoded date            : UTC 2009-04-04 19:30:22
General
Complete name          : /Volumes/TM/M/Andrew Skeet-London Philharmonic Orchestra (2012) Tchaikovsky-The Nutcracker (Remaster) (ALAC 24:96)/14 Coffee (Arab Dance).m4a
Format              : MPEG-4
Format profile            : Apple audio with iTunes info
Codec ID              : M4A
File size              : 59.7 MiB
Duration              : 3mn 11s
Overall bit rate mode        : Variable
Overall bit rate          : 2 609 Kbps
Album              : Tchaikovsky: The Nutcracker (2011 - Remaster)
Album/Performer          : Andre Previn & London Symphony Orchestra
Part/Position            : 1
Part/Total            : 1
Track name            : Coffee (Arab Dance)
Track name/Position        : 14
Track name/Total          : 23
Performer            : Andre Previn & London Symphony Orchestra
Composer            : Pyotr Il'yich Tchaikovsky
Genre              : Classical
Recorded date            : 2012
Encoded date            : UTC 1977-05-13 11:38:54
Tagged date            : UTC 2013-09-23 18:33:48
Writing application          : X Lossless Decoder 20130720, QuickTime 7.7.1
Cover              : Yes

Audio
ID                : 1
Format              : ALAC
Codec ID              : alac
Codec ID/Info            : Apple Lossless Audio Codec
Duration              : 3mn 11s
Duration_LastFrame        : -24ms
Bit rate mode            : Variable
Bit rate              : 2 594 Kbps
Channel(s)            : 2 channels
Sampling rate            : 96.0 KHz
Bit depth              : 24 bits
Stream size            : 59.4 MiB (99%)
Language            : English
Encoded date            : UTC 1977-05-13 11:38:54
General
Complete name          : /Volumes/TM/M/Andrew Skeet-London Philharmonic Orchestra (2012) Tchaikovsky-The Nutcracker (Remaster) (ALAC 24:96)/15 Tea (Chinese Dance).m4a
Format              : MPEG-4
Format profile            : Apple audio with iTunes info
Codec ID              : M4A
File size              : 21.7 MiB
Duration              : 1mn 6s
Overall bit rate mode        : Variable
Overall bit rate          : 2 718 Kbps
Album              : Tchaikovsky: The Nutcracker (2011 - Remaster)
Album/Performer          : Andre Previn & London Symphony Orchestra
Part/Position            : 1
Part/Total            : 1
Track name            : Tea (Chinese Dance)
Track name/Position        : 15
Track name/Total          : 23
Performer            : Andre Previn & London Symphony Orchestra
Composer            : Pyotr Il'yich Tchaikovsky
Genre              : Classical
Recorded date            : 2012
Encoded date            : UTC 1982-02-24 02:41:18
Tagged date            : UTC 2013-09-23 18:33:54
Writing application          : X Lossless Decoder 20130720, QuickTime 7.7.1
Cover              : Yes

Audio
ID                : 1
Format              : ALAC
Codec ID              : alac
Codec ID/Info            : Apple Lossless Audio Codec
Duration              : 1mn 6s
Duration_LastFrame        : -37ms
Bit rate mode            : Variable
Bit rate              : 2 673 Kbps
Channel(s)            : 2 channels
Sampling rate            : 96.0 KHz
Bit depth              : 24 bits
Stream size            : 21.3 MiB (98%)
Language            : English
Encoded date            : UTC 1982-02-24 02:41:18
General
Complete name          : /Volumes/TM/M/Andrew Skeet-London Philharmonic Orchestra (2012) Tchaikovsky-The Nutcracker (Remaster) (ALAC 24:96)/16 Trepak (Russian Dance).m4a
Format              : MPEG-4
Format profile            : Apple audio with iTunes info
Codec ID              : M4A
File size              : 24.2 MiB
Duration              : 1mn 6s
Overall bit rate mode        : Variable
Overall bit rate          : 3 040 Kbps
Album              : Tchaikovsky: The Nutcracker (2011 - Remaster)
Album/Performer          : Andre Previn & London Symphony Orchestra
Part/Position            : 1
Part/Total            : 1
Track name            : Trepak (Russian Dance)
Track name/Position        : 16
Track name/Total          : 23
Performer            : Andre Previn & London Symphony Orchestra
Composer            : Pyotr Il'yich Tchaikovsky
Genre              : Classical
Recorded date            : 2012
Encoded date            : UTC 1985-05-04 04:42:54
Tagged date            : UTC 2013-09-23 18:33:59
Writing application          : X Lossless Decoder 20130720, QuickTime 7.7.1
Cover              : Yes

Audio
ID                : 1
Format              : ALAC
Codec ID              : alac
Codec ID/Info            : Apple Lossless Audio Codec
Duration              : 1mn 6s
Duration_LastFrame        : -27ms
Bit rate mode            : Variable
Bit rate              : 2 995 Kbps
Channel(s)            : 2 channels
Sampling rate            : 96.0 KHz
Bit depth              : 24 bits
Stream size            : 23.9 MiB (99%)
Language            : English
Encoded date            : UTC 1985-05-04 04:42:54
General
Complete name          : /Volumes/TM/M/Andrew Skeet-London Philharmonic Orchestra (2012) Tchaikovsky-The Nutcracker (Remaster) (ALAC 24:96)/17 Dance of the Mirlitons (Flutes).m4a
Format              : MPEG-4
Format profile            : Apple audio with iTunes info
Codec ID              : M4A
File size              : 43.8 MiB
Duration              : 2mn 17s
Overall bit rate mode        : Variable
Overall bit rate          : 2 671 Kbps
Album              : Tchaikovsky: The Nutcracker (2011 - Remaster)
Album/Performer          : Andre Previn & London Symphony Orchestra
Part/Position            : 1
Part/Total            : 1
Track name            : Dance of the Mirlitons (Flutes)
Track name/Position        : 17
Track name/Total          : 23
Performer            : Andre Previn & London Symphony Orchestra
Composer            : Pyotr Il'yich Tchaikovsky
Genre              : Classical
Recorded date            : 2012
Encoded date            : UTC 1995-06-10 15:07:58
Tagged date            : UTC 2013-09-23 18:34:04
Writing application          : X Lossless Decoder 20130720, QuickTime 7.7.1
Cover              : Yes

Audio
ID                : 1
Format              : ALAC
Codec ID              : alac
Codec ID/Info            : Apple Lossless Audio Codec
Duration              : 2mn 17s
Duration_LastFrame        : -38ms
Bit rate mode            : Variable
Bit rate              : 2 649 Kbps
Channel(s)            : 2 channels
Sampling rate            : 96.0 KHz
Bit depth              : 24 bits
Stream size            : 43.4 MiB (99%)
Language            : English
Encoded date            : UTC 1995-06-10 15:07:58
General
Complete name          : /Volumes/TM/M/Andrew Skeet-London Philharmonic Orchestra (2012) Tchaikovsky-The Nutcracker (Remaster) (ALAC 24:96)/18 Mother Gigogne and the Clowns.m4a
Format              : MPEG-4
Format profile            : Apple audio with iTunes info
Codec ID              : M4A
File size              : 61.6 MiB
Duration              : 2mn 56s
Overall bit rate mode        : Variable
Overall bit rate          : 2 925 Kbps
Album              : Tchaikovsky: The Nutcracker (2011 - Remaster)
Album/Performer          : Andre Previn & London Symphony Orchestra
Part/Position            : 1
Part/Total            : 1
Track name            : Mother Gigogne and the Clowns
Track name/Position        : 18
Track name/Total          : 23
Performer            : Andre Previn & London Symphony Orchestra
Composer            : Pyotr Il'yich Tchaikovsky
Genre              : Classical
Recorded date            : 2012
Encoded date            : UTC 2001-04-15 14:50:54
Tagged date            : UTC 2013-09-23 18:34:09
Writing application          : X Lossless Decoder 20130720, QuickTime 7.7.1
Cover              : Yes

Audio
ID                : 1
Format              : ALAC
Codec ID              : alac
Codec ID/Info            : Apple Lossless Audio Codec
Duration              : 2mn 56s
Duration_LastFrame        : -31ms
Bit rate mode            : Variable
Bit rate              : 2 908 Kbps
Channel(s)            : 2 channels
Sampling rate            : 96.0 KHz
Bit depth              : 24 bits
Stream size            : 61.2 MiB (99%)
Language            : English
Encoded date            : UTC 2001-04-15 14:50:54
General
Complete name          : /Volumes/TM/M/Andrew Skeet-London Philharmonic Orchestra (2012) Tchaikovsky-The Nutcracker (Remaster) (ALAC 24:96)/19 Waltz of the Flowers.m4a
Format              : MPEG-4
Format profile            : Apple audio with iTunes info
Codec ID              : M4A
File size              : 137 MiB
Duration              : 6mn 54s
Overall bit rate mode        : Variable
Overall bit rate          : 2 768 Kbps
Album              : Tchaikovsky: The Nutcracker (2011 - Remaster)
Album/Performer          : Andre Previn & London Symphony Orchestra
Part/Position            : 1
Part/Total            : 1
Track name            : Waltz of the Flowers
Track name/Position        : 19
Track name/Total          : 23
Performer            : Andre Previn & London Symphony Orchestra
Composer            : Pyotr Il'yich Tchaikovsky
Genre              : Classical
Recorded date            : 2012
Encoded date            : UTC 2013-07-07 18:37:02
Tagged date            : UTC 2013-09-23 18:34:14
Writing application          : X Lossless Decoder 20130720, QuickTime 7.7.1
Cover              : Yes

Audio
ID                : 1
Format              : ALAC
Codec ID              : alac
Codec ID/Info            : Apple Lossless Audio Codec
Duration              : 6mn 54s
Duration_LastFrame        : -12ms
Bit rate mode            : Variable
Bit rate              : 2 760 Kbps
Channel(s)            : 2 channels
Sampling rate            : 96.0 KHz
Bit depth              : 24 bits
Stream size            : 136 MiB (100%)
Language            : English
Encoded date            : UTC 2013-07-07 18:37:02

General
Complete name          : /Volumes/TM/M/Andrew Skeet-London Philharmonic Orchestra (2012) Tchaikovsky-The Nutcracker (Remaster) (ALAC 24:96)/20 Pas de deux.m4a
Format              : MPEG-4
Format profile            : Apple audio with iTunes info
Codec ID              : M4A
File size              : 99.4 MiB
Duration              : 4mn 57s
Overall bit rate mode        : Variable
Overall bit rate          : 2 808 Kbps
Album              : Tchaikovsky: The Nutcracker (2011 - Remaster)
Album/Performer          : Andre Previn & London Symphony Orchestra
Part/Position            : 1
Part/Total            : 1
Track name            : Pas de deux
Track name/Position        : 20
Track name/Total          : 23
Performer            : Andre Previn & London Symphony Orchestra
Composer            : Pyotr Il'yich Tchaikovsky
Genre              : Classical
Recorded date            : 2012
Encoded date            : UTC 2024-09-05 13:42:38
Tagged date            : UTC 2013-09-23 18:34:22
Writing application          : X Lossless Decoder 20130720, QuickTime 7.7.1
Cover              : Yes

Audio
ID                : 1
Format              : ALAC
Codec ID              : alac
Codec ID/Info            : Apple Lossless Audio Codec
Duration              : 4mn 57s
Duration_LastFrame        : -33ms
Bit rate mode            : Variable
Bit rate              : 2 798 Kbps
Channel(s)            : 2 channels
Sampling rate            : 96.0 KHz
Bit depth              : 24 bits
Stream size            : 99.1 MiB (100%)
Language            : English
Encoded date            : UTC 2024-09-05 13:42:38
General
Complete name          : /Volumes/TM/M/Andrew Skeet-London Philharmonic Orchestra (2012) Tchaikovsky-The Nutcracker (Remaster) (ALAC 24:96)/21 Variation I (Tarantella).m4a
Format              : MPEG-4
Format profile            : Apple audio with iTunes info
Codec ID              : M4A
File size              : 13.4 MiB
Duration              : 40s 585ms
Overall bit rate mode        : Variable
Overall bit rate          : 2 773 Kbps
Album              : Tchaikovsky: The Nutcracker (2011 - Remaster)
Album/Performer          : Andre Previn & London Symphony Orchestra
Part/Position            : 1
Part/Total            : 1
Track name            : Variation I (Tarantella)
Track name/Position        : 21
Track name/Total          : 23
Performer            : Andre Previn & London Symphony Orchestra
Composer            : Pyotr Il'yich Tchaikovsky
Genre              : Classical
Recorded date            : 2012
Encoded date            : UTC 2032-02-15 02:26:22
Tagged date            : UTC 2013-09-23 18:34:29
Writing application          : X Lossless Decoder 20130720, QuickTime 7.7.1
Cover              : Yes

Audio
ID                : 1
Format              : ALAC
Codec ID              : alac
Codec ID/Info            : Apple Lossless Audio Codec
Duration              : 40s 585ms
Duration_LastFrame        : -34ms
Bit rate mode            : Variable
Bit rate              : 2 699 Kbps
Channel(s)            : 2 channels
Sampling rate            : 96.0 KHz
Bit depth              : 24 bits
Stream size            : 13.1 MiB (97%)
Language            : English
Encoded date            : UTC 2032-02-15 02:26:22
General
Complete name          : /Volumes/TM/M/Andrew Skeet-London Philharmonic Orchestra (2012) Tchaikovsky-The Nutcracker (Remaster) (ALAC 24:96)/22 Variation II (Dance of the Sugar-Plum Fairy) & Coda.m4a
Format              : MPEG-4
Format profile            : Apple audio with iTunes info
Codec ID              : M4A
File size              : 68.3 MiB
Duration              : 3mn 28s
Overall bit rate mode        : Variable
Overall bit rate          : 2 747 Kbps
Album              : Tchaikovsky: The Nutcracker (2011 - Remaster)
Album/Performer          : Andre Previn & London Symphony Orchestra
Part/Position            : 1
Part/Total            : 1
Track name            : Variation II (Dance of the Sugar-Plum Fairy) & Coda
Track name/Position        : 22
Track name/Total          : 23
Performer            : Andre Previn & London Symphony Orchestra
Composer            : Pyotr Il'yich Tchaikovsky
Genre              : Classical
Recorded date            : 2012
Encoded date            : UTC 1902-12-08 04:21:34
Tagged date            : UTC 2013-09-23 18:34:35
Writing application          : X Lossless Decoder 20130720, QuickTime 7.7.1
Cover              : Yes

Audio
ID                : 1
Format              : ALAC
Codec ID              : alac
Codec ID/Info            : Apple Lossless Audio Codec
Duration              : 3mn 28s
Duration_LastFrame        : -29ms
Bit rate mode            : Variable
Bit rate              : 2 733 Kbps
Channel(s)            : 2 channels
Sampling rate            : 96.0 KHz
Bit depth              : 24 bits
Stream size            : 68.0 MiB (99%)
Language            : English
Encoded date            : UTC 1902-12-08 04:21:34
General
Complete name          : /Volumes/TM/M/Andrew Skeet-London Philharmonic Orchestra (2012) Tchaikovsky-The Nutcracker (Remaster) (ALAC 24:96)/23 Final Waltz & Apotheose.m4a
Format              : MPEG-4
Format profile            : Apple audio with iTunes info
Codec ID              : M4A
File size              : 102 MiB
Duration              : 4mn 59s
Overall bit rate mode        : Variable
Overall bit rate          : 2 845 Kbps
Album              : Tchaikovsky: The Nutcracker (2011 - Remaster)
Album/Performer          : Andre Previn & London Symphony Orchestra
Part/Position            : 1
Part/Total            : 1
Track name            : Final Waltz & Apotheose
Track name/Position        : 23
Track name/Total          : 23
Performer            : Andre Previn & London Symphony Orchestra
Composer            : Pyotr Il'yich Tchaikovsky
Genre              : Classical
Recorded date            : 2012
Tagged date            : UTC 2013-09-23 18:34:40
Writing application          : X Lossless Decoder 20130720, QuickTime 7.7.1
Cover              : Yes

Audio
ID                : 1
Format              : ALAC
Codec ID              : alac
Codec ID/Info            : Apple Lossless Audio Codec
Duration              : 4mn 59s
Duration_LastFrame        : -12ms
Bit rate mode            : Variable
Bit rate              : 2 835 Kbps
Channel(s)            : 2 channels
Sampling rate            : 96.0 KHz
Bit depth              : 24 bits
Stream size            : 101 MiB (100%)
Language            : English

Время раздачи: до 3-х первых скачавших (9.00-19.00 Msk)
[NNM-Club.me]_Tchaikovsky - The Nutcracker - Andre Previn & London Symphony Orchestra (2012) (Remaster)[96-24]ALAC.torrent
 Торрент: Платиновая раздача  Зарегистрирован
 
Скачать


Примагнититься
 Зарегистрирован:   24 Сен 2013 17:34:43
 Размер:   1.67 GB  (
 Рейтинг:   4.8 (Голосов: 51)
 Поблагодарили:   181
 Проверка:   Оформление проверено модератором 24 Сен 2013 22:18:55
Как cкачать  ·  Как раздать  ·  Правильно оформить  ·  Поднять ратио!  
Elsabio
Стаж: 11 лет 4 мес.
Сообщений: 14
Ratio: 1.934
5.51%
Спасибо!
Racer1705
Стаж: 12 лет 1 мес.
Сообщений: 71
Ratio: 5.584
100%
russia.gif
Скорости! Пожалуйста. :)

_________________
“Невозможно всегда быть героем, но всегда можно оставаться человеком”
Показать сообщения:   
Начать новую тему   Ответить на тему    Торрент-трекер NNM-Club -> Аудио и Видео -> Музыка Lossless (ALAC) Часовой пояс: GMT + 3
Страница 1 из 1