Классический форум-трекер
canvas not supported
Нас вместе: 4 166 468

Черный кофе - Светлый металл (1986) [ALAC|Lossless]<Rock>


 
 
RSS
Начать новую тему   Ответить на тему    Торрент-трекер NNM-Club -> Аудио и Видео -> Музыка Lossless (ALAC)
Автор Сообщение
Glebany ®
 
Стаж: 10 лет 8 мес.
Сообщений: 200
Ratio: 142.288
Поблагодарили: 5154
100%
Черный кофе - Светлый металл (1986)
Год: 1986
Жанр: Rock
Продолжительность: 00:42:40

Кодек: ALAC
Битрейт: Lossless
Источник: Собственный рип
Программа конвертер: XLD
Издатель (лейбл): Мистерия Звука
Номер по каталогу: MZ 012-CD

Треклист:
01 - Это - рок
02 - Дьявол во плоти
03 - Путешествие в жизнь
04 - Светлый металл
05 - Света луч
06 - Звездный водоем
07 - Владимирская Русь
08 - Знамя мира
09 - Переступи порог
10 - Звуки космоса
11 - Черный кофе
12 - Из придорожной тени
Код:

General
Complete name                            : /Users/glebarhipov/Desktop/Черный кофе - Светлый металл/01 Чёрный Кофе - Это - Рок!.m4a
Format                                   : MPEG-4
Format profile                           : Apple audio with iTunes info
Codec ID                                 : M4A
File size                                : 31.3 MiB
Duration                                 : 4mn 16s
Overall bit rate mode                    : Variable
Overall bit rate                         : 1 027 Kbps
Album                                    : Светлый Металл
Album/Performer                          : Чёрный кофе
Track name                               : Это - Рок!
Track name/Position                      : 1
Track name/Total                         : 13
Performer                                : Чёрный Кофе
Genre                                    : Rock
Recorded date                            : 1986
Encoded date                             : UTC 2021-09-29 11:00:30
Tagged date                              : UTC 2021-09-29 11:00:30
Writing application                      : X Lossless Decoder 20131102, QuickTime 7.7.3
iTunes_CDDB_1                            : A50ACB0D+207407+13+150+19350+32324+48675+63446+76647+91421+112198+127724+143621+162820+184497+196948
iTunes_CDDB_TrackNumber                  : 1
MusicBrainz Track Id                     : c66eb578-07a7-4014-a5f6-2938090fbf0a
MusicBrainz Album Id                     : f40cdb18-cff8-4749-ad9a-39a36fa67d57
MusicBrainz Artist Id                    : 229cc68b-2a26-4d4c-8963-b70af1e63377
MusicBrainz Album Artist Id              : 229cc68b-2a26-4d4c-8963-b70af1e63377
MusicBrainz Disc Id                      : JOgtYdGSkp3EXjKTtbaYaIddQk0-

Audio
ID                                       : 1
Format                                   : ALAC
Codec ID                                 : alac
Codec ID/Info                            : Apple Lossless Audio Codec
Duration                                 : 4mn 16s
Duration_LastFrame                       : -70ms
Bit rate mode                            : Variable
Bit rate                                 : 1 026 Kbps
Channel(s)                               : 2 channels
Sampling rate                            : 44.1 KHz
Bit depth                                : 16 bits
Stream size                              : 31.3 MiB (100%)
Language                                 : English
Encoded date                             : UTC 2021-09-29 11:00:30
Tagged date                              : UTC 2021-09-29 11:00:30

General
Complete name                            : /Users/glebarhipov/Desktop/Черный кофе - Светлый металл/02 Чёрный Кофе - Дьявол Во Плоти.m4a
Format                                   : MPEG-4
Format profile                           : Apple audio with iTunes info
Codec ID                                 : M4A
File size                                : 21.4 MiB
Duration                                 : 2mn 52s
Overall bit rate mode                    : Variable
Overall bit rate                         : 1 040 Kbps
Album                                    : Светлый Металл
Album/Performer                          : Чёрный кофе
Track name                               : Дьявол Во Плоти
Track name/Position                      : 2
Track name/Total                         : 13
Performer                                : Чёрный Кофе
Genre                                    : Rock
Recorded date                            : 1986
Writing application                      : X Lossless Decoder 20131102, QuickTime 7.7.3
iTunes_CDDB_1                            : A50ACB0D+207407+13+150+19350+32324+48675+63446+76647+91421+112198+127724+143621+162820+184497+196948
iTunes_CDDB_TrackNumber                  : 2
MusicBrainz Track Id                     : 88eb763b-e1b7-4ca4-b9bf-b25159fb23b7
MusicBrainz Album Id                     : f40cdb18-cff8-4749-ad9a-39a36fa67d57
MusicBrainz Artist Id                    : 229cc68b-2a26-4d4c-8963-b70af1e63377
MusicBrainz Album Artist Id              : 229cc68b-2a26-4d4c-8963-b70af1e63377
MusicBrainz Disc Id                      : JOgtYdGSkp3EXjKTtbaYaIddQk0-

Audio
ID                                       : 1
Format                                   : ALAC
Codec ID                                 : alac
Codec ID/Info                            : Apple Lossless Audio Codec
Duration                                 : 2mn 52s
Duration_LastFrame                       : -48ms
Bit rate mode                            : Variable
Bit rate                                 : 1 038 Kbps
Channel(s)                               : 2 channels
Sampling rate                            : 44.1 KHz
Bit depth                                : 16 bits
Stream size                              : 21.4 MiB (100%)
Language                                 : English

General
Complete name                            : /Users/glebarhipov/Desktop/Черный кофе - Светлый металл/03 Чёрный Кофе - Путешествие В Жизнь.m4a
Format                                   : MPEG-4
Format profile                           : Apple audio with iTunes info
Codec ID                                 : M4A
File size                                : 26.5 MiB
Duration                                 : 3mn 38s
Overall bit rate mode                    : Variable
Overall bit rate                         : 1 021 Kbps
Album                                    : Светлый Металл
Album/Performer                          : Чёрный кофе
Track name                               : Путешествие В Жизнь
Track name/Position                      : 3
Track name/Total                         : 13
Performer                                : Чёрный Кофе
Genre                                    : Rock
Recorded date                            : 1986
Encoded date                             : UTC 1999-12-13 19:21:50
Tagged date                              : UTC 1999-12-13 19:21:50
Writing application                      : X Lossless Decoder 20131102, QuickTime 7.7.3
iTunes_CDDB_1                            : A50ACB0D+207407+13+150+19350+32324+48675+63446+76647+91421+112198+127724+143621+162820+184497+196948
iTunes_CDDB_TrackNumber                  : 3
MusicBrainz Track Id                     : 1dbc69e3-30a4-45a9-ae74-9edc82a8bb0c
MusicBrainz Album Id                     : f40cdb18-cff8-4749-ad9a-39a36fa67d57
MusicBrainz Artist Id                    : 229cc68b-2a26-4d4c-8963-b70af1e63377
MusicBrainz Album Artist Id              : 229cc68b-2a26-4d4c-8963-b70af1e63377
MusicBrainz Disc Id                      : JOgtYdGSkp3EXjKTtbaYaIddQk0-

Audio
ID                                       : 1
Format                                   : ALAC
Codec ID                                 : alac
Codec ID/Info                            : Apple Lossless Audio Codec
Duration                                 : 3mn 38s
Duration_LastFrame                       : -68ms
Bit rate mode                            : Variable
Bit rate                                 : 1 020 Kbps
Channel(s)                               : 2 channels
Sampling rate                            : 44.1 KHz
Bit depth                                : 16 bits
Stream size                              : 26.5 MiB (100%)
Language                                 : English
Encoded date                             : UTC 1999-12-13 19:21:50
Tagged date                              : UTC 1999-12-13 19:21:50

General
Complete name                            : /Users/glebarhipov/Desktop/Черный кофе - Светлый металл/04 Чёрный Кофе - Светлый Металл.m4a
Format                                   : MPEG-4
Format profile                           : Apple audio with iTunes info
Codec ID                                 : M4A
File size                                : 24.5 MiB
Duration                                 : 3mn 16s
Overall bit rate mode                    : Variable
Overall bit rate                         : 1 042 Kbps
Album                                    : Светлый Металл
Album/Performer                          : Чёрный кофе
Track name                               : Светлый Металл
Track name/Position                      : 4
Track name/Total                         : 13
Performer                                : Чёрный Кофе
Genre                                    : Rock
Recorded date                            : 1986
Writing application                      : X Lossless Decoder 20131102, QuickTime 7.7.3
iTunes_CDDB_1                            : A50ACB0D+207407+13+150+19350+32324+48675+63446+76647+91421+112198+127724+143621+162820+184497+196948
iTunes_CDDB_TrackNumber                  : 4
MusicBrainz Track Id                     : 35ccc3a5-414d-4251-9304-22deb69c9328
MusicBrainz Album Id                     : f40cdb18-cff8-4749-ad9a-39a36fa67d57
MusicBrainz Artist Id                    : 229cc68b-2a26-4d4c-8963-b70af1e63377
MusicBrainz Album Artist Id              : 229cc68b-2a26-4d4c-8963-b70af1e63377
MusicBrainz Disc Id                      : JOgtYdGSkp3EXjKTtbaYaIddQk0-

Audio
ID                                       : 1
Format                                   : ALAC
Codec ID                                 : alac
Codec ID/Info                            : Apple Lossless Audio Codec
Duration                                 : 3mn 16s
Duration_LastFrame                       : -51ms
Bit rate mode                            : Variable
Bit rate                                 : 1 040 Kbps
Channel(s)                               : 2 channels
Sampling rate                            : 44.1 KHz
Bit depth                                : 16 bits
Stream size                              : 24.4 MiB (100%)
Language                                 : English

General
Complete name                            : /Users/glebarhipov/Desktop/Черный кофе - Светлый металл/05 Чёрный Кофе - Света Луч.m4a
Format                                   : MPEG-4
Format profile                           : Apple audio with iTunes info
Codec ID                                 : M4A
File size                                : 16.3 MiB
Duration                                 : 2mn 56s
Overall bit rate mode                    : Variable
Overall bit rate                         : 777 Kbps
Album                                    : Светлый Металл
Album/Performer                          : Чёрный кофе
Track name                               : Света Луч
Track name/Position                      : 5
Track name/Total                         : 13
Performer                                : Чёрный Кофе
Genre                                    : Rock
Recorded date                            : 1986
Writing application                      : X Lossless Decoder 20131102, QuickTime 7.7.3
iTunes_CDDB_1                            : A50ACB0D+207407+13+150+19350+32324+48675+63446+76647+91421+112198+127724+143621+162820+184497+196948
iTunes_CDDB_TrackNumber                  : 5
MusicBrainz Track Id                     : 7b352ccf-8103-4633-800f-90cd136e3d4c
MusicBrainz Album Id                     : f40cdb18-cff8-4749-ad9a-39a36fa67d57
MusicBrainz Artist Id                    : 229cc68b-2a26-4d4c-8963-b70af1e63377
MusicBrainz Album Artist Id              : 229cc68b-2a26-4d4c-8963-b70af1e63377
MusicBrainz Disc Id                      : JOgtYdGSkp3EXjKTtbaYaIddQk0-

Audio
ID                                       : 1
Format                                   : ALAC
Codec ID                                 : alac
Codec ID/Info                            : Apple Lossless Audio Codec
Duration                                 : 2mn 56s
Duration_LastFrame                       : -87ms
Bit rate mode                            : Variable
Bit rate                                 : 776 Kbps
Channel(s)                               : 2 channels
Sampling rate                            : 44.1 KHz
Bit depth                                : 16 bits
Stream size                              : 16.3 MiB (100%)
Language                                 : English

General
Complete name                            : /Users/glebarhipov/Desktop/Черный кофе - Светлый металл/06 Чёрный Кофе - Звездный Водоем.m4a
Format                                   : MPEG-4
Format profile                           : Apple audio with iTunes info
Codec ID                                 : M4A
File size                                : 23.2 MiB
Duration                                 : 3mn 16s
Overall bit rate mode                    : Variable
Overall bit rate                         : 989 Kbps
Album                                    : Светлый Металл
Album/Performer                          : Чёрный кофе
Track name                               : Звездный Водоем
Track name/Position                      : 6
Track name/Total                         : 13
Performer                                : Чёрный Кофе
Genre                                    : Rock
Recorded date                            : 1986
Encoded date                             : UTC 2008-12-27 15:18:38
Tagged date                              : UTC 2008-12-27 15:18:38
Writing application                      : X Lossless Decoder 20131102, QuickTime 7.7.3
iTunes_CDDB_1                            : A50ACB0D+207407+13+150+19350+32324+48675+63446+76647+91421+112198+127724+143621+162820+184497+196948
iTunes_CDDB_TrackNumber                  : 6
MusicBrainz Track Id                     : a32b595d-d0d1-4517-b847-a6a6373abb50
MusicBrainz Album Id                     : f40cdb18-cff8-4749-ad9a-39a36fa67d57
MusicBrainz Artist Id                    : 229cc68b-2a26-4d4c-8963-b70af1e63377
MusicBrainz Album Artist Id              : 229cc68b-2a26-4d4c-8963-b70af1e63377
MusicBrainz Disc Id                      : JOgtYdGSkp3EXjKTtbaYaIddQk0-

Audio
ID                                       : 1
Format                                   : ALAC
Codec ID                                 : alac
Codec ID/Info                            : Apple Lossless Audio Codec
Duration                                 : 3mn 16s
Duration_LastFrame                       : -11ms
Bit rate mode                            : Variable
Bit rate                                 : 988 Kbps
Channel(s)                               : 2 channels
Sampling rate                            : 44.1 KHz
Bit depth                                : 16 bits
Stream size                              : 23.2 MiB (100%)
Language                                 : English
Encoded date                             : UTC 2008-12-27 15:18:38
Tagged date                              : UTC 2008-12-27 15:18:38

General
Complete name                            : /Users/glebarhipov/Desktop/Черный кофе - Светлый металл/07 Чёрный Кофе - Владимирская Русь.m4a
Format                                   : MPEG-4
Format profile                           : Apple audio with iTunes info
Codec ID                                 : M4A
File size                                : 32.5 MiB
Duration                                 : 4mn 37s
Overall bit rate mode                    : Variable
Overall bit rate                         : 983 Kbps
Album                                    : Светлый Металл
Album/Performer                          : Чёрный кофе
Track name                               : Владимирская Русь
Track name/Position                      : 7
Track name/Total                         : 13
Performer                                : Чёрный Кофе
Genre                                    : Rock
Recorded date                            : 1986
Writing application                      : X Lossless Decoder 20131102, QuickTime 7.7.3
iTunes_CDDB_1                            : A50ACB0D+207407+13+150+19350+32324+48675+63446+76647+91421+112198+127724+143621+162820+184497+196948
iTunes_CDDB_TrackNumber                  : 7
MusicBrainz Track Id                     : b802a65a-e660-43c6-9871-e57a45f6dd65
MusicBrainz Album Id                     : f40cdb18-cff8-4749-ad9a-39a36fa67d57
MusicBrainz Artist Id                    : 229cc68b-2a26-4d4c-8963-b70af1e63377
MusicBrainz Album Artist Id              : 229cc68b-2a26-4d4c-8963-b70af1e63377
MusicBrainz Disc Id                      : JOgtYdGSkp3EXjKTtbaYaIddQk0-

Audio
ID                                       : 1
Format                                   : ALAC
Codec ID                                 : alac
Codec ID/Info                            : Apple Lossless Audio Codec
Duration                                 : 4mn 37s
Duration_LastFrame                       : -34ms
Bit rate mode                            : Variable
Bit rate                                 : 982 Kbps
Channel(s)                               : 2 channels
Sampling rate                            : 44.1 KHz
Bit depth                                : 16 bits
Stream size                              : 32.4 MiB (100%)
Language                                 : English

General
Complete name                            : /Users/glebarhipov/Desktop/Черный кофе - Светлый металл/08 Чёрный Кофе - Знамя Мира.m4a
Format                                   : MPEG-4
Format profile                           : Apple audio with iTunes info
Codec ID                                 : M4A
File size                                : 25.2 MiB
Duration                                 : 3mn 27s
Overall bit rate mode                    : Variable
Overall bit rate                         : 1 020 Kbps
Album                                    : Светлый Металл
Album/Performer                          : Чёрный кофе
Track name                               : Знамя Мира
Track name/Position                      : 8
Track name/Total                         : 13
Performer                                : Чёрный Кофе
Genre                                    : Rock
Recorded date                            : 1986
Encoded date                             : UTC 1973-05-16 06:53:02
Tagged date                              : UTC 1973-05-16 06:53:02
Writing application                      : X Lossless Decoder 20131102, QuickTime 7.7.3
iTunes_CDDB_1                            : A50ACB0D+207407+13+150+19350+32324+48675+63446+76647+91421+112198+127724+143621+162820+184497+196948
iTunes_CDDB_TrackNumber                  : 8
MusicBrainz Track Id                     : 795f483c-23c2-4e13-847e-cf8e0037d2d2
MusicBrainz Album Id                     : f40cdb18-cff8-4749-ad9a-39a36fa67d57
MusicBrainz Artist Id                    : 229cc68b-2a26-4d4c-8963-b70af1e63377
MusicBrainz Album Artist Id              : 229cc68b-2a26-4d4c-8963-b70af1e63377
MusicBrainz Disc Id                      : JOgtYdGSkp3EXjKTtbaYaIddQk0-

Audio
ID                                       : 1
Format                                   : ALAC
Codec ID                                 : alac
Codec ID/Info                            : Apple Lossless Audio Codec
Duration                                 : 3mn 27s
Duration_LastFrame                       : -16ms
Bit rate mode                            : Variable
Bit rate                                 : 1 019 Kbps
Channel(s)                               : 2 channels
Sampling rate                            : 44.1 KHz
Bit depth                                : 16 bits
Stream size                              : 25.2 MiB (100%)
Language                                 : English
Encoded date                             : UTC 1973-05-16 06:53:02
Tagged date                              : UTC 1973-05-16 06:53:02

General
Complete name                            : /Users/glebarhipov/Desktop/Черный кофе - Светлый металл/09 Чёрный Кофе - Страна.m4a
Format                                   : MPEG-4
Format profile                           : Apple audio with iTunes info
Codec ID                                 : M4A
File size                                : 24.2 MiB
Duration                                 : 3mn 31s
Overall bit rate mode                    : Variable
Overall bit rate                         : 960 Kbps
Album                                    : Светлый Металл
Album/Performer                          : Чёрный кофе
Track name                               : Страна
Track name/Position                      : 9
Track name/Total                         : 13
Performer                                : Чёрный Кофе
Genre                                    : Rock
Recorded date                            : 1986
Encoded date                             : UTC 2009-07-10 13:51:10
Tagged date                              : UTC 2009-07-10 13:51:10
Writing application                      : X Lossless Decoder 20131102, QuickTime 7.7.3
iTunes_CDDB_1                            : A50ACB0D+207407+13+150+19350+32324+48675+63446+76647+91421+112198+127724+143621+162820+184497+196948
iTunes_CDDB_TrackNumber                  : 9
MusicBrainz Track Id                     : e79cc87a-a385-4e88-9fc2-77fdaafc7b11
MusicBrainz Album Id                     : f40cdb18-cff8-4749-ad9a-39a36fa67d57
MusicBrainz Artist Id                    : 229cc68b-2a26-4d4c-8963-b70af1e63377
MusicBrainz Album Artist Id              : 229cc68b-2a26-4d4c-8963-b70af1e63377
MusicBrainz Disc Id                      : JOgtYdGSkp3EXjKTtbaYaIddQk0-

Audio
ID                                       : 1
Format                                   : ALAC
Codec ID                                 : alac
Codec ID/Info                            : Apple Lossless Audio Codec
Duration                                 : 3mn 31s
Duration_LastFrame                       : -85ms
Bit rate mode                            : Variable
Bit rate                                 : 958 Kbps
Channel(s)                               : 2 channels
Sampling rate                            : 44.1 KHz
Bit depth                                : 16 bits
Stream size                              : 24.2 MiB (100%)
Language                                 : English
Encoded date                             : UTC 2009-07-10 13:51:10
Tagged date                              : UTC 2009-07-10 13:51:10

General
Complete name                            : /Users/glebarhipov/Desktop/Черный кофе - Светлый металл/10 Чёрный Кофе - Переступи Порог.m4a
Format                                   : MPEG-4
Format profile                           : Apple audio with iTunes info
Codec ID                                 : M4A
File size                                : 30.9 MiB
Duration                                 : 4mn 15s
Overall bit rate mode                    : Variable
Overall bit rate                         : 1 013 Kbps
Album                                    : Светлый Металл
Album/Performer                          : Чёрный кофе
Track name                               : Переступи Порог
Track name/Position                      : 10
Track name/Total                         : 13
Performer                                : Чёрный Кофе
Genre                                    : Rock
Recorded date                            : 1986
Writing application                      : X Lossless Decoder 20131102, QuickTime 7.7.3
iTunes_CDDB_1                            : A50ACB0D+207407+13+150+19350+32324+48675+63446+76647+91421+112198+127724+143621+162820+184497+196948
iTunes_CDDB_TrackNumber                  : 10
MusicBrainz Track Id                     : ac152315-a455-4c7b-8398-c7ed041f079f
MusicBrainz Album Id                     : f40cdb18-cff8-4749-ad9a-39a36fa67d57
MusicBrainz Artist Id                    : 229cc68b-2a26-4d4c-8963-b70af1e63377
MusicBrainz Album Artist Id              : 229cc68b-2a26-4d4c-8963-b70af1e63377
MusicBrainz Disc Id                      : JOgtYdGSkp3EXjKTtbaYaIddQk0-

Audio
ID                                       : 1
Format                                   : ALAC
Codec ID                                 : alac
Codec ID/Info                            : Apple Lossless Audio Codec
Duration                                 : 4mn 15s
Duration_LastFrame                       : -83ms
Bit rate mode                            : Variable
Bit rate                                 : 1 012 Kbps
Channel(s)                               : 2 channels
Sampling rate                            : 44.1 KHz
Bit depth                                : 16 bits
Stream size                              : 30.9 MiB (100%)
Language                                 : English

General
Complete name                            : /Users/glebarhipov/Desktop/Черный кофе - Светлый металл/11 Чёрный Кофе - Звуки Космоса.m4a
Format                                   : MPEG-4
Format profile                           : Apple audio with iTunes info
Codec ID                                 : M4A
File size                                : 35.4 MiB
Duration                                 : 4mn 49s
Overall bit rate mode                    : Variable
Overall bit rate                         : 1 026 Kbps
Album                                    : Светлый Металл
Album/Performer                          : Чёрный кофе
Track name                               : Звуки Космоса
Track name/Position                      : 11
Track name/Total                         : 13
Performer                                : Чёрный Кофе
Genre                                    : Rock
Recorded date                            : 1986
Encoded date                             : UTC 1976-01-12 22:46:38
Tagged date                              : UTC 1976-01-12 22:46:38
Writing application                      : X Lossless Decoder 20131102, QuickTime 7.7.3
iTunes_CDDB_1                            : A50ACB0D+207407+13+150+19350+32324+48675+63446+76647+91421+112198+127724+143621+162820+184497+196948
iTunes_CDDB_TrackNumber                  : 11
MusicBrainz Track Id                     : e5508914-1f46-478b-91a4-7e7bfed34614
MusicBrainz Album Id                     : f40cdb18-cff8-4749-ad9a-39a36fa67d57
MusicBrainz Artist Id                    : 229cc68b-2a26-4d4c-8963-b70af1e63377
MusicBrainz Album Artist Id              : 229cc68b-2a26-4d4c-8963-b70af1e63377
MusicBrainz Disc Id                      : JOgtYdGSkp3EXjKTtbaYaIddQk0-

Audio
ID                                       : 1
Format                                   : ALAC
Codec ID                                 : alac
Codec ID/Info                            : Apple Lossless Audio Codec
Duration                                 : 4mn 49s
Duration_LastFrame                       : -15ms
Bit rate mode                            : Variable
Bit rate                                 : 1 026 Kbps
Channel(s)                               : 2 channels
Sampling rate                            : 44.1 KHz
Bit depth                                : 16 bits
Stream size                              : 35.3 MiB (100%)
Language                                 : English
Encoded date                             : UTC 1976-01-12 22:46:38
Tagged date                              : UTC 1976-01-12 22:46:38

General
Complete name                            : /Users/glebarhipov/Desktop/Черный кофе - Светлый металл/12 Чёрный Кофе - Черный Кофе.m4a
Format                                   : MPEG-4
Format profile                           : Apple audio with iTunes info
Codec ID                                 : M4A
File size                                : 19.8 MiB
Duration                                 : 2mn 46s
Overall bit rate mode                    : Variable
Overall bit rate                         : 1 000 Kbps
Album                                    : Светлый Металл
Album/Performer                          : Чёрный кофе
Track name                               : Черный Кофе
Track name/Position                      : 12
Track name/Total                         : 13
Performer                                : Чёрный Кофе
Genre                                    : Rock
Recorded date                            : 1986
Encoded date                             : UTC 2015-11-27 12:06:38
Tagged date                              : UTC 2015-11-27 12:06:38
Writing application                      : X Lossless Decoder 20131102, QuickTime 7.7.3
iTunes_CDDB_1                            : A50ACB0D+207407+13+150+19350+32324+48675+63446+76647+91421+112198+127724+143621+162820+184497+196948
iTunes_CDDB_TrackNumber                  : 12
MusicBrainz Track Id                     : 8467dc21-a46c-4548-8041-c0b99a4f7b66
MusicBrainz Album Id                     : f40cdb18-cff8-4749-ad9a-39a36fa67d57
MusicBrainz Artist Id                    : 229cc68b-2a26-4d4c-8963-b70af1e63377
MusicBrainz Album Artist Id              : 229cc68b-2a26-4d4c-8963-b70af1e63377
MusicBrainz Disc Id                      : JOgtYdGSkp3EXjKTtbaYaIddQk0-

Audio
ID                                       : 1
Format                                   : ALAC
Codec ID                                 : alac
Codec ID/Info                            : Apple Lossless Audio Codec
Duration                                 : 2mn 46s
Duration_LastFrame                       : -56ms
Bit rate mode                            : Variable
Bit rate                                 : 999 Kbps
Channel(s)                               : 2 channels
Sampling rate                            : 44.1 KHz
Bit depth                                : 16 bits
Stream size                              : 19.8 MiB (100%)
Language                                 : English
Encoded date                             : UTC 2015-11-27 12:06:38
Tagged date                              : UTC 2015-11-27 12:06:38

General
Complete name                            : /Users/glebarhipov/Desktop/Черный кофе - Светлый металл/13 Чёрный Кофе - Из Придорожной Тени.m4a
Format                                   : MPEG-4
Format profile                           : Apple audio with iTunes info
Codec ID                                 : M4A
File size                                : 13.6 MiB
Duration                                 : 2mn 19s
Overall bit rate mode                    : Variable
Overall bit rate                         : 820 Kbps
Album                                    : Светлый Металл
Album/Performer                          : Чёрный кофе
Track name                               : Из Придорожной Тени
Track name/Position                      : 13
Track name/Total                         : 13
Performer                                : Чёрный Кофе
Genre                                    : Rock
Recorded date                            : 1986
Encoded date                             : UTC 2039-10-30 15:18:38
Tagged date                              : UTC 2039-10-30 15:18:38
Writing application                      : X Lossless Decoder 20131102, QuickTime 7.7.3
iTunes_CDDB_1                            : A50ACB0D+207407+13+150+19350+32324+48675+63446+76647+91421+112198+127724+143621+162820+184497+196948
iTunes_CDDB_TrackNumber                  : 13
MusicBrainz Track Id                     : dd748396-81eb-4f98-8f3e-9a91dfe53d08
MusicBrainz Album Id                     : f40cdb18-cff8-4749-ad9a-39a36fa67d57
MusicBrainz Artist Id                    : 229cc68b-2a26-4d4c-8963-b70af1e63377
MusicBrainz Album Artist Id              : 229cc68b-2a26-4d4c-8963-b70af1e63377
MusicBrainz Disc Id                      : JOgtYdGSkp3EXjKTtbaYaIddQk0-

Audio
ID                                       : 1
Format                                   : ALAC
Codec ID                                 : alac
Codec ID/Info                            : Apple Lossless Audio Codec
Duration                                 : 2mn 19s
Duration_LastFrame                       : -52ms
Bit rate mode                            : Variable
Bit rate                                 : 818 Kbps
Channel(s)                               : 2 channels
Sampling rate                            : 44.1 KHz
Bit depth                                : 16 bits
Stream size                              : 13.6 MiB (100%)
Language                                 : English
Encoded date                             : UTC 2039-10-30 15:18:38
Tagged date                              : UTC 2039-10-30 15:18:38

General
Complete name                            : /Users/glebarhipov/Desktop/Черный кофе - Светлый металл/ddc69027f651.jpg
Format                                   : JPEG
File size                                : 124 KiB

Image
Format                                   : JPEG
Width                                    : 500 pixels
Height                                   : 500 pixels
Color space                              : YUV
Chroma subsampling                       : 4:2:2
Bit depth                                : 8 bits
Compression mode                         : Lossy
Stream size                              : 124 KiB (100%)

General
Complete name                            : /Users/glebarhipov/Desktop/Черный кофе - Светлый металл/light07.jpg
Format                                   : JPEG
File size                                : 72.4 KiB

Image
Format                                   : JPEG
Width                                    : 652 pixels
Height                                   : 536 pixels
Color space                              : YUV
Chroma subsampling                       : 4:2:0
Bit depth                                : 8 bits
Compression mode                         : Lossy
Stream size                              : 72.4 KiB (100%)

General
Complete name                            : /Users/glebarhipov/Desktop/Черный кофе - Светлый металл/Светлый Металл.log
File size                                : 13.6 KiB
Код:

X Lossless Decoder version 20131102 (145.0)

XLD extraction logfile from 2014-01-12 02:41:53 +0400

Чёрный кофе / Светлый Металл

Used drive : HL-DT-ST DVDRW  GA32N (revision KE06)
Media type : Pressed CD

Ripper mode             : CDParanoia III 10.2
Disable audio cache     : OK for the drive with a cache less than 2750KiB
Make use of C2 pointers : NO
Read offset correction  : 103
Max retry count         : 20
Gap status              : Analyzed, Appended

TOC of the extracted CD
     Track |   Start  |  Length  | Start sector | End sector
    ---------------------------------------------------------
        1  | 00:00:00 | 04:16:00 |         0    |    19199
        2  | 04:16:00 | 02:52:74 |     19200    |    32173
        3  | 07:08:74 | 03:38:01 |     32174    |    48524
        4  | 10:47:00 | 03:16:71 |     48525    |    63295
        5  | 14:03:71 | 02:56:01 |     63296    |    76496
        6  | 16:59:72 | 03:16:74 |     76497    |    91270
        7  | 20:16:71 | 04:37:02 |     91271    |   112047
        8  | 24:53:73 | 03:27:01 |    112048    |   127573
        9  | 28:20:74 | 03:31:72 |    127574    |   143470
       10  | 31:52:71 | 04:15:74 |    143471    |   162669
       11  | 36:08:70 | 04:49:02 |    162670    |   184346
       12  | 40:57:72 | 02:46:01 |    184347    |   196797
       13  | 43:43:73 | 02:19:34 |    196798    |   207256

AccurateRip Summary (DiscID: 00165b28-00e00ff4-a50acb0d)
    Track 01 : OK (v1+v2, confidence 6/6)
    Track 02 : OK (v1+v2, confidence 6/6)
    Track 03 : OK (v1+v2, confidence 6/6)
    Track 04 : OK (v1+v2, confidence 6/6)
    Track 05 : OK (v1+v2, confidence 6/6)
    Track 06 : OK (v1+v2, confidence 6/6)
    Track 07 : OK (v1+v2, confidence 6/6)
    Track 08 : OK (v1+v2, confidence 6/6)
    Track 09 : OK (v1+v2, confidence 6/6)
    Track 10 : OK (v1+v2, confidence 6/6)
    Track 11 : OK (v1+v2, confidence 6/6)
    Track 12 : OK (v1+v2, confidence 6/6)
    Track 13 : OK (v1+v2, confidence 6/6)
        ->All tracks accurately ripped.

All Tracks
    Album gain               : -9.04 dB
    Peak                     : 1.000000
    Statistics
        Read error                           : 0
        Skipped (treated as error)           : 0
        Edge jitter error (maybe fixed)      : 0
        Atom jitter error (maybe fixed)      : 0
        Drift error (maybe fixed)            : 0
        Dropped bytes error (maybe fixed)    : 0
        Duplicated bytes error (maybe fixed) : 0

Track 01
    Filename : /Users/glebarhipov/Desktop/Новая папка/01 Чёрный Кофе - Это - Рок!.m4a
    Pre-gap length : 00:02:00

    Track gain               : -8.06 dB
    Peak                     : 1.000000
    CRC32 hash (test run)    : 9C01FEC6
    CRC32 hash               : 9C01FEC6
    CRC32 hash (skip zero)   : DC5F05EF
    AccurateRip v1 signature : 904C8B24
    AccurateRip v2 signature : 184AA919
        ->Accurately ripped (v1+v2, confidence 3+3/6)
    Statistics
        Read error                           : 0
        Skipped (treated as error)           : 0
        Edge jitter error (maybe fixed)      : 0
        Atom jitter error (maybe fixed)      : 0
        Drift error (maybe fixed)            : 0
        Dropped bytes error (maybe fixed)    : 0
        Duplicated bytes error (maybe fixed) : 0
        Inconsistency in error sectors       : 0

Track 02
    Filename : /Users/glebarhipov/Desktop/Новая папка/02 Чёрный Кофе - Дьявол Во Плоти.m4a

    Track gain               : -8.64 dB
    Peak                     : 1.000000
    CRC32 hash (test run)    : 34832DCB
    CRC32 hash               : 34832DCB
    CRC32 hash (skip zero)   : BC63AB38
    AccurateRip v1 signature : 92B16ED6
    AccurateRip v2 signature : 912DCA9B
        ->Accurately ripped (v1+v2, confidence 3+3/6)
    Statistics
        Read error                           : 0
        Skipped (treated as error)           : 0
        Edge jitter error (maybe fixed)      : 0
        Atom jitter error (maybe fixed)      : 0
        Drift error (maybe fixed)            : 0
        Dropped bytes error (maybe fixed)    : 0
        Duplicated bytes error (maybe fixed) : 0
        Inconsistency in error sectors       : 0

Track 03
    Filename : /Users/glebarhipov/Desktop/Новая папка/03 Чёрный Кофе - Путешествие В Жизнь.m4a

    Track gain               : -8.37 dB
    Peak                     : 1.000000
    CRC32 hash (test run)    : F98BAD46
    CRC32 hash               : F98BAD46
    CRC32 hash (skip zero)   : EE1CA37A
    AccurateRip v1 signature : 8D467C79
    AccurateRip v2 signature : EC3AFDD7
        ->Accurately ripped (v1+v2, confidence 3+3/6)
    Statistics
        Read error                           : 0
        Skipped (treated as error)           : 0
        Edge jitter error (maybe fixed)      : 0
        Atom jitter error (maybe fixed)      : 0
        Drift error (maybe fixed)            : 0
        Dropped bytes error (maybe fixed)    : 0
        Duplicated bytes error (maybe fixed) : 0
        Inconsistency in error sectors       : 0

Track 04
    Filename : /Users/glebarhipov/Desktop/Новая папка/04 Чёрный Кофе - Светлый Металл.m4a

    Track gain               : -9.78 dB
    Peak                     : 1.000000
    CRC32 hash (test run)    : 3AB45883
    CRC32 hash               : 3AB45883
    CRC32 hash (skip zero)   : 4E7EB510
    AccurateRip v1 signature : 8BC18594
    AccurateRip v2 signature : AEF4B261
        ->Accurately ripped (v1+v2, confidence 3+3/6)
    Statistics
        Read error                           : 0
        Skipped (treated as error)           : 0
        Edge jitter error (maybe fixed)      : 0
        Atom jitter error (maybe fixed)      : 0
        Drift error (maybe fixed)            : 0
        Dropped bytes error (maybe fixed)    : 0
        Duplicated bytes error (maybe fixed) : 0
        Inconsistency in error sectors       : 0

Track 05
    Filename : /Users/glebarhipov/Desktop/Новая папка/05 Чёрный Кофе - Света Луч.m4a

    Track gain               : -8.31 dB
    Peak                     : 0.971313
    CRC32 hash (test run)    : 5E24DA10
    CRC32 hash               : 5E24DA10
    CRC32 hash (skip zero)   : 0E64E79B
    AccurateRip v1 signature : DB300176
    AccurateRip v2 signature : 9BDF4049
        ->Accurately ripped (v1+v2, confidence 3+3/6)
    Statistics
        Read error                           : 0
        Skipped (treated as error)           : 0
        Edge jitter error (maybe fixed)      : 0
        Atom jitter error (maybe fixed)      : 0
        Drift error (maybe fixed)            : 0
        Dropped bytes error (maybe fixed)    : 0
        Duplicated bytes error (maybe fixed) : 0
        Inconsistency in error sectors       : 0

Track 06
    Filename : /Users/glebarhipov/Desktop/Новая папка/06 Чёрный Кофе - Звездный Водоем.m4a

    Track gain               : -9.27 dB
    Peak                     : 1.000000
    CRC32 hash (test run)    : 27E39077
    CRC32 hash               : 27E39077
    CRC32 hash (skip zero)   : 482FA797
    AccurateRip v1 signature : 79469D31
    AccurateRip v2 signature : D3811A6D
        ->Accurately ripped (v1+v2, confidence 3+3/6)
    Statistics
        Read error                           : 0
        Skipped (treated as error)           : 0
        Edge jitter error (maybe fixed)      : 0
        Atom jitter error (maybe fixed)      : 0
        Drift error (maybe fixed)            : 0
        Dropped bytes error (maybe fixed)    : 0
        Duplicated bytes error (maybe fixed) : 0
        Inconsistency in error sectors       : 0

Track 07
    Filename : /Users/glebarhipov/Desktop/Новая папка/07 Чёрный Кофе - Владимирская Русь.m4a

    Track gain               : -8.96 dB
    Peak                     : 1.000000
    CRC32 hash (test run)    : 9F44A1C7
    CRC32 hash               : 9F44A1C7
    CRC32 hash (skip zero)   : E41FB0B9
    AccurateRip v1 signature : 58A8E7BB
    AccurateRip v2 signature : AB794908
        ->Accurately ripped (v1+v2, confidence 3+3/6)
    Statistics
        Read error                           : 0
        Skipped (treated as error)           : 0
        Edge jitter error (maybe fixed)      : 0
        Atom jitter error (maybe fixed)      : 0
        Drift error (maybe fixed)            : 0
        Dropped bytes error (maybe fixed)    : 0
        Duplicated bytes error (maybe fixed) : 0
        Inconsistency in error sectors       : 0

Track 08
    Filename : /Users/glebarhipov/Desktop/Новая папка/08 Чёрный Кофе - Знамя Мира.m4a

    Track gain               : -8.33 dB
    Peak                     : 1.000000
    CRC32 hash (test run)    : B39214C6
    CRC32 hash               : B39214C6
    CRC32 hash (skip zero)   : A3BCCB8A
    AccurateRip v1 signature : 49D84EEC
    AccurateRip v2 signature : EF7EA6B4
        ->Accurately ripped (v1+v2, confidence 3+3/6)
    Statistics
        Read error                           : 0
        Skipped (treated as error)           : 0
        Edge jitter error (maybe fixed)      : 0
        Atom jitter error (maybe fixed)      : 0
        Drift error (maybe fixed)            : 0
        Dropped bytes error (maybe fixed)    : 0
        Duplicated bytes error (maybe fixed) : 0
        Inconsistency in error sectors       : 0

Track 09
    Filename : /Users/glebarhipov/Desktop/Новая папка/09 Чёрный Кофе - Страна.m4a

    Track gain               : -9.98 dB
    Peak                     : 1.000000
    CRC32 hash (test run)    : 48311DD3
    CRC32 hash               : 48311DD3
    CRC32 hash (skip zero)   : F7973C7A
    AccurateRip v1 signature : 4B603009
    AccurateRip v2 signature : 13E1A95A
        ->Accurately ripped (v1+v2, confidence 3+3/6)
    Statistics
        Read error                           : 0
        Skipped (treated as error)           : 0
        Edge jitter error (maybe fixed)      : 0
        Atom jitter error (maybe fixed)      : 0
        Drift error (maybe fixed)            : 0
        Dropped bytes error (maybe fixed)    : 0
        Duplicated bytes error (maybe fixed) : 0
        Inconsistency in error sectors       : 0

Track 10
    Filename : /Users/glebarhipov/Desktop/Новая папка/10 Чёрный Кофе - Переступи Порог.m4a

    Track gain               : -8.93 dB
    Peak                     : 1.000000
    CRC32 hash (test run)    : 43272A9D
    CRC32 hash               : 43272A9D
    CRC32 hash (skip zero)   : E4B088F8
    AccurateRip v1 signature : A59D5A57
    AccurateRip v2 signature : FE4908B4
        ->Accurately ripped (v1+v2, confidence 3+3/6)
    Statistics
        Read error                           : 0
        Skipped (treated as error)           : 0
        Edge jitter error (maybe fixed)      : 0
        Atom jitter error (maybe fixed)      : 0
        Drift error (maybe fixed)            : 0
        Dropped bytes error (maybe fixed)    : 0
        Duplicated bytes error (maybe fixed) : 0
        Inconsistency in error sectors       : 0

Track 11
    Filename : /Users/glebarhipov/Desktop/Новая папка/11 Чёрный Кофе - Звуки Космоса.m4a

    Track gain               : -8.86 dB
    Peak                     : 1.000000
    CRC32 hash (test run)    : B3A7B896
    CRC32 hash               : B3A7B896
    CRC32 hash (skip zero)   : EA9F4D78
    AccurateRip v1 signature : 783E6F7C
    AccurateRip v2 signature : F61675DF
        ->Accurately ripped (v1+v2, confidence 3+3/6)
    Statistics
        Read error                           : 0
        Skipped (treated as error)           : 0
        Edge jitter error (maybe fixed)      : 0
        Atom jitter error (maybe fixed)      : 0
        Drift error (maybe fixed)            : 0
        Dropped bytes error (maybe fixed)    : 0
        Duplicated bytes error (maybe fixed) : 0
        Inconsistency in error sectors       : 0

Track 12
    Filename : /Users/glebarhipov/Desktop/Новая папка/12 Чёрный Кофе - Черный Кофе.m4a

    Track gain               : -9.02 dB
    Peak                     : 1.000000
    CRC32 hash (test run)    : 5B18B784
    CRC32 hash               : 5B18B784
    CRC32 hash (skip zero)   : 85E016AB
    AccurateRip v1 signature : 1D78C96D
    AccurateRip v2 signature : E13498FC
        ->Accurately ripped (v1+v2, confidence 3+3/6)
    Statistics
        Read error                           : 0
        Skipped (treated as error)           : 0
        Edge jitter error (maybe fixed)      : 0
        Atom jitter error (maybe fixed)      : 0
        Drift error (maybe fixed)            : 0
        Dropped bytes error (maybe fixed)    : 0
        Duplicated bytes error (maybe fixed) : 0
        Inconsistency in error sectors       : 0

Track 13
    Filename : /Users/glebarhipov/Desktop/Новая папка/13 Чёрный Кофе - Из Придорожной Тени.m4a

    Track gain               : -5.70 dB
    Peak                     : 0.998199
    CRC32 hash (test run)    : AAD67B19
    CRC32 hash               : AAD67B19
    CRC32 hash (skip zero)   : A762FFB5
    AccurateRip v1 signature : D1C5DE87
    AccurateRip v2 signature : 8A8B59AD
        ->Accurately ripped (v1+v2, confidence 3+3/6)
    Statistics
        Read error                           : 0
        Skipped (treated as error)           : 0
        Edge jitter error (maybe fixed)      : 0
        Atom jitter error (maybe fixed)      : 0
        Drift error (maybe fixed)            : 0
        Dropped bytes error (maybe fixed)    : 0
        Duplicated bytes error (maybe fixed) : 0
        Inconsistency in error sectors       : 0

No errors occurred

End of status report
Время раздачи: 24/7 (круглосуточно)
[NNM-Club.me]_CHernyiy kofe - Svetlyiy metall.torrent
 Торрент: Платиновая раздача  Зарегистрирован
 
Скачать


Примагнититься
 Зарегистрирован:   26 Янв 2014 15:33:25
 Размер:   325 MB  (
 Рейтинг:   4.6 (Голосов: 37)
 Поблагодарили:   89
 Проверка:   Оформление проверено модератором 26 Янв 2014 17:22:54
Как cкачать  ·  Как раздать  ·  Правильно оформить  ·  Поднять ратио!  
bosa
Стаж: 12 лет 6 мес.
Сообщений: 22
Ratio: 3.031
32.79%
russia.gif
благодарствую
Glebany ®
 
Стаж: 10 лет 8 мес.
Сообщений: 200
Ratio: 142.288
Поблагодарили: 5154
100%
bosa
На здоровье!
Gramm67
Стаж: 11 лет 4 мес.
Сообщений: 23
Ratio: 9.3
Поблагодарили: 4
100%
russia.gif
Спасибо за релиз!

_________________

Показать сообщения:   
Начать новую тему   Ответить на тему    Торрент-трекер NNM-Club -> Аудио и Видео -> Музыка Lossless (ALAC) Часовой пояс: GMT + 3
Страница 1 из 1