Классический форум-трекер
canvas not supported
Нас вместе: 4 172 799

Ледниковый период: Коллекция / Ice Age: Collection (2002-2012) [1080p] BDRemux


 
 
RSS
Начать новую тему   Ответить на тему    Торрент-трекер NNM-Club -> Мультфильмы -> Зарубежные Мультфильмы (HD, FHD, UHD)
Автор Сообщение
sergey2925 ®
Uploader 100+
Стаж: 11 лет 9 мес.
Сообщений: 3005
Ratio: 751.8
Раздал: 146.3 TB
Поблагодарили: 38886
100%
Откуда: Kostroma-city
pirates.png
Ледниковый период: Коллекция / Ice Age: Collection (2002-2012) [1080p] BDRemux


Описание: Коллекция мультфильмов о необычайных приключениях мамонта Манфреда, саблезубого тигра Диего, ленивца Сида и их друзей.

Продолжительность: 01:21:09 + 01:30:35 + 01:34:04 + 01:27:45 + 00:25:33
Жанр: мультфильм, комедия, приключения, семейный
Перевод: дублированный, одноголосый закадровый, двухголосый закадровый
Ледниковый период / Ice Age (2002)

«Отмороженные герои»
Русское название: Ледниковый период
Оригинальное название: Ice Age
Год выпуска: 2002
Жaнр: мультфильм, комедия, приключения, семейный
Режисcер: Крис Уэдж, Карлос Салдана
Пeрeвод: дублированный, одноголосый закадровый
Субтитpы: русские, английские

Рoли озвучили: Рэй Романо, Джон Легуизамо, Дэнис Лири, Горан Вишнич, Джек Блэк, Седрик «Развлекатель», Стивен Рут, Дидрих Бадер, Алан Тьюдик, Лорри Бэгли
Рoли дублировaли: Степан Старчиков, Антон Комолов, Александр Груздев, Владимир Радченко, Илья Бледный

Опиcaние фильма:
Веселые и опасные приключения героев. 20 тыс. лет назад. Чтобы избежать приближающегося из-за наступления ледникового периода холода, животные мигрируют на юг. Однако некоторые из них все-таки решают остаться — одинокий, угрюмый мамонт Манфред, а также бесшабашный ленивец Сид.

Случайно эта парочка наталкивается на человеческого детеныша. Они решаются вернуть его людям и отправляются в путешествие. По пути они встречают саблезубого хитрого тигра. И теперь этой веселой компании предстоят забавные приключения!



Дата мировой премьеры: 12 марта 2002
Дата российской премьеры: 21 августа 2002, «Гемини Киномир»
Релиз на DVD: 25 июня 2009, «Двадцатый Век Фокс СНГ»
Релиз на Blu-Ray: 17 декабря 2009, «Двадцатый Век Фокс СНГ»
 
Прoдoлжительность: 01:21:09
Качество видео: BDRemux
Контейнер: MKV
Видеокодек: MPEG-4 AVC/H.264
Аудиокодек: DTS, DTS-HD MA, AC-3
Видео: 1920x1080, ~31539 kbps(1080p, 23.976 fps, 16:9, High @L4.1)
Аудио#1: DTS 5.1, ~768 Kbps, 48.0 KГц - дублированный
Аудио#2: DTS 5.1, ~768 Kbps, 48.0 KГц - одноголосый закадровый (Королёв)
Аудио#3: DTS-HD MA 5.1, ~4100 Kbps, 48.0 KГц - одноголосый закадровый (Гланц)
Аудио#4: DTS-HD MA 5.1, ~4087 Kbps, 48.0 KГц - одноголосый закадровый (Гоблин)
Аудио#5: AC-3 5.1, ~448 Kbps, 48.0 KГц - одноголосый закадровый (смешной перевод)
Аудио#6: DTS-HD MA 5.1, ~4080 Kbps, 48.0 KГц - English
Код: выделить все

Формат                                   : Matroska
Версия формата                           : Version 2
Размер файла                             : 26,0 Гбайт
Продолжительность                        : 1 ч. 21 м.
Режим общего битрейта                    : Переменный
Общий поток                              : 45,8 Мбит/сек
Название фильма                          : Ice Age (2002) [1080p] BDRemux (by sergey2925 for nnm-club.me)
Дата кодирования                         : UTC 2012-12-22 11:01:48
Программа кодирования                    : mkvmerge v5.8.0 ('No Sleep / Pillow') built on Sep  2 2012 15:37:04
Библиотека кодирования                   : libebml v1.2.3 + libmatroska v1.3.0

Видео
Идентификатор                            : 1
Формат                                   : AVC
Формат/Информация                        : Advanced Video Codec
Профиль формата                          : High@L4.1
Параметр CABAC формата                   : Да
Параметр ReFrames формата                : 4 кадра
Идентификатор кодека                     : V_MPEG4/ISO/AVC
Продолжительность                        : 1 ч. 21 м.
Вид битрейта                             : Переменный
Битрейт                                  : 38,2 Мбит/сек
Максимальный битрейт                     : 34,0 Мбит/сек
Ширина                                   : 1920 пикселей
Высота                                   : 1080 пикселей
Соотношение сторон                       : 16:9
Частота кадров                           : 23,976 кадра/сек
Цветовое пространство                    : YUV
Субдискретизация насыщенности            : 4:2:0
Битовая глубина                          : 8 бит
Тип развёртки                            : Прогрессивная
Бит/(Пиксели*Кадры)                      : 0.769
Размер потока                            : 21,7 Гбайт (84%)
Заголовок                                : Ice Age (2002) [1080p] BDRemux
Язык                                     : English
Default                                  : Да
Forced                                   : Нет
Основные цвета                           : BT.709-5, BT.1361, IEC 61966-2-4, SMPTE RP177
Характеристики трансфера                 : BT.709-5, BT.1361
Коэффициенты матрицы                     : BT.709-5, BT.1361, IEC 61966-2-4 709, SMPTE RP177

Аудио #1
Идентификатор                            : 2
Формат                                   : DTS
Формат/Информация                        : Digital Theater Systems
Идентификатор кодека                     : A_DTS
Продолжительность                        : 1 ч. 21 м.
Вид битрейта                             : Постоянный
Битрейт                                  : 755 Кбит/сек
Каналы                                   : 6 каналов
Расположение каналов                     : Front: L C R, Side: L R, LFE
Частота                                  : 48,0 КГц
Битовая глубина                          : 24 бит
Метод сжатия                             : С потерями
Размер потока                            : 438 Мбайт (2%)
Заголовок                                : RUS.DUB.DTS 5.1 ~768 kbps
Язык                                     : Russian
Default                                  : Да
Forced                                   : Нет

Аудио #2
Идентификатор                            : 3
Формат                                   : DTS
Формат/Информация                        : Digital Theater Systems
Идентификатор кодека                     : A_DTS
Продолжительность                        : 1 ч. 21 м.
Вид битрейта                             : Постоянный
Битрейт                                  : 755 Кбит/сек
Каналы                                   : 6 каналов
Расположение каналов                     : Front: L C R, Side: L R, LFE
Частота                                  : 48,0 КГц
Битовая глубина                          : 24 бит
Метод сжатия                             : С потерями
Размер потока                            : 438 Мбайт (2%)
Заголовок                                : RUS.VO(Korolev)DTS 5.1 ~768 kbps
Язык                                     : Russian
Default                                  : Нет
Forced                                   : Нет

Аудио #3
Идентификатор                            : 4
Формат                                   : DTS
Формат/Информация                        : Digital Theater Systems
Профиль формата                          : MA / Core
Идентификатор кодека                     : A_DTS
Продолжительность                        : 1 ч. 21 м.
Вид битрейта                             : Переменный
Битрейт                                  : 1561 Кбит/сек / 1510 Кбит/сек
Каналы                                   : 6 каналов
Расположение каналов                     : Front: L C R, Side: L R, LFE
Частота                                  : 48,0 КГц
Битовая глубина                          : 24 бит
Метод сжатия                             : Без потерь / Lossy
Заголовок                                : RUS.VO(P. Glanc) DTS-HD MA 5.1 ~4100 kbps
Язык                                     : Russian
Default                                  : Нет
Forced                                   : Нет

Аудио #4
Идентификатор                            : 5
Формат                                   : DTS
Формат/Информация                        : Digital Theater Systems
Профиль формата                          : MA / Core
Идентификатор кодека                     : A_DTS
Продолжительность                        : 1 ч. 21 м.
Вид битрейта                             : Переменный
Битрейт                                  : 1561 Кбит/сек / 1510 Кбит/сек
Каналы                                   : 6 каналов
Расположение каналов                     : Front: L C R, Side: L R, LFE
Частота                                  : 48,0 КГц
Битовая глубина                          : 24 бит
Метод сжатия                             : Без потерь / Lossy
Заголовок                                : RUS.VO(Goblin) DTS-HD MA 5.1 ~4087 kbps
Язык                                     : Russian
Default                                  : Нет
Forced                                   : Нет

Аудио #5
Идентификатор                            : 6
Формат                                   : AC-3
Формат/Информация                        : Audio Coding 3
Расширение режима                        : CM (complete main)
Идентификатор кодека                     : A_AC3
Продолжительность                        : 1 ч. 21 м.
Вид битрейта                             : Постоянный
Битрейт                                  : 448 Кбит/сек
Каналы                                   : 6 каналов
Расположение каналов                     : Front: L C R, Side: L R, LFE
Частота                                  : 48,0 КГц
Битовая глубина                          : 16 бит
Метод сжатия                             : С потерями
Размер потока                            : 260 Мбайт (1%)
Заголовок                                : RUS.VO(Smeh)AC-3 5.1 ~448 kbps
Язык                                     : Russian
Default                                  : Нет
Forced                                   : Нет

Аудио #6
Идентификатор                            : 7
Формат                                   : DTS
Формат/Информация                        : Digital Theater Systems
Профиль формата                          : MA / Core
Идентификатор кодека                     : A_DTS
Продолжительность                        : 1 ч. 21 м.
Вид битрейта                             : Переменный
Битрейт                                  : 1561 Кбит/сек / 1510 Кбит/сек
Каналы                                   : 6 каналов
Расположение каналов                     : Front: L C R, Side: L R, LFE
Частота                                  : 48,0 КГц
Битовая глубина                          : 24 бит
Метод сжатия                             : Без потерь / Lossy
Заголовок                                : ENG.ORIG. DTS-HD MA 5.1 ~4080 kbps
Язык                                     : English
Default                                  : Нет
Forced                                   : Нет

Текст #1
Идентификатор                            : 8
Формат                                   : PGS
Режим смешивания                         : zlib
Идентификатор кодека                     : S_HDMV/PGS
Идентификатор кодека/Информация          : The same subtitle format used on BDs/HD-DVDs
Заголовок                                : RUS.SUB
Язык                                     : Russian
Default                                  : Да
Forced                                   : Нет

Текст #2
Идентификатор                            : 9
Формат                                   : PGS
Режим смешивания                         : zlib
Идентификатор кодека                     : S_HDMV/PGS
Идентификатор кодека/Информация          : The same subtitle format used on BDs/HD-DVDs
Заголовок                                : ENG.SUB
Язык                                     : English
Default                                  : Нет
Forced                                   : Нет

Меню
00:00:00.000                             : en:Chapter 00
00:03:52.438                             : en:Chapter 01
00:05:21.362                             : en:Chapter 02
00:09:31.485                             : en:Chapter 03
00:14:41.672                             : en:Chapter 04
00:17:47.775                             : en:Chapter 05
00:25:23.688                             : en:Chapter 06
00:27:41.326                             : en:Chapter 07
00:31:26.799                             : en:Chapter 08
00:34:59.931                             : en:Chapter 09
00:42:27.335                             : en:Chapter 10
00:48:15.474                             : en:Chapter 11
00:51:49.981                             : en:Chapter 12
00:53:00.050                             : en:Chapter 13
00:56:03.443                             : en:Chapter 14
00:57:05.880                             : en:Chapter 15
01:00:22.117                             : en:Chapter 16
01:08:13.755                             : en:Chapter 17
01:13:31.823                             : en:Chapter 18
01:15:26.479                             : en:Chapter 19
  
Скриншоты:





Ледниковый период 2: Глобальное потепление / Ice Age: The Meltdown (2006)
«Зима закончилась!»
Русское название: Ледниковый период 2: Глобальное потепление
Оригинальное название: Ice Age: The Meltdown
Год выпуска: 2006
Жaнр: мультфильм, фэнтези, боевик, мелодрама, комедия, приключения, семейный
Рeжисcер: Карлос Салдана
Пeрeвод: дублированный, двухголосый закадровый, одноголосый закадровый
Субтитры: русские, английские

Рoли озвучили: Рэй Романо, Джон Легуизамо, Дэнис Лири, Шонн Уильям Скотт, Джош Пек, Куин Латифа, Уилл Арнетт, Джей Лено, Крис Уэдж, Питер Экерман
Рoли дублировали: Степан Старчиков, Антон Комолов, Александр Груздев, Андрей Бархударов, Илья Бледный и др.

Опиcание фильма:
Саблезубый тигр Диего, мамонт Манфред, грызун Скрэт и ленивец Сид дожили до глобального потепления. С одной стороны, это круто — ледяная пустыня превратилась в настоящий аквапарк, где можно принимать теплые ванны и резвиться под сенью струй. С другой — не очень: стремительный паводок идет прямиком к их родной долине.

Теперь ответственным животным придется спасать соседей от потопа, что довольно проблематично — строить ковчег совершенно не из чего, кроме как из талого снега. Но не беспокойтесь — эвакуация разнообразной живности в сухое место пройдет не менее суетливо, смешно и успешно, чем и прошлая операция по возвращению человеческого детеныша в лоно семьи.



Дата мировой премьеры: 1 марта 2006
Дата российской премьеры: 30 марта 2006, «Гемини Киномир»
Релиз на DVD: 15 февраля 2011, «Флагман-Трейд»
Релиз на Blu-Ray: 17 декабря 2009, «Двадцатый Век Фокс СНГ»
Прoдoлжительность: 01:30:35
Качество видео: BDRemux
Контейнер: MKV
Видеокодек: MPEG-4 AVC/H.264
Аудиокодек: DTS, DTS-HD MA
Видео: 1920x1080, ~28751 kbps(1080p, 23.976 fps, 16:9, High @L4.1)
Аудио#1: DTS 5.1, ~768 Kbps, 48.0 KГц - дублированный
Аудио#2: DTS 5.1, ~768 Kbps, 48.0 KГц - одноголосый закадровый (Королёв)
Аудио#3: DTS 5.1, ~768 Kbps, 48.0 KГц - одноголосый закадровый (Чадов)
Аудио#4: DTS-HD MA 5.1, ~4050 Kbps, 48.0 KГц - двухголосый закадровый (Гланц и Королёва)
Аудио#5: DTS-HD MA 5.1, ~4041 Kbps, 48.0 KГц - English
Код: выделить все

Формат                                   : Matroska
Версия формата                           : Version 2
Размер файла                             : 24,8 Гбайт
Продолжительность                        : 1 ч. 30 м.
Режим общего битрейта                    : Переменный
Общий поток                              : 39,1 Мбит/сек
Название фильма                          : Ice Age: The Meltdown (2006) [1080p] BDRemux (by sergey2925 for nnm-club.me)
Дата кодирования                         : UTC 2012-12-22 11:54:27
Программа кодирования                    : mkvmerge v5.8.0 ('No Sleep / Pillow') built on Sep  2 2012 15:37:04
Библиотека кодирования                   : libebml v1.2.3 + libmatroska v1.3.0

Видео
Идентификатор                            : 1
Формат                                   : AVC
Формат/Информация                        : Advanced Video Codec
Профиль формата                          : High@L4.1
Параметр CABAC формата                   : Да
Параметр ReFrames формата                : 4 кадра
Идентификатор кодека                     : V_MPEG4/ISO/AVC
Продолжительность                        : 1 ч. 30 м.
Вид битрейта                             : Переменный
Битрейт                                  : 33,0 Мбит/сек
Максимальный битрейт                     : 31,7 Мбит/сек
Ширина                                   : 1920 пикселей
Высота                                   : 1080 пикселей
Соотношение сторон                       : 16:9
Частота кадров                           : 23,976 кадра/сек
Цветовое пространство                    : YUV
Субдискретизация насыщенности            : 4:2:0
Битовая глубина                          : 8 бит
Тип развёртки                            : Прогрессивная
Бит/(Пиксели*Кадры)                      : 0.663
Размер потока                            : 20,9 Гбайт (84%)
Заголовок                                : Ice Age: The Meltdown (2006) [1080p] BDRemux
Язык                                     : English
Default                                  : Да
Forced                                   : Нет
Основные цвета                           : BT.709-5, BT.1361, IEC 61966-2-4, SMPTE RP177
Характеристики трансфера                 : BT.709-5, BT.1361
Коэффициенты матрицы                     : BT.709-5, BT.1361, IEC 61966-2-4 709, SMPTE RP177

Аудио #1
Идентификатор                            : 2
Формат                                   : DTS
Формат/Информация                        : Digital Theater Systems
Идентификатор кодека                     : A_DTS
Продолжительность                        : 1 ч. 30 м.
Вид битрейта                             : Постоянный
Битрейт                                  : 755 Кбит/сек
Каналы                                   : 6 каналов
Расположение каналов                     : Front: L C R, Side: L R, LFE
Частота                                  : 48,0 КГц
Битовая глубина                          : 24 бит
Метод сжатия                             : С потерями
Размер потока                            : 489 Мбайт (2%)
Заголовок                                : RUS.DUB.DTS 5.1 ~768 kbps
Язык                                     : Russian
Default                                  : Да
Forced                                   : Нет

Аудио #2
Идентификатор                            : 3
Формат                                   : DTS
Формат/Информация                        : Digital Theater Systems
Идентификатор кодека                     : A_DTS
Продолжительность                        : 1 ч. 30 м.
Вид битрейта                             : Постоянный
Битрейт                                  : 755 Кбит/сек
Каналы                                   : 6 каналов
Расположение каналов                     : Front: L C R, Side: L R, LFE
Частота                                  : 48,0 КГц
Битовая глубина                          : 24 бит
Метод сжатия                             : С потерями
Размер потока                            : 489 Мбайт (2%)
Заголовок                                : RUS.VO(Korolev)DTS 5.1 ~768 kbps
Язык                                     : Russian
Default                                  : Нет
Forced                                   : Нет

Аудио #3
Идентификатор                            : 4
Формат                                   : DTS
Формат/Информация                        : Digital Theater Systems
Идентификатор кодека                     : A_DTS
Продолжительность                        : 1 ч. 30 м.
Вид битрейта                             : Постоянный
Битрейт                                  : 755 Кбит/сек
Каналы                                   : 6 каналов
Расположение каналов                     : Front: L C R, Side: L R, LFE
Частота                                  : 48,0 КГц
Битовая глубина                          : 24 бит
Метод сжатия                             : С потерями
Размер потока                            : 489 Мбайт (2%)
Заголовок                                : RUS.VO(Chadov)DTS 5.1 ~768 kbps
Язык                                     : Russian
Default                                  : Нет
Forced                                   : Нет

Аудио #4
Идентификатор                            : 5
Формат                                   : DTS
Формат/Информация                        : Digital Theater Systems
Профиль формата                          : MA / Core
Идентификатор кодека                     : A_DTS
Продолжительность                        : 1 ч. 30 м.
Вид битрейта                             : Переменный
Битрейт                                  : 1561 Кбит/сек / 1510 Кбит/сек
Каналы                                   : 6 каналов
Расположение каналов                     : Front: L C R, Side: L R, LFE
Частота                                  : 48,0 КГц
Битовая глубина                          : 24 бит
Метод сжатия                             : Без потерь / Lossy
Заголовок                                : RUS.DVO(P.Glanc & I.Koroleva)DTS-HD MA 5.1 ~4050 kbps
Язык                                     : Russian
Default                                  : Нет
Forced                                   : Нет

Аудио #5
Идентификатор                            : 6
Формат                                   : DTS
Формат/Информация                        : Digital Theater Systems
Профиль формата                          : MA / Core
Идентификатор кодека                     : A_DTS
Продолжительность                        : 1 ч. 30 м.
Вид битрейта                             : Переменный
Битрейт                                  : 1561 Кбит/сек / 1510 Кбит/сек
Каналы                                   : 6 каналов
Расположение каналов                     : Front: L C R, Side: L R, LFE
Частота                                  : 48,0 КГц
Битовая глубина                          : 24 бит
Метод сжатия                             : Без потерь / Lossy
Заголовок                                : ENG.ORIG. DTS-HD MA 5.1 ~4041 kbps
Язык                                     : English
Default                                  : Нет
Forced                                   : Нет

Текст #1
Идентификатор                            : 7
Формат                                   : PGS
Режим смешивания                         : zlib
Идентификатор кодека                     : S_HDMV/PGS
Идентификатор кодека/Информация          : The same subtitle format used on BDs/HD-DVDs
Заголовок                                : RUS.SUB
Язык                                     : Russian
Default                                  : Да
Forced                                   : Нет

Текст #2
Идентификатор                            : 8
Формат                                   : PGS
Режим смешивания                         : zlib
Идентификатор кодека                     : S_HDMV/PGS
Идентификатор кодека/Информация          : The same subtitle format used on BDs/HD-DVDs
Заголовок                                : ENG.SUB
Язык                                     : English
Default                                  : Нет
Forced                                   : Нет

Меню
00:00:00.000                             : en:Chapter 00
00:06:19.295                             : en:Chapter 01
00:07:42.670                             : en:Chapter 02
00:10:45.394                             : en:Chapter 03
00:15:23.254                             : en:Chapter 04
00:17:42.935                             : en:Chapter 05
00:19:23.161                             : en:Chapter 06
00:21:40.923                             : en:Chapter 07
00:23:14.267                             : en:Chapter 08
00:27:11.837                             : en:Chapter 09
00:30:32.247                             : en:Chapter 10
00:35:44.809                             : en:Chapter 11
00:38:48.659                             : en:Chapter 12
00:42:26.751                             : en:Chapter 13
00:45:49.704                             : en:Chapter 14
00:47:44.652                             : en:Chapter 15
00:50:17.681                             : en:Chapter 16
00:54:04.490                             : en:Chapter 17
00:58:59.244                             : en:Chapter 18
01:01:06.788                             : en:Chapter 19
01:05:11.114                             : en:Chapter 20
01:10:38.024                             : en:Chapter 21
01:20:55.475                             : en:Chapter 22
01:23:34.634                             : en:Chapter 23
  
Скриншоты:





Ледниковый период 3: Эра динозавров / Ice Age: Dawn of the Dinosaurs (2009)
«The sub-zero heroes are back, on an incredible adventure... for the ages.»
Русское название: Ледниковый период 3: Эра динозавров
Оригинальное название: Ice Age: Dawn of the Dinosaurs
Год выпуска: 2009
Жaнр: мультфильм, комедия, приключения, семейный
Рeжисcер: Карлос Салдана, Майк Тёрмайер
Пeревод: дублированный, одноголосый закадровый
Субтитры: русские, английские

Рoли озвучили: Рэй Романо, Джон Легуизамо, Саймон Пегг, Куин Латифа, Шонн Уильям Скотт, Джош Пек, Дэнис Лири, Крис Уэдж, Юнис Чо, Карен Дишер
Рoли дублировали: Степан Старчиков, Антон Комолов, Вадим Галыгин, Ольга Шелест, Андрей Бархударов и др.

Опиcание фильма:
К событиям «Ледникового периода 3» жизнь главных героев мультфильма потерпела некоторые изменения. Мамонты Манфред и Элли ожидают появление на свет своего детёныша; саблезубый тигр Диего впал в раздумье о том, не стал ли он слишком «мягкотелым» в компании своих друзей; ленивец Сид, бредя желанием создать собственное племя, решился украсть несколько яиц динозавра. Отправившись спасать Сида, друзья попадают в таинственный растительный мир, скрытый под толщами льда, где они сталкиваются с динозаврами и агрессивной окружающей средой, а также знакомятся с охотником на динозавров — лаской по имени Бак.

Крысобелка Скрэт (который вновь случайным образом стал виной глобальной проблемы, открыв путь в мир динозавров) по-прежнему гоняется за своим орехом, но на этот раз у него появился конкурент — крысобелка Скрэтти, однако, одновременно с одержимой борьбой за орех, эти двое влюбляются друг в друга.



Дата мировой премьеры: 1 июля 2009
Дата российской премьеры: 1 июля 2009, «Двадцатый Век Фокс СНГ»
Релиз на DVD: 13 августа 2009, «Двадцатый Век Фокс СНГ»
Релиз на Blu-Ray: 24 сентября 2009, «Двадцатый Век Фокс СНГ»
Прoдoлжительность: 01:34:04
Качество видео: BDRemux
Контейнер: MKV
Видеокодек: MPEG-4 AVC/H.264
Аудиокодек: DTS, AC-3, DTS-HD MA
Видео: 1920x1080, ~25452 kbps(1080p, 23.976 fps, 16:9, High @L4.1)
Аудио#1: DTS 5.1, ~768 Kbps, 48.0 KГц - дублированный
Аудио#2: AC-3 5.1, ~448 Kbps, 48.0 KГц - одноголосый закадровый (Королёв)
Аудио#3: DTS-HD MA 7.1, ~4674 Kbps, 48.0 KГц - English
Код: выделить все

Формат                                   : Matroska
Версия формата                           : Version 2
Размер файла                             : 20,6 Гбайт
Продолжительность                        : 1 ч. 34 м.
Режим общего битрейта                    : Переменный
Общий поток                              : 31,4 Мбит/сек
Название фильма                          : Ice Age: Dawn of the Dinosaurs (2009) [1080p] BDRemux (by sergey2925 for nnm-club.me)
Дата кодирования                         : UTC 2012-12-22 08:41:38
Программа кодирования                    : mkvmerge v5.8.0 ('No Sleep / Pillow') built on Sep  2 2012 15:37:04
Библиотека кодирования                   : libebml v1.2.3 + libmatroska v1.3.0

Видео
Идентификатор                            : 1
Формат                                   : AVC
Формат/Информация                        : Advanced Video Codec
Профиль формата                          : High@L4.1
Параметр CABAC формата                   : Да
Параметр ReFrames формата                : 4 кадра
Идентификатор кодека                     : V_MPEG4/ISO/AVC
Продолжительность                        : 1 ч. 34 м.
Вид битрейта                             : Переменный
Битрейт                                  : 27,3 Мбит/сек
Максимальный битрейт                     : 32,8 Мбит/сек
Ширина                                   : 1920 пикселей
Высота                                   : 1080 пикселей
Соотношение сторон                       : 16:9
Частота кадров                           : 23,976 кадра/сек
Цветовое пространство                    : YUV
Субдискретизация насыщенности            : 4:2:0
Битовая глубина                          : 8 бит
Тип развёртки                            : Прогрессивная
Бит/(Пиксели*Кадры)                      : 0.550
Размер потока                            : 18,0 Гбайт (87%)
Заголовок                                : Ice Age: Dawn of the Dinosaurs (2009) [1080p] BDRemux
Язык                                     : English
Default                                  : Да
Forced                                   : Нет
Основные цвета                           : BT.709-5, BT.1361, IEC 61966-2-4, SMPTE RP177
Характеристики трансфера                 : BT.709-5, BT.1361
Коэффициенты матрицы                     : BT.709-5, BT.1361, IEC 61966-2-4 709, SMPTE RP177

Аудио #1
Идентификатор                            : 2
Формат                                   : DTS
Формат/Информация                        : Digital Theater Systems
Идентификатор кодека                     : A_DTS
Продолжительность                        : 1 ч. 34 м.
Вид битрейта                             : Постоянный
Битрейт                                  : 755 Кбит/сек
Каналы                                   : 6 каналов
Расположение каналов                     : Front: L C R, Side: L R, LFE
Частота                                  : 48,0 КГц
Битовая глубина                          : 24 бит
Метод сжатия                             : С потерями
Размер потока                            : 508 Мбайт (2%)
Заголовок                                : RUS.DUB.DTS 5.1 ~768 kbps
Язык                                     : Russian
Default                                  : Да
Forced                                   : Нет

Аудио #2
Идентификатор                            : 3
Формат                                   : AC-3
Формат/Информация                        : Audio Coding 3
Расширение режима                        : CM (complete main)
Идентификатор кодека                     : A_AC3
Продолжительность                        : 1 ч. 34 м.
Вид битрейта                             : Постоянный
Битрейт                                  : 448 Кбит/сек
Каналы                                   : 6 каналов
Расположение каналов                     : Front: L C R, Side: L R, LFE
Частота                                  : 48,0 КГц
Битовая глубина                          : 16 бит
Метод сжатия                             : С потерями
Размер потока                            : 301 Мбайт (1%)
Заголовок                                : RUS.VO(Korolev)AC-3 5.1 ~448 kbps
Язык                                     : Russian
Default                                  : Нет
Forced                                   : Нет

Аудио #3
Идентификатор                            : 4
Формат                                   : DTS
Формат/Информация                        : Digital Theater Systems
Профиль формата                          : MA / Core
Идентификатор кодека                     : A_DTS
Продолжительность                        : 1 ч. 34 м.
Вид битрейта                             : Переменный
Битрейт                                  : 2188 Кбит/сек / 1510 Кбит/сек
Каналы                                   : 8 каналов / 6 каналов
Расположение каналов                     : Front: L C R, Side: L R, Back: L R, LFE / Front: L C R, Side: L R, LFE
Частота                                  : 48,0 КГц
Битовая глубина                          : 24 бит
Метод сжатия                             : Без потерь / Lossy
Заголовок                                : ENG.ORIG. DTS-HD MA 7.1 ~4674 kbps
Язык                                     : English
Default                                  : Нет
Forced                                   : Нет

Текст #1
Идентификатор                            : 5
Формат                                   : PGS
Режим смешивания                         : zlib
Идентификатор кодека                     : S_HDMV/PGS
Идентификатор кодека/Информация          : The same subtitle format used on BDs/HD-DVDs
Заголовок                                : RUS.SUB
Язык                                     : Russian
Default                                  : Да
Forced                                   : Нет

Текст #2
Идентификатор                            : 6
Формат                                   : PGS
Режим смешивания                         : zlib
Идентификатор кодека                     : S_HDMV/PGS
Идентификатор кодека/Информация          : The same subtitle format used on BDs/HD-DVDs
Заголовок                                : ENG.SUB
Язык                                     : English
Default                                  : Нет
Forced                                   : Нет

Меню
00:00:00.000                             : en:Chapter 00
00:03:10.814                             : en:Chapter 01
00:10:38.846                             : en:Chapter 02
00:16:05.630                             : en:Chapter 03
00:20:00.449                             : en:Chapter 04
00:24:07.653                             : en:Chapter 05
00:27:29.646                             : en:Chapter 06
00:31:47.571                             : en:Chapter 07
00:36:10.668                             : en:Chapter 08
00:41:11.594                             : en:Chapter 09
00:48:29.072                             : en:Chapter 10
00:50:46.333                             : en:Chapter 11
00:57:03.001                             : en:Chapter 12
00:58:06.148                             : en:Chapter 13
01:03:11.286                             : en:Chapter 14
01:08:05.039                             : en:Chapter 15
01:11:37.042                             : en:Chapter 16
01:16:00.305                             : en:Chapter 17
01:21:05.068                             : en:Chapter 18
01:26:50.121                             : en:Chapter 19
01:34:03.054                             : en:Chapter 20
  
Скриншоты:





Ледниковый период 4: Континентальный дрейф / Ice Age: Continental Drift (2012)
Русское название: Ледниковый период 4: Континентальный дрейф
Оригинальное название: Ice Age: Continental Drift
Год выпуска: 2012
Жaнр: мультфильм, комедия, приключения, семейный
Рeжисcер: Стив Мартино, Майк Тёрмайер
Пeрeвод: дублированный
Субтитры: русские, английские

Рoли озвучили: Рэй Романо, Джон Легуизамо, Куин Латифа, Дэнис Лири, Джош Пек, Азиз Ансари, Джой Бехар, Кристофер Кэмпбелл, Ален Шаба, Эстер Дин
Роли дублировали: Степан Старчиков, Антон Комолов, Ольга Шелест, Александр Груздев, Илья Бледный и др.

Опиcание фильма:
После приключений под землей прошло семь лет. Случился дрейф континентов. Главные герои мультфильма, отделённые от стада, вынуждены использовать айсберг в качестве плота. Они пересекают океан и попадают в неизвестные им ранее земли с экзотическими животными и пиратами, враждебно настроенными к ним. Скрэту удаётся получить свой жёлудь, но он перемещается в новые для него земли.


Дата мировой премьеры: 26 июня 2012
Дата российской премьеры: 12 июля 2012, «Двадцатый Век Фокс СНГ»
Релиз на DVD: 1 ноября 2012, «Двадцатый Век Фокс СНГ»
Релиз на Blu-Ray: 1 ноября 2012, «Двадцатый Век Фокс СНГ»
Прoдoлжительность: 01:27:45
Качество видео: BDRemux
Контейнер: MKV
Видеокодек: MPEG-4 AVC/H.264
Аудиокодек: DTS, AC-3, DTS-HD MA
Видео: 1920x1080, ~34653 kbps(1080p, 23.976 fps, 16:9, High @L4.1)
Аудио#1: DTS 5.1, ~768 Kbps, 48.0 KГц - дублированный
Аудио#2: DTS-HD MA 7.1, ~4725 Kbps, 48.0 KГц - English
Код: выделить все

Формат                                   : Matroska
Версия формата                           : Version 2
Размер файла                             : 24,6 Гбайт
Продолжительность                        : 1 ч. 27 м.
Режим общего битрейта                    : Переменный
Общий поток                              : 40,1 Мбит/сек
Название фильма                          : Ice Age: Continental Drift (2012) [1080p] BDRemux (by sergey2925 for nnm-club.me)
Дата кодирования                         : UTC 2012-12-22 09:06:30
Программа кодирования                    : mkvmerge v5.8.0 ('No Sleep / Pillow') built on Sep  2 2012 15:37:04
Библиотека кодирования                   : libebml v1.2.3 + libmatroska v1.3.0

Видео
Идентификатор                            : 1
Формат                                   : AVC
Формат/Информация                        : Advanced Video Codec
Профиль формата                          : High@L4.1
Параметр CABAC формата                   : Да
Параметр ReFrames формата                : 4 кадра
Идентификатор кодека                     : V_MPEG4/ISO/AVC
Продолжительность                        : 1 ч. 27 м.
Вид битрейта                             : Переменный
Битрейт                                  : 37,0 Мбит/сек
Максимальный битрейт                     : 38,5 Мбит/сек
Ширина                                   : 1920 пикселей
Высота                                   : 1080 пикселей
Соотношение сторон                       : 16:9
Частота кадров                           : 23,976 кадра/сек
Цветовое пространство                    : YUV
Субдискретизация насыщенности            : 4:2:0
Битовая глубина                          : 8 бит
Тип развёртки                            : Прогрессивная
Бит/(Пиксели*Кадры)                      : 0.744
Размер потока                            : 22,7 Гбайт (92%)
Заголовок                                : Ice Age: Continental Drift (2012) [1080p] BDRemux
Язык                                     : English
Default                                  : Да
Forced                                   : Нет

Аудио #1
Идентификатор                            : 2
Формат                                   : DTS
Формат/Информация                        : Digital Theater Systems
Идентификатор кодека                     : A_DTS
Продолжительность                        : 1 ч. 27 м.
Вид битрейта                             : Постоянный
Битрейт                                  : 755 Кбит/сек
Каналы                                   : 6 каналов
Расположение каналов                     : Front: L C R, Side: L R, LFE
Частота                                  : 48,0 КГц
Битовая глубина                          : 24 бит
Метод сжатия                             : С потерями
Размер потока                            : 474 Мбайт (2%)
Заголовок                                : RUS.DUB.DTS 5.1 ~768 kbps
Язык                                     : Russian
Default                                  : Да
Forced                                   : Нет

Аудио #2
Идентификатор                            : 3
Формат                                   : DTS
Формат/Информация                        : Digital Theater Systems
Профиль формата                          : MA / Core
Идентификатор кодека                     : A_DTS
Продолжительность                        : 1 ч. 27 м.
Вид битрейта                             : Переменный
Битрейт                                  : 1597 Кбит/сек / 1510 Кбит/сек
Каналы                                   : 8 каналов / 6 каналов
Расположение каналов                     : Front: L C R, Side: L R, Back: L R, LFE / Front: L C R, Side: L R, LFE
Частота                                  : 48,0 КГц
Битовая глубина                          : 24 бит
Метод сжатия                             : Без потерь / Lossy
Заголовок                                : ENG.ORIG. DTS-HD MA 7.1 ~4725 kbps
Язык                                     : English
Default                                  : Нет
Forced                                   : Нет

Текст #1
Идентификатор                            : 4
Формат                                   : UTF-8
Идентификатор кодека                     : S_TEXT/UTF8
Идентификатор кодека/Информация          : UTF-8 Plain Text
Заголовок                                : RUS.SUB
Язык                                     : Russian
Default                                  : Да
Forced                                   : Нет

Текст #2
Идентификатор                            : 5
Формат                                   : UTF-8
Идентификатор кодека                     : S_TEXT/UTF8
Идентификатор кодека/Информация          : UTF-8 Plain Text
Заголовок                                : ENG.SUB
Язык                                     : English
Default                                  : Нет
Forced                                   : Нет

Меню
00:00:00.000                             : en:00:00:00.000
00:03:24.037                             : en:00:03:24.037
00:05:07.224                             : en:00:05:07.224
00:09:33.406                             : en:00:09:33.406
00:13:08.705                             : en:00:13:08.705
00:15:55.329                             : en:00:15:55.329
00:18:22.643                             : en:00:18:22.643
00:22:23.717                             : en:00:22:23.717
00:25:56.555                             : en:00:25:56.555
00:29:17.965                             : en:00:29:17.965
00:32:57.601                             : en:00:32:57.601
00:36:14.381                             : en:00:36:14.381
00:38:41.653                             : en:00:38:41.653
00:43:48.709                             : en:00:43:48.709
00:45:29.644                             : en:00:45:29.644
00:49:38.976                             : en:00:49:38.976
00:53:49.476                             : en:00:53:49.476
00:57:22.856                             : en:00:57:22.856
01:02:31.039                             : en:01:02:31.039
01:08:08.334                             : en:01:08:08.334
01:11:10.475                             : en:01:11:10.475
01:13:14.640                             : en:01:13:14.640
01:16:53.400                             : en:01:16:53.400
01:19:23.634                             : en:01:19:23.634
  
Скриншоты:





Ледниковый период: Гигантское Рождество / Ice Age: A Mammoth Christmas (2011)
Русское название: Ледниковый период: Гигантское Рождество
Оригинальное название: Ice Age: A Mammoth Christmas
Год выпуска: 2011
Жaнр: мультфильм, короткометражка, комедия, приключения, семейный
Режисcер: Карен Дишер
Пeревод: дублированный
Субтитры: английские

Роли озвучили: Рэй Романо, Джон Легуизамо, Дэнис Лири, Куин Латифа, Шонн Уильям Скотт, Джош Пек, Кьяра Браво, ТиДжей Миллер, Джуда Фридлендер, Билли Гарделл
Роли дублировали: Степан Старчиков, Антон Комолов, Александр Груздев, Ольга Шелест, Андрей Бархударов и др.

Опиcание фильма:
Когда Сид случайно разрушает рождественский камень, Мэнни говорит ему, что Сид попал в черный список Санты, и что ленивцу придется лететь на северный полюс просить извинения у Санты. На северном полюсе Сид хотел все сделать как лучше, но только усугубил ситуацию. Теперь дело за Мэнни и компанией, только они объединившись сохранят Рождество для всего мира!


Дата мировой премьеры: 26 июня 2012
Дата российской премьеры: 12 июля 2012, «Двадцатый Век Фокс СНГ»
Релиз на DVD: 1 ноября 2012, «Двадцатый Век Фокс СНГ»
Релиз на Blu-Ray: 1 ноября 2012, «Двадцатый Век Фокс СНГ»
Прoдoлжительность: 00:25:33
Качество видео: BDRemux
Контейнер: MKV
Видеокодек: MPEG-4 AVC/H.264
Аудиокодек: AC-3, DTS-HD MA
Видео: 1920x1080, ~35898 kbps(1080p, 23.976 fps, 16:9, High @L4.1)
Аудио#1: AC-3 5.1, ~384 Kbps, 48.0 KГц - дублированный
Аудио#2: DTS-HD MA 5.1, ~3957 Kbps, 48.0 KГц - English
Код: выделить все

Формат                                   : Matroska
Версия формата                           : Version 2
Размер файла                             : 7,19 Гбайт
Продолжительность                        : 25 м.
Режим общего битрейта                    : Переменный
Общий поток                              : 40,3 Мбит/сек
Название фильма                          : Ice Age: A Mammoth Christmas (2011) [1080p] BDRemux (by sergey2925 for nnm-club.me)
Дата кодирования                         : UTC 2012-12-22 08:58:16
Программа кодирования                    : mkvmerge v5.8.0 ('No Sleep / Pillow') built on Sep  2 2012 15:37:04
Библиотека кодирования                   : libebml v1.2.3 + libmatroska v1.3.0

Видео
Идентификатор                            : 1
Формат                                   : AVC
Формат/Информация                        : Advanced Video Codec
Профиль формата                          : High@L4.1
Параметр CABAC формата                   : Да
Параметр ReFrames формата                : 4 кадра
Идентификатор кодека                     : V_MPEG4/ISO/AVC
Продолжительность                        : 25 м.
Вид битрейта                             : Переменный
Битрейт                                  : 37,5 Мбит/сек
Максимальный битрейт                     : 38,0 Мбит/сек
Ширина                                   : 1920 пикселей
Высота                                   : 1080 пикселей
Соотношение сторон                       : 16:9
Частота кадров                           : 23,976 кадра/сек
Цветовое пространство                    : YUV
Субдискретизация насыщенности            : 4:2:0
Битовая глубина                          : 8 бит
Тип развёртки                            : Прогрессивная
Бит/(Пиксели*Кадры)                      : 0.754
Размер потока                            : 6,70 Гбайт (93%)
Заголовок                                : Ice Age: A Mammoth Christmas (2011) [1080p] BDRemux
Язык                                     : English
Default                                  : Да
Forced                                   : Нет

Аудио #1
Идентификатор                            : 2
Формат                                   : AC-3
Формат/Информация                        : Audio Coding 3
Расширение режима                        : CM (complete main)
Идентификатор кодека                     : A_AC3
Продолжительность                        : 25 м.
Вид битрейта                             : Постоянный
Битрейт                                  : 384 Кбит/сек
Каналы                                   : 6 каналов
Расположение каналов                     : Front: L C R, Side: L R, LFE
Частота                                  : 48,0 КГц
Битовая глубина                          : 16 бит
Метод сжатия                             : С потерями
Размер потока                            : 70,2 Мбайт (1%)
Заголовок                                : RUS.DUB.AC-3 5.1 ~384 kbps
Язык                                     : Russian
Default                                  : Да
Forced                                   : Нет

Аудио #2
Идентификатор                            : 3
Формат                                   : DTS
Формат/Информация                        : Digital Theater Systems
Профиль формата                          : MA / Core
Идентификатор кодека                     : A_DTS
Продолжительность                        : 25 м.
Вид битрейта                             : Переменный
Битрейт                                  : 1561 Кбит/сек / 1510 Кбит/сек
Каналы                                   : 6 каналов
Расположение каналов                     : Front: L C R, Side: L R, LFE
Частота                                  : 48,0 КГц
Битовая глубина                          : 24 бит
Метод сжатия                             : Без потерь / Lossy
Заголовок                                : ENG.ORIG. DTS-HD MA 5.1 ~3957 kbps
Язык                                     : English
Default                                  : Нет
Forced                                   : Нет

Текст
Идентификатор                            : 4
Формат                                   : PGS
Режим смешивания                         : zlib
Идентификатор кодека                     : S_HDMV/PGS
Идентификатор кодека/Информация          : The same subtitle format used on BDs/HD-DVDs
Заголовок                                : ENG.SUB
Язык                                     : English
Default                                  : Нет
Forced                                   : Нет

Меню
00:00:00.000                             : en:Chapter 00
00:01:10.195                             : en:Chapter 01
00:06:00.026                             : en:Chapter 02
00:06:52.453                             : en:Chapter 03
00:10:55.738                             : en:Chapter 04
00:13:41.946                             : en:Chapter 05
00:17:47.858                             : en:Chapter 06
00:21:25.575                             : en:Chapter 07

  
Скриншоты:





Скачал сам, дай скачать другому!!!
Не забудь сказать -
"Ледниковый период" на NNM-Club

Время раздачи: 24/7, до нескольких сидов

Оформление и ремуксинг by sergey2925©
[NNM-Club.ru]_Ice Age-Collection (2002-2012) [1080p] BDRemux.torrent
 Торрент: Платиновая раздача  Зарегистрирован
 
Скачать


Примагнититься
 Зарегистрирован:   22 Дек 2012 20:04:59
 Размер:   103 GB  (
 Рейтинг:   4.9 (Голосов: 122)
 Поблагодарили:   450
 Проверка:   Оформление проверено модератором 22 Дек 2012 20:43:38
Как cкачать  ·  Как раздать  ·  Правильно оформить  ·  Поднять ратио!  
sergey2925 ®
Uploader 100+
Стаж: 11 лет 9 мес.
Сообщений: 3005
Ratio: 751.8
Раздал: 146.3 TB
Поблагодарили: 38886
100%
Откуда: Kostroma-city
pirates.png
на замену этим трилогиям
Ледниковый период: Трилогия / Ice Age: Trilogy (2002/2006/2009) [1080p] BDRemux
Ледниковый период: Трилогия / Ice Age: Trilogy (2002/2006/2009) [1080p] BDRemux
ViT_i_Elena
Стаж: 8 лет 11 мес.
Сообщений: 11
Ratio: 57.569
100%
Хорошая серия мультфильма, жалко только, что "Ледниковый период 5" выйдет в 2015 году. Долго ждать
bellaswan121
Стаж: 8 лет 4 мес.
Сообщений: 6
Ratio: 0.097
100%
Спасибо))))))))))))) :)
DuMbI4
Стаж: 14 лет 8 мес.
Сообщений: 394
Ratio: 13.42
Поблагодарили: 356
23.15%
Откуда: С-Петербург
russia.gif
Что то скорость хромает(
roman872
Стаж: 6 лет 1 мес.
Сообщений: 14
0%
ukraine.gif
Отличная сборка+ в full HD
FaInt^
Стаж: 10 лет 11 мес.
Сообщений: 19
Ratio: 1.977
0.65%
ukraine.gif
всем привет!а в чем разница с блю рей помимо добавленных дорожек и убранных
Ледниковый период: Квадрология / Ice Age: Quadrology (2002/2006/2009/2012) [1080p] 4*Blu-Ray

смотрю разница в битрейте это влияет на качество?
Показать сообщения:   
Начать новую тему   Ответить на тему    Торрент-трекер NNM-Club -> Мультфильмы -> Зарубежные Мультфильмы (HD, FHD, UHD) Часовой пояс: GMT + 3
Страница 1 из 1