Классический форум-трекер
canvas not supported
Нас вместе: 4 165 232

The Prodigy - Their Law: The Singles 1990-2005 (2005) [ALAC|Lossless]<Breakbeat, Hardcore, Big Beat>


 
 
RSS
Начать новую тему   Ответить на тему    Торрент-трекер NNM-Club -> Аудио и Видео -> Музыка Lossless (ALAC)
Автор Сообщение
CafeTea ®
Покровитель талантов
Стаж: 10 лет 3 мес.
Сообщений: 513
Ratio: 6.711
Поблагодарили: 20400
100%
The Prodigy - Their Law: The Singles 1990-2005 (2005)
Год: 2005
Жанр: Breakbeat, Hardcore, Big Beat
Страна: UK
Продолжительность: 01:12:14

Кодек: ALAC
Битрейт: Lossless

Треклист:
01. Firestarter :: 04:40
02. Their Law :: 05:35
03. Breathe :: 05:34
04. Out of Space :: 05:00
05. Smack My Bitch Up :: 05:42
06. Poison :: 03:59
07. Girls :: 04:10
08. Voodoo People :: 03:38
09. Charly :: 05:20
10. No Good (Start the Dance) :: 06:18
11. Spitfire :: 03:24
12. Jericho :: 03:45
13. Everybody in the Place :: 05:07
14. One Love :: 05:23
15. Hotride :: 04:32
Their Law: The Singles 1990—2005 — сборник синглов британской группы The Prodigy, состоящий из таких культовых вещей, как «Charly», «Out of Space», «Their Law», «Jericho», «No Good (Start the Dance)», «Poison», «Voodoo People», «Firestarter», «Breathe», «Smack My Bitch Up», а также последних три сингла с предыдущего альбома Always Outnumbered, Never Outgunned: «Spitfire», «Girls», «Hotride».
Код:

Exact Audio Copy V1.0 beta 3 from 29. August 2011

EAC extraction logfile from 15. May 2013, 21:36

The Prodigy / Their Law: The Singles 1990-2005 [CD1]

Used drive  : PIONEER DVD-RW  DVRKD08   Adapter: 1  ID: 0

Read mode               : Secure
Utilize accurate stream : Yes
Defeat audio cache      : Yes
Make use of C2 pointers : No

Read offset correction                      : 48
Overread into Lead-In and Lead-Out          : No
Fill up missing offset samples with silence : Yes
Delete leading and trailing silent blocks   : No
Null samples used in CRC calculations       : Yes
Used interface                              : Native Win32 interface for Win NT & 2000
Gap handling                                : Appended to previous track

Used output format              : User Defined Encoder
Selected bitrate                : 768 kBit/s
Quality                         : High
Add ID3 tag                     : No
Command line compressor         : C:\Program Files\Exact Audio Copy\Flac\flac.exe
Additional command line options : -8 -V -T "ARTIST=%artist%" -T "TITLE=%title%" -T "ALBUM=%albumtitle%" -T "DATE=%year%" -T "TRACKNUMBER=%tracknr%" -T "GENRE=%genre%" -T "PERFORMER=%albuminterpret%" -T "COMPOSER=%composer%" %haslyrics%--tag-from-file=LYRICS="%lyricsfile%"%haslyrics% -T "ALBUMARTIST=%albumartist%" -T "ALBUM ARTIST=%albumartist%" -T "DISCNUMBER=%cdnumber%" -T "TOTALDISCS=%totalcds%" -T "TOTALTRACKS=%numtracks%" -T "COMMENT=EAC V1.0 beta 2, Secure Mode, Test & Copy, AccurateRip, FLAC -8" %source% -o %dest%

TOC of the extracted CD

     Track |   Start  |  Length  | Start sector | End sector
    ---------------------------------------------------------
        1  |  0:00.00 |  4:42.47 |         0    |    21196
        2  |  4:42.47 |  5:36.18 |     21197    |    46414
        3  | 10:18.65 |  5:36.21 |     46415    |    71635
        4  | 15:55.11 |  5:02.08 |     71636    |    94293
        5  | 20:57.19 |  5:43.29 |     94294    |   120047
        6  | 26:40.48 |  4:01.15 |    120048    |   138137
        7  | 30:41.63 |  4:12.43 |    138138    |   157080
        8  | 34:54.31 |  3:40.10 |    157081    |   173590
        9  | 38:34.41 |  5:22.74 |    173591    |   197814
       10  | 43:57.40 |  6:19.68 |    197815    |   226307
       11  | 50:17.33 |  3:26.66 |    226308    |   241823
       12  | 53:44.24 |  3:46.70 |    241824    |   258843
       13  | 57:31.19 |  5:09.45 |    258844    |   282063
       14  | 62:40.64 |  5:25.10 |    282064    |   306448
       15  | 68:05.74 |  4:32.69 |    306449    |   326917

Track  1

     Filename C:\Users\User\Desktop\The Prodigy - Their Law\CD1\01 Firestarter.wav

     Pre-gap length  0:00:02.00

     Peak level 98.9 %
     Extraction speed 1.2 X
     Track quality 100.0 %
     Copy CRC 9F377750
     Accurately ripped (confidence 23)  [B5645F33]  (AR v2)
     Copy OK

Track  2

     Filename C:\Users\User\Desktop\The Prodigy - Their Law\CD1\02 Their Law.wav

     Peak level 100.0 %
     Extraction speed 1.2 X
     Track quality 99.9 %
     Copy CRC 86831B18
     Accurately ripped (confidence 24)  [020DD160]  (AR v2)
     Copy OK

Track  3

     Filename C:\Users\User\Desktop\The Prodigy - Their Law\CD1\03 Breathe.wav

     Peak level 98.9 %
     Extraction speed 1.4 X
     Track quality 99.9 %
     Copy CRC ED253B75
     Accurately ripped (confidence 23)  [F4104BEE]  (AR v2)
     Copy OK

Track  4

     Filename C:\Users\User\Desktop\The Prodigy - Their Law\CD1\04 Out of Space.wav

     Peak level 99.3 %
     Extraction speed 1.4 X
     Track quality 99.9 %
     Copy CRC B14224FA
     Accurately ripped (confidence 23)  [AAF01C6C]  (AR v2)
     Copy OK

Track  5

     Filename C:\Users\User\Desktop\The Prodigy - Their Law\CD1\05 Smack My Bitch Up.wav

     Peak level 99.3 %
     Extraction speed 1.7 X
     Track quality 100.0 %
     Copy CRC 4740FD61
     Accurately ripped (confidence 23)  [B9D2DDFB]  (AR v2)
     Copy OK

Track  6

     Filename C:\Users\User\Desktop\The Prodigy - Their Law\CD1\06 Poison.wav

     Peak level 99.3 %
     Extraction speed 1.7 X
     Track quality 100.0 %
     Copy CRC 2AFE40A4
     Accurately ripped (confidence 24)  [EDD9E32F]  (AR v2)
     Copy OK

Track  7

     Filename C:\Users\User\Desktop\The Prodigy - Their Law\CD1\07 Girls.wav

     Peak level 89.2 %
     Extraction speed 1.4 X
     Track quality 99.9 %
     Copy CRC 356FC82C
     Accurately ripped (confidence 23)  [EF5D68BD]  (AR v2)
     Copy OK

Track  8

     Filename C:\Users\User\Desktop\The Prodigy - Their Law\CD1\08 Voodoo People.wav

     Peak level 99.5 %
     Extraction speed 1.8 X
     Track quality 100.0 %
     Copy CRC E7344A72
     Accurately ripped (confidence 24)  [EEE78A82]  (AR v2)
     Copy OK

Track  9

     Filename C:\Users\User\Desktop\The Prodigy - Their Law\CD1\09 Charly.wav

     Peak level 99.3 %
     Extraction speed 2.0 X
     Track quality 100.0 %
     Copy CRC 9C6DDEAC
     Accurately ripped (confidence 23)  [A9ACF92D]  (AR v2)
     Copy OK

Track 10

     Filename C:\Users\User\Desktop\The Prodigy - Their Law\CD1\10 No Good (Start The Dance).wav

     Peak level 99.3 %
     Extraction speed 2.1 X
     Track quality 100.0 %
     Copy CRC 311FE9A1
     Accurately ripped (confidence 22)  [6672855C]  (AR v2)
     Copy OK

Track 11

     Filename C:\Users\User\Desktop\The Prodigy - Their Law\CD1\11 Spitfire.wav

     Peak level 99.3 %
     Extraction speed 2.1 X
     Track quality 100.0 %
     Copy CRC 8B5B1597
     Accurately ripped (confidence 24)  [28F59DD5]  (AR v2)
     Copy OK

Track 12

     Filename C:\Users\User\Desktop\The Prodigy - Their Law\CD1\12 Jericho.wav

     Peak level 99.3 %
     Extraction speed 2.1 X
     Track quality 100.0 %
     Copy CRC 7AE06F34
     Accurately ripped (confidence 23)  [168F3B1D]  (AR v2)
     Copy OK

Track 13

     Filename C:\Users\User\Desktop\The Prodigy - Their Law\CD1\13 Everybody In The Place.wav

     Peak level 99.3 %
     Extraction speed 2.3 X
     Track quality 100.0 %
     Copy CRC 46C50019
     Accurately ripped (confidence 23)  [69FDDE02]  (AR v2)
     Copy OK

Track 14

     Filename C:\Users\User\Desktop\The Prodigy - Their Law\CD1\14 One Love.wav

     Peak level 99.3 %
     Extraction speed 2.4 X
     Track quality 100.0 %
     Copy CRC 155FD6A6
     Accurately ripped (confidence 24)  [3ACEF370]  (AR v2)
     Copy OK

Track 15

     Filename C:\Users\User\Desktop\The Prodigy - Their Law\CD1\15 Hot Ride.wav

     Peak level 84.3 %
     Extraction speed 2.1 X
     Track quality 99.9 %
     Copy CRC 760329B9
     Accurately ripped (confidence 22)  [4E7159F4]  (AR v2)
     Copy OK

All tracks accurately ripped

No errors occurred

End of status report

---- CUETools DB Plugin V2.1.3

[CTDB TOCID: jOV7za4pikGzYeZnFD.gHBADIW8-] found, Submit result: jOV7za4pikGzYeZnFD.gHBADIW8- has been confirmed
[9a20180f] (242/255) Accurately ripped
[84d785bb] (001/255) No match
[521210dd] (001/255) No match
[50dedd81] (006/255) Differs in 1569 samples @72:36:66-72:36:68
[42574b22] (001/255) No match
[2ba5b9f1] (002/255) No match
[f37b6540] (001/255) No match
[0c956837] (001/255) No match
You can use CUETools to repair this rip.

==== Log checksum 275183E0F34C380B2B4801366EDD430DC4F859A7A85860FC504DE46A4443636F ====
Код:

-----------------------

DON'T MODIFY THIS FILE

-----------------------

PERFORMER: auCDtect Task Manager, ver. 1.6.0 RC1 build 1.6.0.1
Copyright (c) 2008-2010 y-soft. All rights reserved
http://y-soft.org

ANALYZER: auCDtect: CD records authenticity detector, version 0.8.2
Copyright (c) 2004 Oleg Berngardt. All rights reserved.
Copyright (c) 2004 Alexander Djourik. All rights reserved.

FILE: 15. Hot Ride.m4a
  Size: 37964023 Hash: 76C1A8B17A12029F05690BC63B66EED1 Accuracy: -m0
  Conclusion: CDDA 100%
  Signature: 2A217663C091BAD74DD1202E88A44F00DE77067D
FILE: 14. One Love.m4a
  Size: 41175343 Hash: 75953671F4C0C6575DE8D4AC3186F82C Accuracy: -m0
  Conclusion: ???
  Signature: C40561CEC517DB74603D9638D0D6A04BAA996950
FILE: 13. Everybody In The Place.m4a
  Size: 39742288 Hash: B5B50B26CB0B6FF3D5310D2337D1BFD4 Accuracy: -m0
  Conclusion: CDDA 100%
  Signature: E99F914BD87C05B3F1DF49D68704EAC613663E53
FILE: 12. Jericho.m4a
  Size: 28773428 Hash: 791125966525F7A89C2B3DC44434E453 Accuracy: -m0
  Conclusion: CDDA 100%
  Signature: AE3E5E7B90B4424500C0939EF9A47F730EFDF1E8
FILE: 11. Spitfire.m4a
  Size: 27859704 Hash: 4E8C1FDB4977788BE7AE4A03D197EA87 Accuracy: -m0
  Conclusion: CDDA 100%
  Signature: 74D72B2B20B5E69DBA1426DCB5D00D556C36B794
FILE: 10. No Good (Start The Dance).m4a
  Size: 51039941 Hash: EDB2156C10C649EAC91D5D36295E743F Accuracy: -m0
  Conclusion: CDDA 100%
  Signature: 0BD1DEC8469E1860BE5F6792D7A579578B8AE141
FILE: 09. Charly.m4a
  Size: 39451935 Hash: 5E24EE8F6BEE4BFDE90E3C0F773DC5FA Accuracy: -m0
  Conclusion: CDDA 100%
  Signature: 720D5B9D889487244137284187DA063BDBB5B228
FILE: 08. Voodoo People.m4a
  Size: 26639797 Hash: 4FB9D8867A32C636331BA3FDDE6B1452 Accuracy: -m0
  Conclusion: CDDA 100%
  Signature: DC3E624CDA759A50C02A7600F67775545F979753
FILE: 07. Girls.m4a
  Size: 33605597 Hash: 55DB24A4F268AA0F4B7953559A5E62F4 Accuracy: -m0
  Conclusion: CDDA 100%
  Signature: 3B82F26C705F9F49862A0FC474EC17DEAA9D9041
FILE: 06. Poison.m4a
  Size: 30461469 Hash: DB27A4CFFE54A9C8AA843F5E574322FB Accuracy: -m0
  Conclusion: CDDA 100%
  Signature: 887C5F0F805A3EFA92B7DFB418009917B3BF67DE
FILE: 05. Smack My Bitch Up.m4a
  Size: 43534426 Hash: 4F363CB9AA7B36E19AA79C392A42F6B4 Accuracy: -m0
  Conclusion: CDDA 100%
  Signature: 04024E015A0C00139A64B84C3DB3E42AD44FE564
FILE: 04. Out of Space.m4a
  Size: 38064829 Hash: 21BD81E0D6DC3B00723C9D7C217D62BD Accuracy: -m0
  Conclusion: CDDA 99%
  Signature: C118516333B235734C572A9E1FAD87C50852B376
FILE: 03. Breathe.m4a
  Size: 41812578 Hash: C9EBDB769223753F67C62DE8DD31B243 Accuracy: -m0
  Conclusion: CDDA 100%
  Signature: 41F3DBDD782146E998E3AB9D753FDCED5C8CE4F4
FILE: 02. Their Law.m4a
  Size: 41953685 Hash: D3B677D2728F4231F9134D5BDA84120E Accuracy: -m0
  Conclusion: CDDA 100%
  Signature: F4ADE1C81CD8073AE26B763FD8970F1C1BB0DE51
FILE: 01. Firestarter.m4a
  Size: 35849461 Hash: 8E896EB313E31B1810C3EEB5D64FC7F9 Accuracy: -m0
  Conclusion: CDDA 99%
  Signature: 289C0BA6C97546ABDBEB83AA34E48D0F82728E5D
Код:
General
Complete name                            : /Users/user/Music/The Prodigy - 2005 - Their Law- The Singles 1990-2005 (ALAC)/01. Firestarter.m4a
Format                                   : MPEG-4
Format profile                           : Apple audio with iTunes info
Codec ID                                 : M4A
File size                                : 34.2 MiB
Duration                                 : 4mn 42s
Overall bit rate mode                    : Variable
Overall bit rate                         : 1 015 Kbps
Album                                    : Their Law: The Singles 1990-2005
Album/Performer                          : The Prodigy
Part/Position                            : 1
Track name                               : Firestarter
Track name/Position                      : 1
Performer                                : The Prodigy
Genre                                    : Breakbeat
Recorded date                            : 2005
Encoded date                             : UTC 2013-07-28 17:03:11
Tagged date                              : UTC 2013-07-28 17:03:13
Writing application                      : Easy CD-DA Extractor (http://www.poikosoft.com)
Cover                                    : Yes

Audio
ID                                       : 1
Format                                   : ALAC
Codec ID                                 : alac
Codec ID/Info                            : Apple Lossless Audio Codec
Duration                                 : 4mn 42s
Duration_LastFrame                       : -7ms
Bit rate mode                            : Variable
Bit rate                                 : 998 Kbps
Channel(s)                               : 2 channels
Sampling rate                            : 44.1 KHz
Bit depth                                : 16 bits
Stream size                              : 33.6 MiB (98%)
Language                                 : English
Encoded date                             : UTC 2013-07-28 17:03:11
Tagged date                              : UTC 2013-07-28 17:03:13

General
Complete name                            : /Users/user/Music/The Prodigy - 2005 - Their Law- The Singles 1990-2005 (ALAC)/02. Their Law.m4a
Format                                   : MPEG-4
Format profile                           : Apple audio with iTunes info
Codec ID                                 : M4A
File size                                : 40.0 MiB
Duration                                 : 5mn 36s
Overall bit rate mode                    : Variable
Overall bit rate                         : 998 Kbps
Album                                    : Their Law: The Singles 1990-2005
Album/Performer                          : The Prodigy
Part/Position                            : 1
Track name                               : Their Law
Track name/Position                      : 2
Performer                                : The Prodigy
Genre                                    : Breakbeat
Recorded date                            : 2005
Encoded date                             : UTC 2013-07-28 17:03:11
Tagged date                              : UTC 2013-07-28 17:03:14
Writing application                      : Easy CD-DA Extractor (http://www.poikosoft.com)
Cover                                    : Yes

Audio
ID                                       : 1
Format                                   : ALAC
Codec ID                                 : alac
Codec ID/Info                            : Apple Lossless Audio Codec
Duration                                 : 5mn 36s
Duration_LastFrame                       : -78ms
Bit rate mode                            : Variable
Bit rate                                 : 984 Kbps
Channel(s)                               : 2 channels
Sampling rate                            : 44.1 KHz
Bit depth                                : 16 bits
Stream size                              : 39.4 MiB (99%)
Language                                 : English
Encoded date                             : UTC 2013-07-28 17:03:11
Tagged date                              : UTC 2013-07-28 17:03:14

General
Complete name                            : /Users/user/Music/The Prodigy - 2005 - Their Law- The Singles 1990-2005 (ALAC)/03. Breathe.m4a
Format                                   : MPEG-4
Format profile                           : Apple audio with iTunes info
Codec ID                                 : M4A
File size                                : 39.9 MiB
Duration                                 : 5mn 36s
Overall bit rate mode                    : Variable
Overall bit rate                         : 995 Kbps
Album                                    : Their Law: The Singles 1990-2005
Album/Performer                          : The Prodigy
Part/Position                            : 1
Track name                               : Breathe
Track name/Position                      : 3
Performer                                : The Prodigy
Genre                                    : Breakbeat
Recorded date                            : 2005
Encoded date                             : UTC 2013-07-28 17:03:14
Tagged date                              : UTC 2013-07-28 17:03:17
Writing application                      : Easy CD-DA Extractor (http://www.poikosoft.com)
Cover                                    : Yes

Audio
ID                                       : 1
Format                                   : ALAC
Codec ID                                 : alac
Codec ID/Info                            : Apple Lossless Audio Codec
Duration                                 : 5mn 36s
Duration_LastFrame                       : -38ms
Bit rate mode                            : Variable
Bit rate                                 : 980 Kbps
Channel(s)                               : 2 channels
Sampling rate                            : 44.1 KHz
Bit depth                                : 16 bits
Stream size                              : 39.3 MiB (99%)
Language                                 : English
Encoded date                             : UTC 2013-07-28 17:03:14
Tagged date                              : UTC 2013-07-28 17:03:17

General
Complete name                            : /Users/user/Music/The Prodigy - 2005 - Their Law- The Singles 1990-2005 (ALAC)/04. Out of Space.m4a
Format                                   : MPEG-4
Format profile                           : Apple audio with iTunes info
Codec ID                                 : M4A
File size                                : 36.3 MiB
Duration                                 : 5mn 2s
Overall bit rate mode                    : Variable
Overall bit rate                         : 1 008 Kbps
Album                                    : Their Law: The Singles 1990-2005
Album/Performer                          : The Prodigy
Part/Position                            : 1
Track name                               : Out of Space
Track name/Position                      : 4
Performer                                : The Prodigy
Genre                                    : Breakbeat
Recorded date                            : 2005
Encoded date                             : UTC 2013-07-28 17:03:14
Tagged date                              : UTC 2013-07-28 17:03:17
Writing application                      : Easy CD-DA Extractor (http://www.poikosoft.com)
Cover                                    : Yes

Audio
ID                                       : 1
Format                                   : ALAC
Codec ID                                 : alac
Codec ID/Info                            : Apple Lossless Audio Codec
Duration                                 : 5mn 2s
Duration_LastFrame                       : -31ms
Bit rate mode                            : Variable
Bit rate                                 : 992 Kbps
Channel(s)                               : 2 channels
Sampling rate                            : 44.1 KHz
Bit depth                                : 16 bits
Stream size                              : 35.7 MiB (98%)
Language                                 : English
Encoded date                             : UTC 2013-07-28 17:03:14
Tagged date                              : UTC 2013-07-28 17:03:17

General
Complete name                            : /Users/user/Music/The Prodigy - 2005 - Their Law- The Singles 1990-2005 (ALAC)/05. Smack My Bitch Up.m4a
Format                                   : MPEG-4
Format profile                           : Apple audio with iTunes info
Codec ID                                 : M4A
File size                                : 41.5 MiB
Duration                                 : 5mn 43s
Overall bit rate mode                    : Variable
Overall bit rate                         : 1 014 Kbps
Album                                    : Their Law: The Singles 1990-2005
Album/Performer                          : The Prodigy
Part/Position                            : 1
Track name                               : Smack My Bitch Up
Track name/Position                      : 5
Performer                                : The Prodigy
Genre                                    : Breakbeat
Recorded date                            : 2005
Encoded date                             : UTC 2013-07-28 17:03:17
Tagged date                              : UTC 2013-07-28 17:03:20
Writing application                      : Easy CD-DA Extractor (http://www.poikosoft.com)
Cover                                    : Yes

Audio
ID                                       : 1
Format                                   : ALAC
Codec ID                                 : alac
Codec ID/Info                            : Apple Lossless Audio Codec
Duration                                 : 5mn 43s
Duration_LastFrame                       : -83ms
Bit rate mode                            : Variable
Bit rate                                 : 1 000 Kbps
Channel(s)                               : 2 channels
Sampling rate                            : 44.1 KHz
Bit depth                                : 16 bits
Stream size                              : 40.9 MiB (99%)
Language                                 : English
Encoded date                             : UTC 2013-07-28 17:03:17
Tagged date                              : UTC 2013-07-28 17:03:20

General
Complete name                            : /Users/user/Music/The Prodigy - 2005 - Their Law- The Singles 1990-2005 (ALAC)/06. Poison.m4a
Format                                   : MPEG-4
Format profile                           : Apple audio with iTunes info
Codec ID                                 : M4A
File size                                : 29.1 MiB
Duration                                 : 4mn 1s
Overall bit rate mode                    : Variable
Overall bit rate                         : 1 010 Kbps
Album                                    : Their Law: The Singles 1990-2005
Album/Performer                          : The Prodigy
Part/Position                            : 1
Track name                               : Poison
Track name/Position                      : 6
Performer                                : The Prodigy
Genre                                    : Breakbeat
Recorded date                            : 2005
Encoded date                             : UTC 2013-07-28 17:03:17
Tagged date                              : UTC 2013-07-28 17:03:20
Writing application                      : Easy CD-DA Extractor (http://www.poikosoft.com)
Cover                                    : Yes

Audio
ID                                       : 1
Format                                   : ALAC
Codec ID                                 : alac
Codec ID/Info                            : Apple Lossless Audio Codec
Duration                                 : 4mn 1s
Duration_LastFrame                       : -9ms
Bit rate mode                            : Variable
Bit rate                                 : 991 Kbps
Channel(s)                               : 2 channels
Sampling rate                            : 44.1 KHz
Bit depth                                : 16 bits
Stream size                              : 28.5 MiB (98%)
Language                                 : English
Encoded date                             : UTC 2013-07-28 17:03:17
Tagged date                              : UTC 2013-07-28 17:03:20

General
Complete name                            : /Users/user/Music/The Prodigy - 2005 - Their Law- The Singles 1990-2005 (ALAC)/07. Girls.m4a
Format                                   : MPEG-4
Format profile                           : Apple audio with iTunes info
Codec ID                                 : M4A
File size                                : 32.0 MiB
Duration                                 : 4mn 12s
Overall bit rate mode                    : Variable
Overall bit rate                         : 1 064 Kbps
Album                                    : Their Law: The Singles 1990-2005
Album/Performer                          : The Prodigy
Part/Position                            : 1
Track name                               : Girls
Track name/Position                      : 7
Performer                                : The Prodigy
Genre                                    : Breakbeat
Recorded date                            : 2005
Encoded date                             : UTC 2013-07-28 17:03:20
Tagged date                              : UTC 2013-07-28 17:03:22
Writing application                      : Easy CD-DA Extractor (http://www.poikosoft.com)
Cover                                    : Yes

Audio
ID                                       : 1
Format                                   : ALAC
Codec ID                                 : alac
Codec ID/Info                            : Apple Lossless Audio Codec
Duration                                 : 4mn 12s
Duration_LastFrame                       : -60ms
Bit rate mode                            : Variable
Bit rate                                 : 1 046 Kbps
Channel(s)                               : 2 channels
Sampling rate                            : 44.1 KHz
Bit depth                                : 16 bits
Stream size                              : 31.5 MiB (98%)
Language                                 : English
Encoded date                             : UTC 2013-07-28 17:03:20
Tagged date                              : UTC 2013-07-28 17:03:22

General
Complete name                            : /Users/user/Music/The Prodigy - 2005 - Their Law- The Singles 1990-2005 (ALAC)/08. Voodoo People.m4a
Format                                   : MPEG-4
Format profile                           : Apple audio with iTunes info
Codec ID                                 : M4A
File size                                : 25.4 MiB
Duration                                 : 3mn 40s
Overall bit rate mode                    : Variable
Overall bit rate                         : 968 Kbps
Album                                    : Their Law: The Singles 1990-2005
Album/Performer                          : The Prodigy
Part/Position                            : 1
Track name                               : Voodoo People
Track name/Position                      : 8
Performer                                : The Prodigy
Genre                                    : Breakbeat
Recorded date                            : 2005
Encoded date                             : UTC 2013-07-28 17:03:20
Tagged date                              : UTC 2013-07-28 17:03:22
Writing application                      : Easy CD-DA Extractor (http://www.poikosoft.com)
Cover                                    : Yes

Audio
ID                                       : 1
Format                                   : ALAC
Codec ID                                 : alac
Codec ID/Info                            : Apple Lossless Audio Codec
Duration                                 : 3mn 40s
Duration_LastFrame                       : -85ms
Bit rate mode                            : Variable
Bit rate                                 : 946 Kbps
Channel(s)                               : 2 channels
Sampling rate                            : 44.1 KHz
Bit depth                                : 16 bits
Stream size                              : 24.8 MiB (98%)
Language                                 : English
Encoded date                             : UTC 2013-07-28 17:03:20
Tagged date                              : UTC 2013-07-28 17:03:22

General
Complete name                            : /Users/user/Music/The Prodigy - 2005 - Their Law- The Singles 1990-2005 (ALAC)/09. Charly.m4a
Format                                   : MPEG-4
Format profile                           : Apple audio with iTunes info
Codec ID                                 : M4A
File size                                : 37.6 MiB
Duration                                 : 5mn 22s
Overall bit rate mode                    : Variable
Overall bit rate                         : 977 Kbps
Album                                    : Their Law: The Singles 1990-2005
Album/Performer                          : The Prodigy
Part/Position                            : 1
Track name                               : Charly
Track name/Position                      : 9
Performer                                : The Prodigy
Genre                                    : Breakbeat
Recorded date                            : 2005
Encoded date                             : UTC 2013-07-28 17:03:22
Tagged date                              : UTC 2013-07-28 17:03:25
Writing application                      : Easy CD-DA Extractor (http://www.poikosoft.com)
Cover                                    : Yes

Audio
ID                                       : 1
Format                                   : ALAC
Codec ID                                 : alac
Codec ID/Info                            : Apple Lossless Audio Codec
Duration                                 : 5mn 22s
Duration_LastFrame                       : -49ms
Bit rate mode                            : Variable
Bit rate                                 : 962 Kbps
Channel(s)                               : 2 channels
Sampling rate                            : 44.1 KHz
Bit depth                                : 16 bits
Stream size                              : 37.1 MiB (98%)
Language                                 : English
Encoded date                             : UTC 2013-07-28 17:03:22
Tagged date                              : UTC 2013-07-28 17:03:25

General
Complete name                            : /Users/user/Music/The Prodigy - 2005 - Their Law- The Singles 1990-2005 (ALAC)/10. No Good (Start The Dance).m4a
Format                                   : MPEG-4
Format profile                           : Apple audio with iTunes info
Codec ID                                 : M4A
File size                                : 48.7 MiB
Duration                                 : 6mn 19s
Overall bit rate mode                    : Variable
Overall bit rate                         : 1 075 Kbps
Album                                    : Their Law: The Singles 1990-2005
Album/Performer                          : The Prodigy
Part/Position                            : 1
Track name                               : No Good (Start The Dance)
Track name/Position                      : 10
Performer                                : The Prodigy
Genre                                    : Breakbeat
Recorded date                            : 2005
Encoded date                             : UTC 2013-07-28 17:03:22
Tagged date                              : UTC 2013-07-28 17:03:26
Writing application                      : Easy CD-DA Extractor (http://www.poikosoft.com)
Cover                                    : Yes

Audio
ID                                       : 1
Format                                   : ALAC
Codec ID                                 : alac
Codec ID/Info                            : Apple Lossless Audio Codec
Duration                                 : 6mn 19s
Duration_LastFrame                       : -65ms
Bit rate mode                            : Variable
Bit rate                                 : 1 062 Kbps
Channel(s)                               : 2 channels
Sampling rate                            : 44.1 KHz
Bit depth                                : 16 bits
Stream size                              : 48.1 MiB (99%)
Language                                 : English
Encoded date                             : UTC 2013-07-28 17:03:22
Tagged date                              : UTC 2013-07-28 17:03:26

General
Complete name                            : /Users/user/Music/The Prodigy - 2005 - Their Law- The Singles 1990-2005 (ALAC)/11. Spitfire.m4a
Format                                   : MPEG-4
Format profile                           : Apple audio with iTunes info
Codec ID                                 : M4A
File size                                : 26.6 MiB
Duration                                 : 3mn 26s
Overall bit rate mode                    : Variable
Overall bit rate                         : 1 077 Kbps
Album                                    : Their Law: The Singles 1990-2005
Album/Performer                          : The Prodigy
Part/Position                            : 1
Track name                               : Spitfire
Track name/Position                      : 11
Performer                                : The Prodigy
Genre                                    : Breakbeat
Recorded date                            : 2005
Encoded date                             : UTC 2013-07-28 17:03:25
Tagged date                              : UTC 2013-07-28 17:03:27
Writing application                      : Easy CD-DA Extractor (http://www.poikosoft.com)
Cover                                    : Yes

Audio
ID                                       : 1
Format                                   : ALAC
Codec ID                                 : alac
Codec ID/Info                            : Apple Lossless Audio Codec
Duration                                 : 3mn 26s
Duration_LastFrame                       : -56ms
Bit rate mode                            : Variable
Bit rate                                 : 1 054 Kbps
Channel(s)                               : 2 channels
Sampling rate                            : 44.1 KHz
Bit depth                                : 16 bits
Stream size                              : 26.0 MiB (98%)
Language                                 : English
Encoded date                             : UTC 2013-07-28 17:03:25
Tagged date                              : UTC 2013-07-28 17:03:27

General
Complete name                            : /Users/user/Music/The Prodigy - 2005 - Their Law- The Singles 1990-2005 (ALAC)/12. Jericho.m4a
Format                                   : MPEG-4
Format profile                           : Apple audio with iTunes info
Codec ID                                 : M4A
File size                                : 27.4 MiB
Duration                                 : 3mn 46s
Overall bit rate mode                    : Variable
Overall bit rate                         : 1 014 Kbps
Album                                    : Their Law: The Singles 1990-2005
Album/Performer                          : The Prodigy
Part/Position                            : 1
Track name                               : Jericho
Track name/Position                      : 12
Performer                                : The Prodigy
Genre                                    : Breakbeat
Recorded date                            : 2005
Encoded date                             : UTC 2013-07-28 17:03:26
Tagged date                              : UTC 2013-07-28 17:03:29
Writing application                      : Easy CD-DA Extractor (http://www.poikosoft.com)
Cover                                    : Yes

Audio
ID                                       : 1
Format                                   : ALAC
Codec ID                                 : alac
Codec ID/Info                            : Apple Lossless Audio Codec
Duration                                 : 3mn 46s
Duration_LastFrame                       : -65ms
Bit rate mode                            : Variable
Bit rate                                 : 993 Kbps
Channel(s)                               : 2 channels
Sampling rate                            : 44.1 KHz
Bit depth                                : 16 bits
Stream size                              : 26.9 MiB (98%)
Language                                 : English
Encoded date                             : UTC 2013-07-28 17:03:26
Tagged date                              : UTC 2013-07-28 17:03:29

General
Complete name                            : /Users/user/Music/The Prodigy - 2005 - Their Law- The Singles 1990-2005 (ALAC)/13. Everybody In The Place.m4a
Format                                   : MPEG-4
Format profile                           : Apple audio with iTunes info
Codec ID                                 : M4A
File size                                : 37.9 MiB
Duration                                 : 5mn 9s
Overall bit rate mode                    : Variable
Overall bit rate                         : 1 027 Kbps
Album                                    : Their Law: The Singles 1990-2005
Album/Performer                          : The Prodigy
Part/Position                            : 1
Track name                               : Everybody In The Place
Track name/Position                      : 13
Performer                                : The Prodigy
Genre                                    : Breakbeat
Recorded date                            : 2005
Encoded date                             : UTC 2013-07-28 17:03:28
Tagged date                              : UTC 2013-07-28 17:03:30
Writing application                      : Easy CD-DA Extractor (http://www.poikosoft.com)
Cover                                    : Yes

Audio
ID                                       : 1
Format                                   : ALAC
Codec ID                                 : alac
Codec ID/Info                            : Apple Lossless Audio Codec
Duration                                 : 5mn 9s
Duration_LastFrame                       : -61ms
Bit rate mode                            : Variable
Bit rate                                 : 1 011 Kbps
Channel(s)                               : 2 channels
Sampling rate                            : 44.1 KHz
Bit depth                                : 16 bits
Stream size                              : 37.3 MiB (98%)
Language                                 : English
Encoded date                             : UTC 2013-07-28 17:03:28
Tagged date                              : UTC 2013-07-28 17:03:30

General
Complete name                            : /Users/user/Music/The Prodigy - 2005 - Their Law- The Singles 1990-2005 (ALAC)/14. One Love.m4a
Format                                   : MPEG-4
Format profile                           : Apple audio with iTunes info
Codec ID                                 : M4A
File size                                : 39.3 MiB
Duration                                 : 5mn 25s
Overall bit rate mode                    : Variable
Overall bit rate                         : 1 013 Kbps
Album                                    : Their Law: The Singles 1990-2005
Album/Performer                          : The Prodigy
Part/Position                            : 1
Track name                               : One Love
Track name/Position                      : 14
Performer                                : The Prodigy
Genre                                    : Breakbeat
Recorded date                            : 2005
Encoded date                             : UTC 2013-07-28 17:03:29
Tagged date                              : UTC 2013-07-28 17:03:32
Writing application                      : Easy CD-DA Extractor (http://www.poikosoft.com)
Cover                                    : Yes

Audio
ID                                       : 1
Format                                   : ALAC
Codec ID                                 : alac
Codec ID/Info                            : Apple Lossless Audio Codec
Duration                                 : 5mn 25s
Duration_LastFrame                       : -39ms
Bit rate mode                            : Variable
Bit rate                                 : 998 Kbps
Channel(s)                               : 2 channels
Sampling rate                            : 44.1 KHz
Bit depth                                : 16 bits
Stream size                              : 38.7 MiB (99%)
Language                                 : English
Encoded date                             : UTC 2013-07-28 17:03:29
Tagged date                              : UTC 2013-07-28 17:03:32

General
Complete name                            : /Users/user/Music/The Prodigy - 2005 - Their Law- The Singles 1990-2005 (ALAC)/14. One Love.m4a.Spectrogram.png
Format                                   : PNG
Format/Info                              : Portable Network Graphic
File size                                : 76.1 KiB

Image
Format                                   : PNG
Format/Info                              : Portable Network Graphic
Width                                    : 544 pixels
Height                                   : 357 pixels
Bit depth                                : 8 bits
Compression mode                         : Lossless
Stream size                              : 76.1 KiB (100%)

General
Complete name                            : /Users/user/Music/The Prodigy - 2005 - Their Law- The Singles 1990-2005 (ALAC)/15. Hot Ride.m4a
Format                                   : MPEG-4
Format profile                           : Apple audio with iTunes info
Codec ID                                 : M4A
File size                                : 36.2 MiB
Duration                                 : 4mn 32s
Overall bit rate mode                    : Variable
Overall bit rate                         : 1 113 Kbps
Album                                    : Their Law: The Singles 1990-2005
Album/Performer                          : The Prodigy
Part/Position                            : 1
Track name                               : Hot Ride
Track name/Position                      : 15
Performer                                : The Prodigy
Genre                                    : Breakbeat
Recorded date                            : 2005
Encoded date                             : UTC 2013-07-28 17:03:31
Tagged date                              : UTC 2013-07-28 17:03:33
Writing application                      : Easy CD-DA Extractor (http://www.poikosoft.com)
Cover                                    : Yes

Audio
ID                                       : 1
Format                                   : ALAC
Codec ID                                 : alac
Codec ID/Info                            : Apple Lossless Audio Codec
Duration                                 : 4mn 32s
Duration_LastFrame                       : -54ms
Bit rate mode                            : Variable
Bit rate                                 : 1 095 Kbps
Channel(s)                               : 2 channels
Sampling rate                            : 44.1 KHz
Bit depth                                : 16 bits
Stream size                              : 35.6 MiB (98%)
Language                                 : English
Encoded date                             : UTC 2013-07-28 17:03:31
Tagged date                              : UTC 2013-07-28 17:03:33

General
Complete name                            : /Users/user/Music/The Prodigy - 2005 - Their Law- The Singles 1990-2005 (ALAC)/Folder.auCDtect.txt
File size                                : 6.00 KiB

General
Complete name                            : /Users/user/Music/The Prodigy - 2005 - Their Law- The Singles 1990-2005 (ALAC)/The Prodigy - Their Law- The Singles 1990-2005.log
File size                                : 14.7 KiB

Время раздачи: 24/7 до 3 скачавших
[NNM-Club.ru]_The Prodigy - 2005 - Their Law- The Singles 1990-2005 (ALAC).torrent
 Торрент: Платиновая раздача  Зарегистрирован
 
Скачать


Примагнититься
 Зарегистрирован:   28 Июл 2013 21:45:23
 Размер:   532 MB  (
 Рейтинг:   4.8 (Голосов: 58)
 Поблагодарили:   195
 Проверка:   Оформление проверено модератором 28 Июл 2013 22:24:31
Как cкачать  ·  Как раздать  ·  Правильно оформить  ·  Поднять ратио!  
Doppel34
Стаж: 9 лет 5 мес.
Сообщений: 7
Ratio: 1.289
2.47%
Стиль рейв!!!А не Breakbeat, Hardcore, Big Beat
gvm55
Зам. Куратора Музыки
Спонсор и Реставратор Клуба, Uploader 100+
Стаж: 12 лет 5 мес.
Сообщений: 5005
Ratio: 163.704
Раздал: 193.8 TB
Поблагодарили: 72149
100%
Откуда: SPb
nnm-club.gif
:приветствую:
В отчете EAC кодировщик flac, а итоговые файлы ALAC? Их еще раз перекодировали? Зачем?
:пока:

_________________
Исправил релиз - напиши мне в со ссылкой на него.
CafeTea ®
Покровитель талантов
Стаж: 10 лет 3 мес.
Сообщений: 513
Ratio: 6.711
Поблагодарили: 20400
100%
gvm55 писал(а): Перейти к сообщению
:приветствую:
В отчете EAC кодировщик flac, а итоговые файлы ALAC? Их еще раз перекодировали? Зачем?
:пока:

что-бы быть в разделе "ALAC"
FRKing
Стаж: 11 лет 2 мес.
Сообщений: 62
Ratio: 1.342
Поблагодарили: 3
9.77%
witch.png
Doppel34 писал(а): Перейти к сообщению
Стиль рейв!!!А не Breakbeat, Hardcore, Big Beat
Я тоже склонен так считать, но уж так повелось, да и стиль группы уже далеко не рейв, но точно не Hardcore!
African
Стаж: 12 лет 1 мес.
Сообщений: 312
Ratio: 22.299
100%
pirates.png
Ну по мне - так лучше каждый альбом по отдельности иметь, чем компиляции, раздающему - респект!
sooh
Стаж: 9 лет 9 мес.
Сообщений: 23
Ratio: 18.854
Поблагодарили: 3
2.16%
Откуда: Челябинск
russia.gif
рейв это не жанр музыки
Electro punk сюда подходит)
J_Man
Сталкер
Стаж: 12 лет 8 мес.
Сообщений: 6937
Ratio: 26.659
Поблагодарили: 13104
100%
pirates.png
gvm55 писал(а):
В отчете EAC кодировщик flac, а итоговые файлы ALAC

От этого хуже не становится :) Поскольку лосслесс.

_________________
ЖЫВЕ БЕЛАРУСЬ !!!
FRKing
Стаж: 11 лет 2 мес.
Сообщений: 62
Ratio: 1.342
Поблагодарили: 3
9.77%
witch.png
sooh писал(а): Перейти к сообщению
рейв это не жанр музыки
Electro punk сюда подходит)

об этом можно долго спорить, но рейв - это жанр электронной музыки! а первые композиции the prodigy, именно в этом стиле! а щас даже не пытайтесь определить жанр, продиджи есть продиджи!
NigerInTranc
Стаж: 9 лет 4 мес.
Сообщений: 5
Ratio: 0.776
4.55%
спасибо :) включаю соседям когда они шумят :)
illspoken
Стаж: 10 лет 3 мес.
Сообщений: 3
Ratio: 54.522
6.67%
cambodia.gif
ну и зачем этот убогий формат?
Показать сообщения:   
Начать новую тему   Ответить на тему    Торрент-трекер NNM-Club -> Аудио и Видео -> Музыка Lossless (ALAC) Часовой пояс: GMT + 3
Страница 1 из 1