Классический форум-трекер
canvas not supported
Нас вместе: 4 171 134

Грань / За гранью / Fringe [5 сезон:1-13 серия из 13 ] (2012) WEB-DLRip [LostFilm]


Страницы:   Пред.  1, 2, 3, 4, 5, 6, 7 
 
RSS
Начать новую тему   Ответить на тему    Торрент-трекер NNM-Club -> Зарубежные сериалы -> Грань / Fringe
Автор Сообщение
art-61 ®
Стаж: 10 лет 5 мес.
Сообщений: 1094
Ratio: 132.764
Поблагодарили: 142521
100%
Откуда: Санкт-Петербург
russia.gif
За Гранью / Fringe [5 сезон:1-13 серия из 13 ] (2012) WEB-DLRip [LostFilm]
Русское название: За Гранью
Оригинальное название: Fringe
Год выпуска: 2012
Выпущено: США, Bad Robot, Fringe Element Films, Warner Bros. Television
Жанр: Ужасы, фантастика, триллер, драма, детектив

Перевод: Профессиональный (многоголосый закадровый) - LostFilm



Дата мировой премьеры: 9 сентября 2008
Дата российской премьеры: 24 мая 2010

Режиссер: Джо Чаппелль, Дэвид Стрейтон, Том Яцко
Актеры: Анна Торв, Джошуа Джексон, Лэнс Реддик, Блэр Браун, Джесика Николь, Джон Ноубл, Кирк Асеведо, Майкл Серверис, Марк Вэлли, Эри Грейнор

Описание фильма:
Пятый сезон начинается с событий, которыми закончилась серия Транзитные письма. Действие происходит в будущем, в 2036 году, когда власть на Земле захватили наблюдатели. Команда «За гранью» освобождена из янтаря, в котором герои провели 20 лет, и теперь возглавляет сопротивление. Питер наконец-то встречается со своей уже повзрослевшей дочерью Эттой, и они вместе начинают искать свою Оливию и спасать мир от наблюдателей.

Продолжительность: ~00:43:00 серия
Качество видео: WEB-DLRip

Видеокодек: Xvid
Битрейт видео: ~1867 Кбит/с
Размер кадра: 720x400
Аудиокодек: MP3, 2 ch
Битрейт аудио: 192 Кбит/с
Общее
Полное имя : E:\Cinema\Fringe.s05e01.rus.avi
Формат : AVI
Формат/Информация : Audio Video Interleave
Размер файла : 646 Мбайт
Продолжительность : 43 м.
Общий поток : 2072 Кбит/сек
Программа кодирования : Nandub v1.0rc2
Библиотека кодирования : Nandub build 1853/release

Видео
Идентификатор : 0
Формат : MPEG-4 Visual
Профиль формата : Simple@L3
Параметр BVOP формата : Нет
Параметр QPel формата : Нет
Параметр GMC формата : Без точки перехода
Параметр матрицы формата : Default (H.263)
Идентификатор кодека : XVID
Идентификатор кодека/Подсказка : XviD
Продолжительность : 43 м.
Битрейт : 1867 Кбит/сек
Ширина : 720 пикселей
Высота : 400 пикселей
Соотношение сторон : 16:9
Частота кадров : 23,976 кадра/сек
Цветовое пространство : YUV
Субдискретизация насыщенности : 4:2:0
Битовая глубина : 8 бит
Тип развёртки : Прогрессивная
Метод сжатия : С потерями
Бит/(Пиксели*Кадры) : 0.270
Размер потока : 582 Мбайт (90%)
Библиотека кодирования : XviD 1.2.1 (UTC 2008-12-04)

Аудио
Идентификатор : 1
Формат : MPEG Audio
Версия формата : Version 1
Профиль формата : Layer 3
Режим : Joint stereo
Расширение режима : MS Stereo
Идентификатор кодека : 55
Идентификатор кодека/Подсказка : MP3
Продолжительность : 43 м.
Вид битрейта : Постоянный
Битрейт : 192 Кбит/сек
Каналы : 2 канала
Частота : 48,0 КГц
Метод сжатия : С потерями
Размер потока : 59,8 Мбайт (9%)
Выравнивание : Соединение по промежуткам
Продолжительность промежутка : 24 мс. (0,58 видеокадр)
Время предзагрузки промежутка : 480 мс.
Библиотека кодирования : LAME3.97 (beta)
при каждом добавлении создаётся новый торрент.
Чтобы начать докачку новой серии, пользователям необходимо сделать следующее:
1. Остановить скачивание;
2. Удалить старый торрент у себя из клиента (старые серии удалять не надо);
3. Скачать новый торрент и запустить его у себя в клиенте вместо старого, при этом указать клиенту путь в старую папку куда и должно происходить скачивание новых серий. Ваш клиент при этом должен произвести хеширование (проверку) старой папки и будет докачивать только те серии, которых у вас ещё нет. Старые серии при этом не удаляются, а продолжают раздаваться! Eсли вы уже удалили старые серии, то предотвратить повторную закачку старых серий можно, отжав галочку в соответствующих местах при запуске нового торрента.
Скриншоты:


Время раздачи: 24/7
[NNM-Club.ru]_Fringe. season 5. LostFilm.torrent
 Торрент: Платиновая раздача  Зарегистрирован
 
Скачать


 Зарегистрирован:   22 Янв 2013 00:48:41
 Размер:   7.68 GB  (
 Рейтинг:   4.9 (Голосов: 287)
 Поблагодарили:   1017
 Проверка:   Оформление проверено модератором 22 Янв 2013 15:39:43
Как cкачать  ·  Как раздать  ·  Правильно оформить  ·  Поднять ратио!  

_________________
В этом безумном мире возможно всё!
bart481
Стаж: 8 лет 9 мес.
Сообщений: 79
Ratio: 14.333
Раздал: 4.915 TB
100%
russia.gif
Спасибо! я самый счастливый! не смотрел еще ни одной серии!))
прочитал комменты и обомлел), прозевал))
ура! есть что посмотреть)
Babai2012
 
Стаж: 9 лет 7 мес.
Сообщений: 89
Ratio: 14.612
100%
Откуда: За МКАДом
russia.gif
Цензура ну вот!
И моё СПАСИБО!!!

_________________
Пионер-пенсионер
Осваиваю ИКТ
969rus02
Стаж: 12 лет
Сообщений: 81
Ratio: 1.126
100%
Откуда: Уфа
russia.gif
Спасибо
не смотрел 5ый сезон
VaVN
Стаж: 10 лет 1 мес.
Сообщений: 3
Ratio: 1.649
4.72%
на раздачу кто нибудь встаньте пожалуйста
toxamot
Стаж: 10 лет 1 мес.
Сообщений: 4
Ratio: 2.973
1.59%
russia.gif
Классный фильмец
Показать сообщения:   
Начать новую тему   Ответить на тему    Торрент-трекер NNM-Club -> Зарубежные сериалы -> Грань / Fringe Часовой пояс: GMT + 3
Страницы:   Пред.  1, 2, 3, 4, 5, 6, 7
Страница 7 из 7