Классический форум-трекер
canvas not supported
Нас вместе: 4 235 221

Кошмар на улице Вязов. Коллекция / A Nightmare on Elm Street: Collection (1984-1994) [720p] BDRip


 
 
RSS
Начать новую тему   Ответить на тему    Торрент-трекер NNM-Club -> Архив торрентов -> Архив Классики кино и Старых фильмов до 90-х
Автор Сообщение
virtuhan ®
Стаж: 13 лет 2 мес.
Сообщений: 247
Ratio: 339.173
Раздал: 13.7 TB
Поблагодарили: 13470
100%
ussr.gif
Кошмар на улице Вязов. Коллекция / A Nightmare on Elm Street: Collection (1984-1994) [720p] BDRip
Год выпуска: 1984-1994
Описание: Сага о похождениях Фредди Крюгера
Кошмар на улице Вязов / A Nightmare on Elm Street (1984) BDRip
«Его зовут Фредди. Фредди Крюгер.»
Жанр: Ужасы
Описание фильма:
Старшеклассников одной из школ Спрингвуда, преследует один и тот же кошмарный сон в котором за ними гонится и кромсает на куски изуродованный человек в шляпе и с ножами на своей перчатке. И тот, кого убили во сне — умирает в реальности… Оказывается много лет назад, герой сна — Фредди Крюгер был маньяком, совершившим несколько зверских убийств детей. Их родители, не дожидаясь суда, линчевали Фредди, спалив заживо в котельной. И теперь Фредди пришел отомстить…
Режиссер: Уэс Крэйвен
Актеры: Хезер Лэнгенкэмп, Рони Блейкли, Джон Сэксон, Аманда Уайсс, Роберт Инглунд, Джонни Депп, Чарльз Флайшер, Джозеф Випп, Джейсу Гарсия, Лин Шэй, Джо Ангер.
Продолжительность: 01:31:14
Перевод: Профессиональный (двухголосый, закадровый) НТВ
Субтитры: Русские(CP Digital), русские(Kinomania), английские, finnish, french, hungarian, portuguese, romanian, swedish

Видеокодек: MPEG-4 AVC/H.264
Битрейт видео: ~8781 Kbps
Размер кадра: 1280x720
Качество видео: BDRip
Аудио:
1#Русский: AC3, 2 ch, 192 Kbps
2#Английский: DTS, 6 ch, 1510 Kbps
General
Unique ID : 178237554986940761486694428087967911817 (0x86174DEF8AC39C9899CAA65E7ED98F89)
Complete name : D:\A.Nightmare.on.Elm.Street.I.1984\A.Nightmare.on.Elm.Street.I.1984.720p.mkv
Format : Matroska
File size : 6.64 GiB
Duration : 1h 31mn
Overall bit rate : 10.4 Mbps
Movie name : A.Nightmare.on.Elm.Street.1984.720p.BluRay,DTS-ES.x264.ESiR [ .org]
Encoded date : UTC 2012-01-06 22:45:54
Writing application : mkvmerge v4.9.1 ('Ich will') сборка от Jul 11 2011 23:53:15
Writing library : libebml v1.2.1 + libmatroska v1.1.1
Attachment : Yes / Yes / Yes
Video #1
ID : 1
Format : AVC
Format/Info : Advanced Video Codec
Format profile : High@L4.1
Format settings, CABAC : Yes
Format settings, ReFrames : 9 frames
Codec ID : V_MPEG4/ISO/AVC
Duration : 1h 31mn
Bit rate : 8 781 Kbps
Width : 1 280 pixels
Height : 720 pixels
Display aspect ratio : 16:9
Frame rate : 23.976 fps
Color space : YUV
Chroma subsampling : 4:2:0
Bit depth : 8 bits
Scan type : Progressive
Bits/(Pixel*Frame) : 0.397
Stream size : 5.42 GiB (82%)
Writing library : x264 core 98 r1629 2e81ce1
Encoding settings : cabac=1 / ref=9 / deblock=1:-1:-1 / analyse=0x3:0x133 / me=tesa / subme=10 / psy=1 / psy_rd=1.00:0.15 / mixed_ref=1 / me_range=24 / chroma_me=1 / trellis=2 / 8x8dct=1 / cqm=0 / deadzone=21,11 / fast_pskip=0 / chroma_qp_offset=-3 / threads=6 / sliced_threads=0 / slices=4 / nr=0 / decimate=1 / interlaced=0 / constrained_intra=0 / bframes=16 / b_pyramid=2 / b_adapt=2 / b_bias=0 / direct=3 / weightb=1 / weightp=2 / keyint=250 / keyint_min=25 / scenecut=40 / intra_refresh=0 / rc_lookahead=60 / rc=2pass / mbtree=1 / bitrate=8781 / ratetol=1.0 / qcomp=0.60 / qpmin=10 / qpmax=51 / qpstep=4 / cplxblur=20.0 / qblur=0.5 / ip_ratio=1.40 / aq=1:1.00
Language : English
Audio #2
ID : 2
Format : AC-3
Format/Info : Audio Coding 3
Mode extension : CM (complete main)
Codec ID : A_AC3
Duration : 1h 31mn
Bit rate mode : Constant
Bit rate : 192 Kbps
Channel(s) : 2 channels
Channel positions : Front: L R
Sampling rate : 48.0 KHz
Bit depth : 16 bits
Compression mode : Lossy
Stream size : 125 MiB (2%)
Title : НТВ (Александр Рахленко, Любовь Германова)
Language : Russian
Audio #3
ID : 3
Format : DTS
Format/Info : Digital Theater Systems
Codec ID : A_DTS
Duration : 1h 31mn
Bit rate mode : Constant
Bit rate : 1 510 Kbps
Channel(s) : 6 channels
Channel positions : Front: L C R, Side: L R, LFE
Sampling rate : 48.0 KHz
Bit depth : 24 bits
Compression mode : Lossy
Stream size : 985 MiB (14%)
Language : English
Text #4
ID : 4
Format : UTF-8
Codec ID : S_TEXT/UTF8
Codec ID/Info : UTF-8 Plain Text
Title : CP Digital
Language : Russian
Text #5
ID : 5
Format : UTF-8
Codec ID : S_TEXT/UTF8
Codec ID/Info : UTF-8 Plain Text
Title : Kinomania
Language : Russian
Text #6
ID : 6
Format : UTF-8
Codec ID : S_TEXT/UTF8
Codec ID/Info : UTF-8 Plain Text
Language : English
Text #7
ID : 7
Format : ASS
Codec ID : S_TEXT/ASS
Codec ID/Info : Advanced Sub Station Alpha
Compression mode : Lossless
Language : Finnish
Text #8
ID : 8
Format : ASS
Codec ID : S_TEXT/ASS
Codec ID/Info : Advanced Sub Station Alpha
Compression mode : Lossless
Language : French
Text #9
ID : 9
Format : ASS
Codec ID : S_TEXT/ASS
Codec ID/Info : Advanced Sub Station Alpha
Compression mode : Lossless
Language : Hungarian
Text #10
ID : 10
Format : ASS
Codec ID : S_TEXT/ASS
Codec ID/Info : Advanced Sub Station Alpha
Compression mode : Lossless
Language : Portuguese
Text #11
ID : 11
Format : ASS
Codec ID : S_TEXT/ASS
Codec ID/Info : Advanced Sub Station Alpha
Compression mode : Lossless
Language : Romanian
Text #12
ID : 12
Format : ASS
Codec ID : S_TEXT/ASS
Codec ID/Info : Advanced Sub Station Alpha
Compression mode : Lossless
Language : Swedish
Скриншоты:
Кошмар на улице Вязов 2: Месть Фредди / A Nightmare on Elm Street Part 2: Freddy's Revenge (1985) BDRip
«Someone is coming back to Elm Street!»
Русское название: Кошмар на улице Вязов 2: Месть Фредди
Оригинальное название: A Nightmare on Elm Street Part 2: Freddy's Revenge
Год выпуска: 1985
Жанр: Ужасы
Описание фильма:
Спустя пять лет в дом, где подростков преследовали кошмары с кровавым убийцей, въезжает новая семья, ничего не подозревающая о дурной славе этого коттеджа. Фрэдди Крюгер вновь возникает в снах юного Джесси Уэлма и пытается завладеть не только его мозгом, но и телом. Подружка Джесси, Лиза, надеется помочь ему избавиться от навязчивого видения. Замечательные спецэффекты и пиротехника обеспечили фильму кассовый успех.
Режиссер: Джек Шолдер
Актеры: Марк Паттон, Ким Майерс, Клу Гулагер, Хоуп Лэнг, Маршалл Белл, Мелинда О. Фи, Том МакФедден, Сидни Уолш, Роберт Раслер, Эдвард Блэкофф
Продолжительность: 1:25:37
Перевод: Профессиональный (двухголосый, закадровый) НТВ
Субтитры: Русские(CP Digital), русские(Kinomania), английские

Видеокодек: MPEG-4 AVC/H.264
Битрейт видео: ~4 339 Kbps
Размер кадра: 1280 x 720
Качество видео: BDRip
Аудио:
1#Русский: AC3, 2 ch, 192 Kbps
2#Английский: DTS, 6 ch, 1510 Kbps
General
Unique ID : 213022400236154982334637876637770442760 (0xA0429F37B8EAE7CFAB838D1D3D0BE808)
Complete name : D:\A.Nightmare.on.Elm.Street.II.Freddy's.Revenge.1985\A.Nightmare.on.Elm.Street.II.Freddy's.Revenge.1985.720p.mkv
Format : Matroska
File size : 3.61 GiB
Duration : 1h 25mn
Overall bit rate : 6 041 Kbps
Movie name : A.Nightmare.on.Elm.Street.II.Freddy's.Revenge.1985.BluRay.720p.x264.DTS.MySilu [ .org]
Encoded date : UTC 2012-01-06 23:48:28
Writing application : mkvmerge v4.9.1 ('Ich will') сборка от Jul 11 2011 23:53:15
Writing library : libebml v1.2.1 + libmatroska v1.1.1
Video #1
ID : 1
Format : AVC
Format/Info : Advanced Video Codec
Format profile : High@L4.1
Format settings, CABAC : Yes
Format settings, ReFrames : 8 frames
Codec ID : V_MPEG4/ISO/AVC
Duration : 1h 25mn
Bit rate : 4 339 Kbps
Width : 1 280 pixels
Height : 720 pixels
Display aspect ratio : 16:9
Frame rate : 23.976 fps
Color space : YUV
Chroma subsampling : 4:2:0
Bit depth : 8 bits
Scan type : Progressive
Bits/(Pixel*Frame) : 0.196
Stream size : 2.52 GiB (70%)
Title : A.Nightmare.on.Elm.Street.II.Freddy's.Revenge.1985.BluRay.720p.x264.DTS.MySilu
Writing library : x264 core 118 r2085 8a62835
Encoding settings : cabac=1 / ref=8 / deblock=1:-2:-2 / analyse=0x3:0x133 / me=umh / subme=9 / psy=1 / psy_rd=1.20:0.20 / mixed_ref=1 / me_range=16 / chroma_me=1 / trellis=2 / 8x8dct=1 / cqm=0 / deadzone=21,11 / fast_pskip=1 / chroma_qp_offset=-3 / threads=6 / sliced_threads=0 / nr=0 / decimate=0 / interlaced=0 / bluray_compat=0 / constrained_intra=0 / bframes=3 / b_pyramid=2 / b_adapt=2 / b_bias=0 / direct=3 / weightb=1 / open_gop=0 / weightp=2 / keyint=250 / keyint_min=2 / scenecut=40 / intra_refresh=0 / rc_lookahead=60 / rc=2pass / mbtree=1 / bitrate=4339 / ratetol=1.0 / qcomp=0.60 / qpmin=10 / qpmax=51 / qpstep=4 / cplxblur=20.0 / qblur=0.5 / vbv_maxrate=38000 / vbv_bufsize=38000 / nal_hrd=none / ip_ratio=1.40 / aq=1:1.00
Language : English
Audio #2
ID : 2
Format : AC-3
Format/Info : Audio Coding 3
Mode extension : CM (complete main)
Codec ID : A_AC3
Duration : 1h 25mn
Bit rate mode : Constant
Bit rate : 192 Kbps
Channel(s) : 2 channels
Channel positions : Front: L R
Sampling rate : 48.0 KHz
Bit depth : 16 bits
Compression mode : Lossy
Stream size : 118 MiB (3%)
Title : НТВ - Александр Рахленко и Анна Каменкова
Language : Russian
Audio #3
ID : 3
Format : DTS
Format/Info : Digital Theater Systems
Codec ID : A_DTS
Duration : 1h 25mn
Bit rate mode : Constant
Bit rate : 1 510 Kbps
Channel(s) : 6 channels
Channel positions : Front: L C R, Side: L R, LFE
Sampling rate : 48.0 KHz
Bit depth : 24 bits
Compression mode : Lossy
Stream size : 925 MiB (25%)
Language : English
Text #4
ID : 4
Format : UTF-8
Codec ID : S_TEXT/UTF8
Codec ID/Info : UTF-8 Plain Text
Title : CP Digital
Language : Russian
Text #5
ID : 5
Format : UTF-8
Codec ID : S_TEXT/UTF8
Codec ID/Info : UTF-8 Plain Text
Title : Киномания
Language : Russian
Text #6
ID : 6
Format : UTF-8
Codec ID : S_TEXT/UTF8
Codec ID/Info : UTF-8 Plain Text
Title : SRT SDH
Language : English
Скриншоты:
Кошмар на улице Вязов 3: Воины сна / A Nightmare on Elm Street 3: Dream Warriors (1987) BDRip
«If You Think You're Ready For Freddy, Think Again!»
Русское название: Кошмар на улице Вязов 3: Воины сна
Оригинальное название: A Nightmare on Elm Street 3: Dream Warriors
Год выпуска: 1987
Жанр: Ужасы
Описание фильма:
События происходят через шесть лет после первого появления Фредди Крюгера. Он стал намного сильнее, подпитываясь душами детей с улицы Вязов. Теперь он обратил внимание на семерых детишек, заключенных в психиатрической лечебнице.
Положение усугубляется повальными «самоубийствами», которые, разумеется, являются проделками Фредди. Разрешить ситуацию и объяснить что происходит может лишь Нэнси Томпсон, которая вернулась в родной город в качестве врача-практиканта…
Режиссер: Чак Рассел
Актеры: Хезер Лэнгенкэмп, Роберт Инглунд, Патриция Аркетт, Крейг Уоссон, Кен Сэйгоз, Родни Истман, Дженнифер Рубин, Брэдли Грегг, Ира Хейден, Лоренс Фишбёрн
Продолжительность: 01:36:31
Перевод: Профессиональный (двухголосый, закадровый) НТВ
Субтитры: Русские(CP Digital), русские(Kinomania), английские

Видеокодек: MPEG-4 AVC/H.264
Битрейт видео: ~4 421 Kbps
Размер кадра: 1280 x 720
Качество видео: BDRip
Аудио:
1#Русский: AC3, 2 ch, 192 Kbps
2#Английский: DTS, 6 ch, 1510 Kbps
General
Unique ID : 191958547779891396436137163554581681918 (0x9069DF1C43D03229A5A775DC3BC896FE)
Complete name : D:\A.Nightmare.on.Elm.Street.III.Dream.Warriors.1987\A.Nightmare.on.Elm.Street.III.Dream.Warriors.1987.720p.mkv
Format : Matroska
File size : 4.13 GiB
Duration : 1h 36mn
Overall bit rate : 6 122 Kbps
Movie name : A.Nightmare.on.Elm.Street.III.Dream.Warriors.1987.BluRay.720p.x264.DTS.MySilu [ .org]
Encoded date : UTC 2012-01-07 00:02:27
Writing application : mkvmerge v4.9.1 ('Ich will') сборка от Jul 11 2011 23:53:15
Writing library : libebml v1.2.1 + libmatroska v1.1.1
Video #1
ID : 1
Format : AVC
Format/Info : Advanced Video Codec
Format profile : High@L4.1
Format settings, CABAC : Yes
Format settings, ReFrames : 8 frames
Codec ID : V_MPEG4/ISO/AVC
Duration : 1h 36mn
Bit rate : 4 421 Kbps
Width : 1 280 pixels
Height : 720 pixels
Display aspect ratio : 16:9
Frame rate : 23.976 fps
Color space : YUV
Chroma subsampling : 4:2:0
Bit depth : 8 bits
Scan type : Progressive
Bits/(Pixel*Frame) : 0.200
Stream size : 2.90 GiB (70%)
Title : A.Nightmare.on.Elm.Street.III.Dream.Warriors.1987.BluRay.720p.x264.DTS.MySilu
Writing library : x264 core 118 r2085 8a62835
Encoding settings : cabac=1 / ref=8 / deblock=1:-2:-2 / analyse=0x3:0x133 / me=umh / subme=9 / psy=1 / psy_rd=1.20:0.20 / mixed_ref=1 / me_range=16 / chroma_me=1 / trellis=2 / 8x8dct=1 / cqm=0 / deadzone=21,11 / fast_pskip=1 / chroma_qp_offset=-3 / threads=6 / sliced_threads=0 / nr=0 / decimate=0 / interlaced=0 / bluray_compat=0 / constrained_intra=0 / bframes=3 / b_pyramid=2 / b_adapt=2 / b_bias=0 / direct=3 / weightb=1 / open_gop=0 / weightp=2 / keyint=250 / keyint_min=2 / scenecut=40 / intra_refresh=0 / rc_lookahead=60 / rc=2pass / mbtree=1 / bitrate=4421 / ratetol=1.0 / qcomp=0.60 / qpmin=10 / qpmax=51 / qpstep=4 / cplxblur=20.0 / qblur=0.5 / vbv_maxrate=38000 / vbv_bufsize=38000 / nal_hrd=none / ip_ratio=1.40 / aq=1:1.00
Language : English
Audio #2
ID : 2
Format : AC-3
Format/Info : Audio Coding 3
Mode extension : CM (complete main)
Codec ID : A_AC3
Duration : 1h 36mn
Bit rate mode : Constant
Bit rate : 192 Kbps
Channel(s) : 2 channels
Channel positions : Front: L R
Sampling rate : 48.0 KHz
Bit depth : 16 bits
Compression mode : Lossy
Stream size : 133 MiB (3%)
Title : НТВ - Александр Рахленко и Любовь Германова
Language : Russian
Audio #3
ID : 3
Format : DTS
Format/Info : Digital Theater Systems
Codec ID : A_DTS
Duration : 1h 36mn
Bit rate mode : Constant
Bit rate : 1 510 Kbps
Channel(s) : 6 channels
Channel positions : Front: L C R, Side: L R, LFE
Sampling rate : 48.0 KHz
Bit depth : 24 bits
Compression mode : Lossy
Stream size : 1.02 GiB (25%)
Language : English
Text #4
ID : 4
Format : UTF-8
Codec ID : S_TEXT/UTF8
Codec ID/Info : UTF-8 Plain Text
Title : R5
Language : Russian
Text #5
ID : 5
Format : UTF-8
Codec ID : S_TEXT/UTF8
Codec ID/Info : UTF-8 Plain Text
Title : Kinomania
Language : Russian
Text #6
ID : 6
Format : UTF-8
Codec ID : S_TEXT/UTF8
Codec ID/Info : UTF-8 Plain Text
Title : SRT
Language : English
Скриншоты:
Кошмар на улице Вязов 4: Повелитель сна / A Nightmare on Elm Street 4: The Dream Master (1988) BDRip
«The biggest nightmare of them all.»
Русское название: Кошмар на улице Вязов 4: Повелитель сна
Оригинальное название: A Nightmare on Elm Street 4: The Dream Master
Год выпуска: 1988
Жанр: Ужасы
Описание фильма:
Маленькая собачка, писающая огненным пламенем на могилу Фредди во сне одного из героев, оживляет этого Повелителя снов. С радостью он начинает убивать выживших героев предыдущей части, в свое время оказавших ему достойное сопротивление. Казалось, он останется непобедимым и ужасным Кошмаром улицы Вязов.
Но Фредди просчитался: за мгновение до своего ухода в мир иной, Кристен, последний отпрыск с улицы Вязов, успевает передать свою уникальную способность заманивать в свои сны других людей девушке Элис…
Режиссер: Ренни Харлин
Актеры: Роберт Инглунд, Кен Сэйгоз, Родни Истман, Лиза Уилкокс, Андрас Джонс, Дэнни Хэссел, Брук Тэйсс, Той Ньюкирк, Тьюзди Найт, Николас Меле
Продолжительность: 1:33:15
Перевод: Профессиональный (двухголосый, закадровый) НТВ
Субтитры: Русские(CP Digital), русские(Kinomania), английские

Видеокодек: MPEG-4 AVC/H.264
Битрейт видео: ~4 639 Kbps
Размер кадра: 1280 x 720
Качество видео: BDRip
Аудио:
1#Русский: AC3, 2 ch, 192 Kbps
2#Английский: DTS, 6 ch, 1510 Kbps
General
Unique ID : 245716048597566512947752246419634764159 (0xB8DB3088625495BDAA9A841286CFB97F)
Complete name : D:\A.Nightmare.on.Elm.Street.IV.The.Dream.Master.1988\A.Nightmare.on.Elm.Street.IV.The.Dream.Master.1988.720p.mkv
Format : Matroska
File size : 4.13 GiB
Duration : 1h 33mn
Overall bit rate : 6 340 Kbps
Movie name : A.Nightmare.on.Elm.Street.IV.The.Dream.Master.1988.BluRay.720p.x264.DTS.MySilu [ .org]
Encoded date : UTC 2012-01-07 00:23:52
Writing application : mkvmerge v4.9.1 ('Ich will') сборка от Jul 11 2011 23:53:15
Writing library : libebml v1.2.1 + libmatroska v1.1.1
Video #1
ID : 1
Format : AVC
Format/Info : Advanced Video Codec
Format profile : High@L4.1
Format settings, CABAC : Yes
Format settings, ReFrames : 8 frames
Codec ID : V_MPEG4/ISO/AVC
Duration : 1h 33mn
Bit rate : 4 639 Kbps
Width : 1 280 pixels
Height : 720 pixels
Display aspect ratio : 16:9
Frame rate : 23.976 fps
Color space : YUV
Chroma subsampling : 4:2:0
Bit depth : 8 bits
Scan type : Progressive
Bits/(Pixel*Frame) : 0.210
Stream size : 2.94 GiB (71%)
Title : A.Nightmare.on.Elm.Street.IV.The.Dream.Master.1988.BluRay.720p.x264.DTS.MySilu
Writing library : x264 core 118 r2085 8a62835
Encoding settings : cabac=1 / ref=8 / deblock=1:-2:-2 / analyse=0x3:0x133 / me=umh / subme=9 / psy=1 / psy_rd=1.20:0.20 / mixed_ref=1 / me_range=16 / chroma_me=1 / trellis=2 / 8x8dct=1 / cqm=0 / deadzone=21,11 / fast_pskip=1 / chroma_qp_offset=-3 / threads=6 / sliced_threads=0 / nr=0 / decimate=0 / interlaced=0 / bluray_compat=0 / constrained_intra=0 / bframes=3 / b_pyramid=2 / b_adapt=2 / b_bias=0 / direct=3 / weightb=1 / open_gop=0 / weightp=2 / keyint=250 / keyint_min=2 / scenecut=40 / intra_refresh=0 / rc_lookahead=60 / rc=2pass / mbtree=1 / bitrate=4639 / ratetol=1.0 / qcomp=0.60 / qpmin=10 / qpmax=51 / qpstep=4 / cplxblur=20.0 / qblur=0.5 / vbv_maxrate=38000 / vbv_bufsize=38000 / nal_hrd=none / ip_ratio=1.40 / aq=1:1.00
Language : English
Audio #2
ID : 2
Format : AC-3
Format/Info : Audio Coding 3
Mode extension : CM (complete main)
Codec ID : A_AC3
Duration : 1h 33mn
Bit rate mode : Constant
Bit rate : 192 Kbps
Channel(s) : 2 channels
Channel positions : Front: L R
Sampling rate : 48.0 KHz
Bit depth : 16 bits
Compression mode : Lossy
Stream size : 128 MiB (3%)
Title : НТВ
Language : Russian
Audio #3
ID : 3
Format : DTS
Format/Info : Digital Theater Systems
Codec ID : A_DTS
Duration : 1h 33mn
Bit rate mode : Constant
Bit rate : 1 510 Kbps
Channel(s) : 6 channels
Channel positions : Front: L C R, Side: L R, LFE
Sampling rate : 48.0 KHz
Bit depth : 24 bits
Compression mode : Lossy
Stream size : 1 007 MiB (24%)
Language : English
Text #4
ID : 4
Format : UTF-8
Codec ID : S_TEXT/UTF8
Codec ID/Info : UTF-8 Plain Text
Title : CP Digital
Language : Russian
Text #5
ID : 5
Format : UTF-8
Codec ID : S_TEXT/UTF8
Codec ID/Info : UTF-8 Plain Text
Title : Kinamania
Language : Russian
Text #6
ID : 6
Format : UTF-8
Codec ID : S_TEXT/UTF8
Codec ID/Info : UTF-8 Plain Text
Title : SRT
Language : English
Скриншоты:
Кошмар на улице Вязов 5: Дитя сна / A Nightmare on Elm Street: The Dream Child (1989) BDRip
«It's A Boy!»
Русское название: Кошмар на улице Вязов 5: Дитя сна
Оригинальное название: A Nightmare on Elm Street: The Dream Child
Год выпуска: 1989
Жанр: Ужасы
Описание фильма:
Неистребимый детоубийца, который в пятой части даже объявляет себя Супер-Фредди, исхитряется возродиться в ребенке, находящемся в утробе матери. Единственный шанс спасти ребенка — найти незахороненный труп монашки Аманды Крюгер, породившей на свет такое чудовище как Фредди, чтобы его уничтожить.
Режиссер: Стивен Хопкинс
Актеры: Роберт Инглунд, Лиза Уилкокс, Эрика Андерсон, Вэлори Армстронг, Майкл Эштон, Беатрис Боппл, Мэтт Борленджи, Ноубл Крэйг, Е.Р. Дейвис, Барр ДеБеннинг
Продолжительность: 1:29:38
Перевод: Профессиональный (двухголосый, закадровый) НТВ
Субтитры: Русские(CP Digital), русские(Kinomania), английские

Видеокодек: MPEG-4 AVC/H.264
Битрейт видео: ~4 474 Kbps
Размер кадра: 1280 x 720
Качество видео: BDRip
Аудио:
1#Русский: AC3, 2 ch, 192 Kbps
2#Английский: DTS, 6 ch, 1510 Kbps
D:\Раздача\Кошмар на улице Вязов. Коллекция\A.Nightmare.on.Elm.Street\A.Nightmare.on.Elm.Street.V.Dream.Child.1989\A.Nightmare.on.Elm.Street.V.Dream.Child.1989.720p.mkv
General
Unique ID : 225385877200429661481037080024433216623 (0xA98FBDB1CC3CE1B4B8BE0FEE979ECC6F)
Complete name : D:\Раздача\Кошмар на улице Вязов. Коллекция\A.Nightmare.on.Elm.Street\A.Nightmare.on.Elm.Street.V.Dream.Child.1989\A.Nightmare.on.Elm.Street.V.Dream.Child.1989.720p.mkv
Format : Matroska
File size : 3.87 GiB
Duration : 1h 29mn
Overall bit rate : 6 175 Kbps
Movie name : A.Nightmare.on.Elm.Street.V.Dream.Child.1989.BluRay.720p.x264.DTS.MySilu [ .org]
Encoded date : UTC 2012-01-07 00:40:06
Writing application : mkvmerge v4.9.1 ('Ich will') сборка от Jul 11 2011 23:53:15
Writing library : libebml v1.2.1 + libmatroska v1.1.1
Video #1
ID : 1
Format : AVC
Format/Info : Advanced Video Codec
Format profile : High@L4.1
Format settings, CABAC : Yes
Format settings, ReFrames : 8 frames
Codec ID : V_MPEG4/ISO/AVC
Duration : 1h 29mn
Bit rate : 4 474 Kbps
Width : 1 280 pixels
Height : 720 pixels
Display aspect ratio : 16:9
Frame rate : 23.976 fps
Color space : YUV
Chroma subsampling : 4:2:0
Bit depth : 8 bits
Scan type : Progressive
Bits/(Pixel*Frame) : 0.202
Stream size : 2.72 GiB (70%)
Title : A.Nightmare.on.Elm.Street.V.Dream.Child.1989.BluRay.720p.x264.DTS.MySilu
Writing library : x264 core 118 r2085 8a62835
Encoding settings : cabac=1 / ref=8 / deblock=1:-2:-2 / analyse=0x3:0x133 / me=umh / subme=9 / psy=1 / psy_rd=1.20:0.20 / mixed_ref=1 / me_range=16 / chroma_me=1 / trellis=2 / 8x8dct=1 / cqm=0 / deadzone=21,11 / fast_pskip=1 / chroma_qp_offset=-3 / threads=6 / sliced_threads=0 / nr=0 / decimate=0 / interlaced=0 / bluray_compat=0 / constrained_intra=0 / bframes=3 / b_pyramid=2 / b_adapt=2 / b_bias=0 / direct=3 / weightb=1 / open_gop=0 / weightp=2 / keyint=250 / keyint_min=2 / scenecut=40 / intra_refresh=0 / rc_lookahead=60 / rc=2pass / mbtree=1 / bitrate=4474 / ratetol=1.0 / qcomp=0.60 / qpmin=10 / qpmax=51 / qpstep=4 / cplxblur=20.0 / qblur=0.5 / vbv_maxrate=38000 / vbv_bufsize=38000 / nal_hrd=none / ip_ratio=1.40 / aq=1:1.00
Language : English
Audio #2
ID : 2
Format : AC-3
Format/Info : Audio Coding 3
Mode extension : CM (complete main)
Codec ID : A_AC3
Duration : 1h 29mn
Bit rate mode : Constant
Bit rate : 192 Kbps
Channel(s) : 2 channels
Channel positions : Front: L R
Sampling rate : 48.0 KHz
Bit depth : 16 bits
Compression mode : Lossy
Stream size : 123 MiB (3%)
Title : НТВ
Language : Russian
Audio #3
ID : 3
Format : DTS
Format/Info : Digital Theater Systems
Codec ID : A_DTS
Duration : 1h 29mn
Bit rate mode : Constant
Bit rate : 1 510 Kbps
Channel(s) : 6 channels
Channel positions : Front: L C R, Side: L R, LFE
Sampling rate : 48.0 KHz
Bit depth : 24 bits
Compression mode : Lossy
Stream size : 968 MiB (24%)
Language : English
Text #4
ID : 4
Format : UTF-8
Codec ID : S_TEXT/UTF8
Codec ID/Info : UTF-8 Plain Text
Title : CP Digital
Language : Russian
Text #5
ID : 5
Format : UTF-8
Codec ID : S_TEXT/UTF8
Codec ID/Info : UTF-8 Plain Text
Title : Kinomania
Language : Russian
Text #6
ID : 6
Format : UTF-8
Codec ID : S_TEXT/UTF8
Codec ID/Info : UTF-8 Plain Text
Title : SRT
Language : English
Скриншоты:
Кошмар на улице Вязов 6: Фредди мертв / Freddy's Dead: The Final Nightmare (1991) BDRip
«Born November 2nd 1984...Dies September 1991»
Русское название: Кошмар на улице Вязов 6: Фредди мертв
Оригинальное название: Freddy's Dead: The Final Nightmare
Год выпуска: 1991
Жанр: Ужасы
Описание фильма:
Здесь выясняются причины появления духа-изверга Фредди Крюгера, с самого начала мстившего жителям своего родного городка. С детства заброшенный всеми, Фредди вырос очень озлобленным. Его терзает мания убийства, и он убивает детей, заманивая их в старую котельную. Когда суд по формальным причинам выносит маньяку оправдательный приговор, разъяренные родители жертв линчуют его.
Режиссер: Рейчел Тэлалей
Актеры: Роберт Инглунд, Лиза Зейн, Шон Гринблатт, Лесли Дин, Рики Дин Логан, Брекин Мейер, Яфет Котто, Том Арнольд, Розанна, Элинор Донахью
Продолжительность: 1:29:12
Перевод: Профессиональный (двухголосый, закадровый) НТВ
Субтитры: Русские(CP Digital), русские(Kinomania), английские

Видеокодек: MPEG-4 AVC/H.264
Битрейт видео: ~4 103 Kbps
Размер кадра: 1280 x 720
Качество видео: BDRip
Аудио:
1#Русский: AC3, 2 ch, 192 Kbp
2#Английский: DTS, 6 ch, 1510 Kbps
General
Unique ID : 189886777710337342169389416402132928903 (0x8EDADCF5AA4D71D086994C3D1A9C0987)
Complete name : D:\A.Nightmare.on.Elm.Street.VI.Freddy's.Dead.The.Final.Nightmare.1991\A.Nightmare.on.Elm.Street.VI.Freddy's.Dead.The.Final.Nightmare.1991.720p.mkv
Format : Matroska
File size : 3.62 GiB
Duration : 1h 29mn
Overall bit rate : 5 803 Kbps
Movie name : Freddy's.Dead.The.Final.Nightmare.1991.BluRay.720p.x264.DTS.MySilu [ .org]
Encoded date : UTC 2012-01-07 00:50:48
Writing application : mkvmerge v4.9.1 ('Ich will') сборка от Jul 11 2011 23:53:15
Writing library : libebml v1.2.1 + libmatroska v1.1.1
Video #1
ID : 1
Format : AVC
Format/Info : Advanced Video Codec
Format profile : High@L4.1
Format settings, CABAC : Yes
Format settings, ReFrames : 8 frames
Codec ID : V_MPEG4/ISO/AVC
Duration : 1h 29mn
Bit rate : 4 103 Kbps
Width : 1 280 pixels
Height : 720 pixels
Display aspect ratio : 16:9
Frame rate : 23.976 fps
Color space : YUV
Chroma subsampling : 4:2:0
Bit depth : 8 bits
Scan type : Progressive
Bits/(Pixel*Frame) : 0.186
Stream size : 2.48 GiB (69%)
Writing library : x264 core 118 r2085 8a62835
Encoding settings : cabac=1 / ref=8 / deblock=1:-2:-2 / analyse=0x3:0x133 / me=umh / subme=9 / psy=1 / psy_rd=1.20:0.20 / mixed_ref=1 / me_range=16 / chroma_me=1 / trellis=2 / 8x8dct=1 / cqm=0 / deadzone=21,11 / fast_pskip=1 / chroma_qp_offset=-3 / threads=6 / sliced_threads=0 / nr=0 / decimate=0 / interlaced=0 / bluray_compat=0 / constrained_intra=0 / bframes=3 / b_pyramid=2 / b_adapt=2 / b_bias=0 / direct=3 / weightb=1 / open_gop=0 / weightp=2 / keyint=250 / keyint_min=2 / scenecut=40 / intra_refresh=0 / rc_lookahead=60 / rc=2pass / mbtree=1 / bitrate=4103 / ratetol=1.0 / qcomp=0.60 / qpmin=10 / qpmax=51 / qpstep=4 / cplxblur=20.0 / qblur=0.5 / vbv_maxrate=38000 / vbv_bufsize=38000 / nal_hrd=none / ip_ratio=1.40 / aq=1:1.00
Language : English
Audio #2
ID : 2
Format : AC-3
Format/Info : Audio Coding 3
Mode extension : CM (complete main)
Codec ID : A_AC3
Duration : 1h 29mn
Bit rate mode : Constant
Bit rate : 192 Kbps
Channel(s) : 2 channels
Channel positions : Front: L R
Sampling rate : 48.0 KHz
Bit depth : 16 bits
Compression mode : Lossy
Stream size : 123 MiB (3%)
Title : НТВ
Language : Russian
Audio #3
ID : 3
Format : DTS
Format/Info : Digital Theater Systems
Codec ID : A_DTS
Duration : 1h 29mn
Bit rate mode : Constant
Bit rate : 1 510 Kbps
Channel(s) : 6 channels
Channel positions : Front: L C R, Side: L R, LFE
Sampling rate : 48.0 KHz
Bit depth : 24 bits
Compression mode : Lossy
Stream size : 963 MiB (26%)
Language : English
Text #4
ID : 4
Format : UTF-8
Codec ID : S_TEXT/UTF8
Codec ID/Info : UTF-8 Plain Text
Title : CP Digital
Language : Russian
Text #5
ID : 5
Format : UTF-8
Codec ID : S_TEXT/UTF8
Codec ID/Info : UTF-8 Plain Text
Title : Kinomania
Language : Russian
Text #6
ID : 6
Format : UTF-8
Codec ID : S_TEXT/UTF8
Codec ID/Info : UTF-8 Plain Text
Title : SRT
Language : English
Скриншоты:
Кошмар на улице Вязов 7: Новый Кошмар / New Nightmare (1994) BDRip
«This time, staying awake won't save you.»
Русское название: Кошмар на улице Вязов 7: Новый Кошмар
Оригинальное название: New Nightmare
Год выпуска: 1994
Жанр: Ужасы
Описание фильма:
Героиня предыдущей серии, одержавшая победу над Фредди, выросла и вышла замуж за постановщика спецэффектов, разработавшего знаменитую ручку с маникюром. Снимается новый фильм про Крюгера, так как многочисленные поклонники требуют оживления своего любимчика. И снова начинаются кошмары, преследующие теперь сына нашей героини.
Режиссер: Уэс Крэйвен
Актеры: Хезер Лэнгенкэмп, Роберт Инглунд, Мико Хьюз, Уэс Крэйвен, Джон Сэксон, Роберт Шэй, Сара Ришер, Марианн Маддалена, Дэвид Ньюсом
Продолжительность: 1:52:07
Перевод: Профессиональный (двухголосый, закадровый) НТВ
Субтитры: Русские(CP Digital), русские(Kinomania), английские

Видеокодек: MPEG-4 AVC/H.264
Битрейт видео: ~4 075 Kbps
Размер кадра: 1280 x 720
Качество видео: BDRip
Аудио:
1#Русский: AC3, 2 ch, 192 Kbps
2#Английский: DTS, 6 ch, 1510 Kbps
General
Unique ID : 194733578368644452341304514297892723875 (0x928052AE8A8256779D8946CC09A05CA3)
Complete name : D:\A.Nightmare.on.Elm.Street.VII.New.Nightmare.1994\A.Nightmare.on.Elm.Street.VII.New.Nightmare.1994.720p.mkv
Format : Matroska
File size : 4.52 GiB
Duration : 1h 52mn
Overall bit rate : 5 776 Kbps
Movie name : New.Nightmare.1994.BluRay.720p.x264.DTS.MySilu [ .org]
Encoded date : UTC 2012-01-07 01:09:19
Writing application : mkvmerge v4.9.1 ('Ich will') сборка от Jul 11 2011 23:53:15
Writing library : libebml v1.2.1 + libmatroska v1.1.1
Video #1
ID : 1
Format : AVC
Format/Info : Advanced Video Codec
Format profile : High@L4.1
Format settings, CABAC : Yes
Format settings, ReFrames : 8 frames
Codec ID : V_MPEG4/ISO/AVC
Duration : 1h 52mn
Bit rate : 4 075 Kbps
Width : 1 280 pixels
Height : 720 pixels
Display aspect ratio : 16:9
Frame rate : 23.976 fps
Color space : YUV
Chroma subsampling : 4:2:0
Bit depth : 8 bits
Scan type : Progressive
Bits/(Pixel*Frame) : 0.184
Stream size : 3.10 GiB (69%)
Writing library : x264 core 118 r2085 8a62835
Encoding settings : cabac=1 / ref=8 / deblock=1:-2:-2 / analyse=0x3:0x133 / me=umh / subme=9 / psy=1 / psy_rd=1.20:0.20 / mixed_ref=1 / me_range=16 / chroma_me=1 / trellis=2 / 8x8dct=1 / cqm=0 / deadzone=21,11 / fast_pskip=1 / chroma_qp_offset=-3 / threads=6 / sliced_threads=0 / nr=0 / decimate=0 / interlaced=0 / bluray_compat=0 / constrained_intra=0 / bframes=3 / b_pyramid=2 / b_adapt=2 / b_bias=0 / direct=3 / weightb=1 / open_gop=0 / weightp=2 / keyint=250 / keyint_min=2 / scenecut=40 / intra_refresh=0 / rc_lookahead=60 / rc=2pass / mbtree=1 / bitrate=4075 / ratetol=1.0 / qcomp=0.60 / qpmin=10 / qpmax=51 / qpstep=4 / cplxblur=20.0 / qblur=0.5 / vbv_maxrate=38000 / vbv_bufsize=38000 / nal_hrd=none / ip_ratio=1.40 / aq=1:1.00
Language : English
Audio #2
ID : 2
Format : AC-3
Format/Info : Audio Coding 3
Mode extension : CM (complete main)
Codec ID : A_AC3
Duration : 1h 52mn
Bit rate mode : Constant
Bit rate : 192 Kbps
Channel(s) : 2 channels
Channel positions : Front: L R
Sampling rate : 48.0 KHz
Bit depth : 16 bits
Compression mode : Lossy
Stream size : 154 MiB (3%)
Title : НТВ
Language : Russian
Audio #3
ID : 3
Format : DTS
Format/Info : Digital Theater Systems
Codec ID : A_DTS
Duration : 1h 52mn
Bit rate mode : Constant
Bit rate : 1 510 Kbps
Channel(s) : 6 channels
Channel positions : Front: L C R, Side: L R, LFE
Sampling rate : 48.0 KHz
Bit depth : 24 bits
Compression mode : Lossy
Stream size : 1.18 GiB (26%)
Language : English
Text #4
ID : 4
Format : UTF-8
Codec ID : S_TEXT/UTF8
Codec ID/Info : UTF-8 Plain Text
Title : CP Digital
Language : Russian
Text #5
ID : 5
Format : UTF-8
Codec ID : S_TEXT/UTF8
Codec ID/Info : UTF-8 Plain Text
Title : Kinomania
Language : Russian
Text #6
ID : 6
Format : UTF-8
Codec ID : S_TEXT/UTF8
Codec ID/Info : UTF-8 Plain Text
Title : SRT
Language : English
Скриншоты:
Время раздачи: 24/7 - круглосуточно
[NNM-Club.ru]_A.Nightmare.on.Elm.Street.torrent
 Торрент: Платиновая раздача  Зарегистрирован
 
Скачать


 Зарегистрирован:   10 Янв 2012 13:06:59
 Размер:   30.5 GB  (
 Рейтинг:   4.6 (Голосов: 33)
 Поблагодарили:   83
 Проверка:   Оформление проверено модератором 14 Янв 2012 12:29:05
Как cкачать  ·  Как раздать  ·  Правильно оформить  ·  Поднять ратио!  
virtuhan ®
Стаж: 13 лет 2 мес.
Сообщений: 247
Ratio: 339.173
Раздал: 13.7 TB
Поблагодарили: 13470
100%
ussr.gif
Если кому нодо есть переводы разных авторов: Позитив, Киномания, CP Digital, Гаврилов, Горчаков, Володарский.

_________________

Никоданов
Стаж: 13 лет 11 мес.
Сообщений: 30
Ratio: 0.849
100%
russia.gif
virtuhan писал(а): Перейти к сообщению
Если кому нодо есть переводы разных авторов: Позитив, Киномания, CP Digital, Гаврилов, Горчаков, Володарский.

мне надо!
можно отдельными дорогами?
virtuhan ®
Стаж: 13 лет 2 мес.
Сообщений: 247
Ratio: 339.173
Раздал: 13.7 TB
Поблагодарили: 13470
100%
ussr.gif
Никоданов писал(а): Перейти к сообщению
virtuhan писал(а): Перейти к сообщению
Если кому нодо есть переводы разных авторов: Позитив, Киномания, CP Digital, Гаврилов, Горчаков, Володарский.

мне надо!
можно отдельными дорогами?

На каждый фильм по4-5 дорожек (отдельно)

_________________

demonq12345wer
Стаж: 13 лет 7 мес.
Сообщений: 3
Ratio: 0.391
100%
Откуда: ccccccc
ukraine.gif
гкоио
SNAUTS
Ценитель HD
Uploader 1000+
Стаж: 14 лет 1 мес.
Сообщений: 2111
Ratio: 70K
Поблагодарили: 153508
100%
Откуда: .. и только свежий космос
ussr.gif
Для очень жаждущих, можно скачать и это со всеми дорогами: Кошмар на улице Вязов: Коллекция / A Nightmare On Elm Street: Collection (1984-2010) [1080p] BDRemux
Всем приятного просмотра))) :подмигивание: :подмигивание: :подмигивание:

_________________
Я больше не делаю новых релизов и не поддерживаю раздачи! Спасибо тем, кто поддерживает раздачи!!!
Топик был перенесен из форума Зарубежные Фильмы (HD) в форум Архив Видео

Причина переноса: более полный http://nnmclub.to/forum/viewtopic.php?t=438375
Che13
Топик был перенесен из форума Архив Видео в форум Архив Классики и Старого кино / Артхаус



Исправил релиз - напиши ЛС Kalex, дав ссылку на релиз.
Если нет ответа 24 часа - нажми на кнопку "Обратить внимание модераторов".
Показать сообщения:   
Начать новую тему   Ответить на тему    Торрент-трекер NNM-Club -> Архив торрентов -> Архив Классики кино и Старых фильмов до 90-х Часовой пояс: GMT + 3
Страница 1 из 1