Классический форум-трекер
canvas not supported
Нас вместе: 4 235 222

Оливер! / Oliver! (1968) [1080i] HDTV


 
 
RSS
Начать новую тему   Ответить на тему    Торрент-трекер NNM-Club -> Архив торрентов -> Архив Классики кино и Старых фильмов до 90-х
Автор Сообщение
Krucha ®
Стаж: 15 лет 3 мес.
Сообщений: 3644
Ratio: 159.977
Раздал: 19.14 TB
Поблагодарили: 256754
100%
Откуда: Запорожье
ussr.gif
Оливер! / Oliver! (1968) HDTV
Русское название: Оливер!
Оригинальное название: Oliver!

Год выпуска: 1968
Производство: Великобритания
Жанр: Мьюзикл, Драма, Криминал

Перевод: Многоголосый закадровый, профессиональный
Субтитры: Встроенные, отключаемые
Язык субтитров: Русские, Английские

Дата мировой премьеры: 26 сентября 1968

Режиссер: Кэрол Рид
Продюсер: Джон Вулф
Актеры: Рон Муди, Шэйни Уоллис, Оливер Рид, Гарри Сиком, Марк Лестер, Джек Вайлд, Хью Гриффит, Джозеф О’Конор, Пегги Маунт, Леонард Росситер и др.

Описание фильма:
Оливер предпочитает жить на улицах, а не в приюте. Он попадает в добрую «семью» воришек и становится карманником.



Продолжительность: 02:19:52
Качество видео: HDTV

Видеокодек: MPEG-4 AVC/H.264
Битрейт видео: ~1920x1080
Размер кадра: 11,9 Mbps
Аудио#1: Русский 48 kHz, AC3, 3/2 (L,C,R,l,r) + LFE ch, ~448 kbps avg
Аудио#2: Английский 48 kHz, AC3, 3/2 (L,C,R,l,r) + LFE ch, ~448 kbps avg

Оскар, 1969 год

Победитель (5):
Лучший фильм
Лучший режиссер (Кэрол Рид)
Лучшие декорации
Лучший звук
Лучший саундтрек к музыкальному фильму

Номинации (6):

Лучшая мужская роль (Рон Муди)
Лучшая мужская роль второго плана (Джек Вайлд)
Лучший адаптированный сценарий
Лучшая работа оператора
Лучшие костюмы
Лучший монтаж


Золотой глобус, 1969 год

Победитель (2):
Лучшая мужская роль (комедия или мюзикл) (Рон Муди)
Лучший фильм (комедия или мюзикл)

Номинации (3):

Лучший режиссер (Кэрол Рид)
Лучшая мужская роль второго плана (Хью Гриффит)
Самый многообещающий новичок среди мужчин (Джек Вайлд)


Британская академия, 1969 год

Номинации (8):

Лучший фильм
Лучшая мужская роль (Рон Муди)
Лучший режиссер (Кэрол Рид)
Лучшая работа художника
Лучшие костюмы
Лучший саундтрек
Лучший монтаж
Лучший новичок (Джек Вайлд


ММКФ, 1969 год

Победитель (2):

Золотой приз за лучшую мужскую роль (Рон Муди)
Специальная премия

Номинации (1):

Золотой приз
Прекрасный фильм! Он совершенно неподвластен времени. Смотрится сейчас, как будто был выпущен на экраны только вчера. Весь фильм или отдельные эпизоды можно смотреть много раз — не надоест! Несмотря на то, что это мюзикл, в картине прекрасно передан диккенсовский дух «старой доброй Англии».

Музыка ритмичная, какая-то «упругая», легко запоминающаяся, пронизана оптимизмом!
Хореография, насколько ее можно показать в фильме, на самом высоком уровне.
Театральность, привнесенная в фильм по законам жанра мюзикла, некоторое упрощение и изменение сюжета по сравнению с оригиналом, только украшают фильм, поскольку это сделано талантливо.

В сценах, с участием детей, просто поражаешься с каким удовольствием, азартом и непосредственностью они ведут себя перед камерой. Именно потому, что играют, как играют дети, а не играют, как играют актеры!

Игра «оскароносца» Рона Муди в роли Феджина выше всяческих похвал! Здесь надо просто смотреть: пластика, танцы, драматическая игра, юмор, умный выразительный глубокий взгляд…!
Другие актеры тоже просто великолепны, особенно исполнители ролей Нэнси и Плута.

Для себя ставлю этот фильм в лучшую тройку фильмов-мюзиклов «всех времен и народов» (другие фильмы «Большой вальс» и «Моя прекрасная леди»).
Общее
Уникальный идентификатор : 198562871757244747509096217595525702468 (0x9561D16C1F8DFD2C9E1209E45D27A344)
Полное имя : E:\торрент\Оливер!.HDTV.1080i.mkv
Формат : Matroska
Версия формата : Version 2
Размер файла : 12,8 Гбайт
Продолжительность : 2 ч. 19 м.
Общий поток : 13,1 Мбит/сек
Дата кодирования : UTC 2012-01-12 17:14:56
Программа кодирования : mkvmerge v4.4.0 ('Die Wiederkehr') сборка от Oct 31 2010 21:52:48
Библиотека кодирования : libebml v1.0.0 + libmatroska v1.0.0

Видео
Идентификатор : 1
Формат : AVC
Формат/Информация : Advanced Video Codec
Профиль формата : Main@L4.0
Параметр CABAC формата : Да
Параметр ReFrames формата : 4 кадра
Параметр GOP формата : M=4, N=12
Режим смешивания : Container profile=Unknown@0.0
Идентификатор кодека : V_MPEG4/ISO/AVC
Продолжительность : 2 ч. 19 м.
Вид битрейта : Переменный
Битрейт : 11,9 Мбит/сек
Максимальный битрейт : 40,0 Мбит/сек
Ширина : 1920 пикселей
Высота : 1080 пикселей
Соотношение сторон : 16:9
Частота кадров : 25,000 кадров/сек
Цветовое пространство : YUV
Субдискретизация насыщенности : 4:2:0
Битовая глубина : 8 бит
Тип развёртки : Чересстрочная
Порядок развёртки : Верхнее поле первое
Бит/(Пиксели*Кадры) : 0.230
Размер потока : 11,6 Гбайт (91%)
Язык : English
Основные цвета : BT.709-5, BT.1361, IEC 61966-2-4, SMPTE RP177
Характеристики трансфера : BT.709-5, BT.1361
Коэффициенты матрицы : BT.709-5, BT.1361, IEC 61966-2-4 709, SMPTE RP177

Аудио #1
Идентификатор : 2
Формат : AC-3
Формат/Информация : Audio Coding 3
Расширение режима : CM (complete main)
Идентификатор кодека : A_AC3
Продолжительность : 2 ч. 19 м.
Вид битрейта : Постоянный
Битрейт : 448 Кбит/сек
Каналы : 6 каналов
Расположение каналов : Front: L C R, Side: L R, LFE
Частота : 48,0 КГц
Битовая глубина : 16 бит
Метод сжатия : С потерями
Размер потока : 448 Мбайт (3%)
Язык : Russian

Аудио #2
Идентификатор : 3
Формат : AC-3
Формат/Информация : Audio Coding 3
Расширение режима : CM (complete main)
Идентификатор кодека : A_AC3
Продолжительность : 2 ч. 19 м.
Вид битрейта : Постоянный
Битрейт : 448 Кбит/сек
Каналы : 6 каналов
Расположение каналов : Front: L C R, Side: L R, LFE
Частота : 48,0 КГц
Битовая глубина : 16 бит
Метод сжатия : С потерями
Размер потока : 448 Мбайт (3%)
Язык : English

Текст #1
Идентификатор : 4
Формат : UTF-8
Идентификатор кодека : S_TEXT/UTF8
Идентификатор кодека/Информация : UTF-8 Plain Text
Язык : Russian

Текст #2
Идентификатор : 5
Формат : UTF-8
Идентификатор кодека : S_TEXT/UTF8
Идентификатор кодека/Информация : UTF-8 Plain Text
Язык : English
Скриншоты:

Время раздачи: с 23:00 до 8:30 (до 5 скачавших)

[NNM-Club.ru]_Oliver!.HDTV.1080i.mkv.torrent
 Торрент: Платиновая раздача  Зарегистрирован
 
Скачать


 Зарегистрирован:   14 Янв 2012 14:19:55
 Размер:   12.8 GB  (
 Рейтинг:    (Голосов: 8)
 Поблагодарили:   30
 Проверка:   Оформление проверено модератором 14 Янв 2012 14:36:05
Как cкачать  ·  Как раздать  ·  Правильно оформить  ·  Поднять ратио!  
Топик был перенесен из форума Зарубежные Фильмы для детей в форум Архив Видео

Причина переноса: Seeder Walerik200888 last seen: 2012-01-24
almikl
Топик был перенесен из форума Архив Видео в форум Архив Классики и Старого кино / Артхаус



Исправил релиз - напиши ЛС Kalex, дав ссылку на релиз.
Если нет ответа 24 часа - нажми на кнопку "Обратить внимание модераторов".
Показать сообщения:   
Начать новую тему   Ответить на тему    Торрент-трекер NNM-Club -> Архив торрентов -> Архив Классики кино и Старых фильмов до 90-х Часовой пояс: GMT + 3
Страница 1 из 1