Классический форум-трекер
canvas not supported
Нас вместе: 4 235 228

Приказ №027 / Myeongryeong 027ho / Order No. 027 (1986) VHSRip


 
 
RSS
Начать новую тему   Ответить на тему    Торрент-трекер NNM-Club -> Архив торрентов -> Архив Классики кино и Старых фильмов до 90-х
Автор Сообщение
IntruderVS400 ®
Стаж: 12 лет 10 мес.
Сообщений: 44
Ratio: 7.134
Поблагодарили: 2779
100%
ukraine.gif
Приказ №027 / Myeongryeong 027ho / Order No. 027 (1986) VHSRip
Производство: Корея Северная / Korea February 8 Film Studio, Korean Film
Жанр: драма, боевик

Режиссер: Чон Ги-мо, Ким Ын-сок
Актеры: Ча Сунг-Чол , Ким Йонг-Вун, Ли Вон-Бог

Описание:
Сценарий построен на реальных событиях - в основе известная операция Корейской Народно-Демократической Республики по устранению руководства Республики Южная Корея.
Отряду специального назначения северокорейской армии ставится боевая задача — проникнуть в глубокий тыл противника, обезвредить учебные центры по подготовке отрядов специального назначения противника, уничтожить их штаб и добыть важные документы. В штабе военной разведки противника работает агент — девушка под оперативной кличкой «Цветок граната», помогающая отряду выполнить задание. В результате кровопролитных боёв отряд выполняет задание.

Фильм изобилует сценами с восточными единоборствами. Это один из первых фильмов с восточными единоборствами, официально продублированный и вышедший в советский прокат.
В фильме снимались бойцы реальных спецподразделений Северной Кореи, реальные мастера боевых искусств. Из-за непрофессионализма ряда актёров некоторые участники съемок очень серьезно пострадали, после чего подобные сюжеты больше не выходят на полноформатный экран северокорейского ТВ.



Продолжительность: 01:17:13
Качество видео: VHSRip
Перевод: Дублированный
Язык: Русский, корейский

Видео: DivX 5, 720х416, ~2440 Kbps
Аудио 1: MP3, 2ch, 128 Kbps 48kHz - русский
Аудио 1: MP3, 2 ch 128 Kbps - корейский (оригинал)

Общее
Полное имя : J:\Myung-ryoung 027 ho.avi
Формат : AVI
Формат/Информация : Audio Video Interleave
Размер файла : 1,46 Гбайт
Продолжительность : 1 ч. 17 м.
Общий поток : 2708 Кбит/сек
Название фильма : Myung-ryoung 027 ho
Жанр : Action
Программа кодирования : VirtualDubMod 1.5.4.1 (build 2178/release)
Формат оригинала/Имя : Movie

Видео
Идентификатор : 0
Формат : MPEG-4 Visual
Параметр BVOP формата : Нет
Параметр QPel формата : Нет
Параметр GMC формата : Без точки перехода
Параметр матрицы формата : Default (H.263)
Идентификатор кодека : DX50
Идентификатор кодека/Подсказка : DivX 5
Продолжительность : 1 ч. 17 м.
Битрейт : 2438 Кбит/сек
Ширина : 720 пикселей
Высота : 416 пикселей
Соотношение сторон : 16:9
Частота кадров : 25,000 кадров/сек
Цветовое пространство : YUV
Субдискретизация насыщенности : 4:2:0
Битовая глубина : 8 бит
Тип развёртки : Прогрессивная
Метод сжатия : С потерями
Бит/(Пиксели*Кадры) : 0.326
Размер потока : 1,31 Гбайт (90%)
Библиотека кодирования : DivX 5.1.0 (UTC 2003-09-02)

Аудио #1
Идентификатор : 1
Формат : MPEG Audio
Версия формата : Version 1
Профиль формата : Layer 3
Режим : Joint stereo
Идентификатор кодека : 55
Идентификатор кодека/Подсказка : MP3
Продолжительность : 1 ч. 17 м.
Вид битрейта : Постоянный
Битрейт : 128 Кбит/сек
Каналы : 2 канала
Частота : 48,0 КГц
Метод сжатия : С потерями
Задержка видео : 24 мс.
Размер потока : 70,7 Мбайт (5%)
Выравнивание : Соединение по промежуткам
Продолжительность промежутка : 40 мс. (1,00 видеокадр)
Время предзагрузки промежутка : 504 мс.

Аудио #2
Идентификатор : 2
Формат : MPEG Audio
Версия формата : Version 1
Профиль формата : Layer 3
Режим : Joint stereo
Расширение режима : MS Stereo
Идентификатор кодека : 55
Идентификатор кодека/Подсказка : MP3
Продолжительность : 1 ч. 17 м.
Вид битрейта : Постоянный
Битрейт : 128 Кбит/сек
Каналы : 2 канала
Частота : 48,0 КГц
Метод сжатия : С потерями
Размер потока : 70,7 Мбайт (5%)
Выравнивание : Соединение по промежуткам
Продолжительность промежутка : 40 мс. (1,00 видеокадр)
Время предзагрузки промежутка : 504 мс.
Скриншоты:


Все одноименные релизы в Клубе
Время раздачи: 24/7 до 5 скачавших, далее - по возможности
[NNM-Club.ru]_Myung-ryoung 027 ho.avi.torrent
 Торрент: Платиновая раздача  Зарегистрирован
 
Скачать


 Зарегистрирован:   03 Фев 2012 13:09:57
 Размер:   1.46 GB  (
 Рейтинг:   4.8 (Голосов: 24)
 Поблагодарили:   93
 Проверка:   Оформление проверено модератором 03 Фев 2012 13:26:03
Как cкачать  ·  Как раздать  ·  Правильно оформить  ·  Поднять ратио!  
desz
Стаж: 13 лет 5 мес.
Сообщений: 498
Ratio: 1.658
13.95%
Откуда: Реальность
я этот фильм искал лет 10 )))) я забыл как он называется и искал "команда №27" :) Спс за раздачу
IntruderVS400 ®
Стаж: 12 лет 10 мес.
Сообщений: 44
Ratio: 7.134
Поблагодарили: 2779
100%
ukraine.gif
Я и сам его искал долго... вот, нашел - поделился :да:
slonic1982
Стаж: 14 лет 5 мес.
Сообщений: 74
Ratio: 5.76
Поблагодарили: 6
75.89%
russia.gif
Какой старый фильм...Я его ещё в кинотеатре смотрел. Спасибо за раздачу :)
wadimus
Только чтение
Стаж: 15 лет 3 мес.
Сообщений: 5702
Ratio: 8.21
Поблагодарили: 177
100%
Откуда: Красноярск
russia.gif
я его активно писал на кассетах и продавал ..
а тут вот он ... качай, отдавай, смотри ..
:респект: :новогоднее пиво:
Топик был перенесен из форума Азиатское кино (HD*Rip/LQ, DVDRip, SATRip, VHSRip) в форум Архив Видео

Причина переноса: http://www.nnmclub.to/forum/viewtopic.php?t=446575 двдрип
Sakura_msk
Топик был перенесен из форума Архив Видео в форум Архив Классики и Старого кино / Артхаус



Исправил релиз - напиши ЛС Kalex, дав ссылку на релиз.
Если нет ответа 24 часа - нажми на кнопку "Обратить внимание модераторов".
Показать сообщения:   
Начать новую тему   Ответить на тему    Торрент-трекер NNM-Club -> Архив торрентов -> Архив Классики кино и Старых фильмов до 90-х Часовой пояс: GMT + 3
Страница 1 из 1