Классический форум-трекер
canvas not supported
Нас вместе: 4 233 095

Американцы / The Americans (2013) WEB-DL [1080p] (Сезон 1, Серии 13 из 13)


 
 
RSS
Начать новую тему   Ответить на тему    Торрент-трекер NNM-Club -> Зарубежные сериалы
Автор Сообщение
Runay ®
Стаж: 13 лет 8 мес.
Сообщений: 34
Ratio: 1.879
Поблагодарили: 328
100%
Американцы / The Americans (2013) WEB-DL [1080p] (Сезон 1, Серии 13 из 13)
Русское название: Американцы
Оригинальное название: The Americans
Год выпуска: 2013
Жанр: Триллер, Боевик, Мелодрама

Перевод: Многоголосый закадровый, профессиональный
Язык: Русский, Английский
Озвучка / Автор перевода: Кубик в Кубик, NewStudio
Вид субтитров: Вшитые и русские отдельным файлом
Язык субтитров: Русские, Английские


Дата мировой премьеры: 30 января 2013

Режиссер: Адам Аркин, Гэвин О’Коннор, Томас Шламми
Актеры: Кери Расселл, Ноа Эммерик, Марго Мартиндейл, Аннет Махендру, Холли Тейлор, Роман Блат, Пол Джуд Летерски, Мэттью Риз, Марми Косико, Дэн Флаэрти, Майкл Гэстон, Максимилианно Эрнандез, Келли Сауферлэнд, Давид Вадим, Дэмиен Боско, Чейз Коулмэн, Майкл Дивайн, Кевин МакКормик, Дэннис Риис, Роман Ройтберг, Хейден Скиген, Айа Терауда, Элисон Райт, Джеймс Эндрю О’Коннор, Кристина Брукато, Мэтт Ньютон

Описание фильма:
История о сложном браке двух агентов КГБ, которые под видом американцев заселяются в США в начале 1960. Действие фильма происходит сразу после того, как президентом избирают Рейгана. Подставной брак Филлипа и Элизабет с каждым днем становится все более настоящим и эмоциональным, несмотря на эскалацию холодной войны и опасные отношения, которые они должны поддерживать с сетью шпионов и информаторов. Напряжение нарастает, когда появляется новый сосед Стэн, агент ФБР, который работает в контрразведке.

Продолжительность: 13 по ~50 минут
Качество видео: WEB-DLRip
Видеокодек: MPEG-4 AVC/H.264
Битрейт видео: ~4900 Кбит/с
Размер кадра: 1916x1076, 1920х1072
Аудио #1: AC3, 6ch, 384 Кбит/с, Русский (перевод NewStudio)
Аудио #2: AC3, 6ch, 384 Кбит/с, Русский (перевод Кубик в Кубе)
Аудио #3: AC3, 6ch, 384 Кбит/с, Английский (оригинал)
Субтитры: Английские, Русские (на первые 11 серий)
General
Unique ID : 242324580585899092211306830436134604031 (0xB64E043FF903876E96C06C027400CCFF)
Complete name : D:\Downloads\Американцы_The Americans Season 1 1080p\The.Americans.S01E02.The Clock.1080p.WEB-DL.Rus.Eng.mkv
Format : Matroska
Format version : Version 2
File size : 2.11 GiB
Duration : 49mn 51s
Overall bit rate : 6 049 Kbps
Movie name : 1x02 - The Clock / Часы
Encoded date : UTC 2013-03-24 11:25:02
Writing application : mkvmerge v5.8.0 ('No Sleep / Pillow') built on Sep 2 2012 15:37:04
Writing library : libebml v1.2.3 + libmatroska v1.3.0

Video
ID : 1
Format : AVC
Format/Info : Advanced Video Codec
Format profile : High@L4.0
Format settings, CABAC : Yes
Format settings, ReFrames : 4 frames
Codec ID : V_MPEG4/ISO/AVC
Duration : 49mn 51s
Bit rate : 4 777 Kbps
Width : 1 916 pixels
Height : 1 076 pixels
Display aspect ratio : 16:9
Frame rate mode : Constant
Frame rate : 23.976 fps
Color space : YUV
Chroma subsampling : 4:2:0
Bit depth : 8 bits
Scan type : Progressive
Bits/(Pixel*Frame) : 0.097
Stream size : 1.66 GiB (79%)
Language : English
Default : Yes
Forced : No
Color primaries : BT.709
Transfer characteristics : BT.709
Matrix coefficients : BT.709

Audio #1
ID : 2
Format : AC-3
Format/Info : Audio Coding 3
Mode extension : CM (complete main)
Format settings, Endianness : Big
Codec ID : A_AC3
Duration : 49mn 51s
Bit rate mode : Constant
Bit rate : 384 Kbps
Channel(s) : 6 channels
Channel positions : Front: L C R, Side: L R, LFE
Sampling rate : 48.0 KHz
Bit depth : 16 bits
Compression mode : Lossy
Stream size : 137 MiB (6%)
Title : NewStudio
Language : Russian
Default : Yes
Forced : No

Audio #2
ID : 3
Format : AC-3
Format/Info : Audio Coding 3
Mode extension : CM (complete main)
Format settings, Endianness : Big
Codec ID : A_AC3
Duration : 49mn 51s
Bit rate mode : Constant
Bit rate : 384 Kbps
Channel(s) : 6 channels
Channel positions : Front: L C R, Side: L R, LFE
Sampling rate : 48.0 KHz
Bit depth : 16 bits
Compression mode : Lossy
Stream size : 137 MiB (6%)
Title : Кубик в кубе
Language : Russian
Default : No
Forced : No

Audio #3
ID : 4
Format : AC-3
Format/Info : Audio Coding 3
Mode extension : CM (complete main)
Format settings, Endianness : Big
Codec ID : A_AC3
Duration : 49mn 51s
Bit rate mode : Constant
Bit rate : 384 Kbps
Channel(s) : 6 channels
Channel positions : Front: L C R, Side: L R, LFE
Sampling rate : 48.0 KHz
Bit depth : 16 bits
Compression mode : Lossy
Stream size : 137 MiB (6%)
Title : Original
Language : English
Default : No
Forced : No

Text
ID : 5
Format : UTF-8
Codec ID : S_TEXT/UTF8
Codec ID/Info : UTF-8 Plain Text
Language : English
Default : No
Forced : No


Скачать сэмпл | Все релизы The Americans

Время раздачи: 24/7 - круглосуточно
[NNM-Club.ru]_Amerikantsyi_The Americans Season 1 1080p.torrent
 Торрент: Платиновая раздача  Зарегистрирован
 
Скачать


 Зарегистрирован:   04 Май 2013 21:10:09
 Размер:   27.1 GB  (
 Рейтинг:   4.6 (Голосов: 61)
 Поблагодарили:   290
 Проверка:   Оформление проверено модератором 05 Май 2013 04:17:41
Как cкачать  ·  Как раздать  ·  Правильно оформить  ·  Поднять ратио!  
ZhenyaF
Стаж: 12 лет 9 мес.
Сообщений: 22
Ratio: 11.218
100%
В 11-й серии у полковника КГБ погоны задом на перед пришиты !!!
men in black
Uploader 500+
Стаж: 14 лет 5 мес.
Сообщений: 334
Ratio: 2521.273
Раздал: 717.5 TB
100%
russia.gif
Петлицы наоборот :убится ап стену:
a1exy
Стаж: 17 лет 4 мес.
Сообщений: 58
Ratio: 67.422
100%
russia.gif
Много ляпов и нелогичностей. Храм Христа Спасителя в Москве 80-х, например. А в целом хоть сюжет и затягивает, но понимаешь, что они нас боятся, если до сих пор снимают фильмы в таком ключе с таким количеством пропагандистских штампов.
Rune1221
Стаж: 12 лет 3 мес.
Сообщений: 26
Ratio: 10.236
0%
Единственная радость вам несчастным осталась - что вас боятся.
Только это не потому что сильные - ядрёна бомба много у кого есть, а от того что дурные - как обезьяна с гранатой.
headnunter
Стаж: 7 лет 8 мес.
Сообщений: 67
Ratio: 0.621
0.32%
Rune1221 писал(а): Перейти к сообщению
Единственная радость вам несчастным осталась - что вас боятся.
Только это не потому что сильные - ядрёна бомба много у кого есть, а от того что дурные - как обезьяна с гранатой.

вот это понимание мира , на уровне 5 класса , а мб даже выше .

Ну сейчас посмотрим , что там да как сняли .
namzy
Стаж: 14 лет 9 мес.
Сообщений: 34
Ratio: 1.487
46.03%
ukraine.gif
Раздайте плз, очень хочется посмотреть) Заранее благодарен.
adler2014
Стаж: 14 лет 3 мес.
Сообщений: 12
Ratio: 9.142
14.54%
Прототипом героев стали наши разведчики нелегалы Андрей Безруков и его жена Елена Вавилова.
mutant2009
Стаж: 11 лет 8 мес.
Сообщений: 4
Ratio: 315.188
100%
russia.gif
Rune1221 писал(а): Перейти к сообщению
Единственная радость вам несчастным осталась - что вас боятся.
Только это не потому что сильные - ядрёна бомба много у кого есть, а от того что дурные - как обезьяна с гранатой.


Залезь обратно в схрон, рагуля
Mr_Yakudza
Стаж: 13 лет 1 мес.
Сообщений: 109
Ratio: 5.109
0.12%
Rune1221 писал(а): Перейти к сообщению
Единственная радость вам несчастным осталась - что вас боятся.
Только это не потому что сильные - ядрёна бомба много у кого есть, а от того что дурные - как обезьяна с гранатой.

у тебя кастрюля мозг сдавила, мешает воспринимать реальность
Показать сообщения:   
Начать новую тему   Ответить на тему    Торрент-трекер NNM-Club -> Зарубежные сериалы Часовой пояс: GMT + 3
Страница 1 из 1