Классический форум-трекер
canvas not supported
Нас вместе: 4 165 233

Ария - Дальнобойщики 2 (OST) - Саундтрек к игре Дальнобойщики 2 (2001) [ALAC|Tracks]<Heavy Metal>


 
 
RSS
Начать новую тему   Ответить на тему    Торрент-трекер NNM-Club -> Аудио и Видео -> Музыка Lossless (ALAC)
Автор Сообщение
Cecidit ®
Стаж: 7 лет 8 мес.
Сообщений: 129
Ratio: 39.772
Поблагодарили: 8803
100%
Откуда: Москва, МО Щелково
russia.gif
Ария - Дальнобойщики 2 (OST) - Саундтрек к игре Дальнобойщики 2 (2001)
Год: 2001
Жанр: Heavy Metal
Продолжительность: 00:49:42

Кодек: ALAC
Битрейт: Lossless
Тип раздачи: Tracks
Обложки: Вшиты
Кодирование: XLD + QuickTime + iTunes

Дальнобойщики-2 — саундтрек, записанный группой Ария к одноимённой игре. Представляет собой инструментальные версии известных песен Арии.

Участники записи:
Владимир Холстинин — гитара
Сергей Терентьев — гитара
Виталий Дубинин — бас (4, 5, 7, 9, 11)
Александр Манякин — барабаны
Алик Грановский — бас (1, 2, 3, 6, 8, 10, 12)
Клавишные: Сергей Науменко, Евгений Шидловский
Продюсеры: Владимир Холстинин, Сергей Терентьев

Треклист:
01. Химера
02. Встань, Страх Преодолей
03. Волонтёр
04. Грязь
05. Без Тебя
06. Это Рок
07. Дьявольский Зной
08. Тореро
09. Мечты
10. Воля И Разум
11. Следй За мной!
12. Небо
Код:

Общее
Полное имя                               : /Users/Denis/Library/Containers/net.mediaarea.mediainfo.mac/Data/Music/iTunes/iTunes Media/Music/Ария/Дальнобойщики-2 (OST)/01 Химера.m4a
Формат                                   : MPEG-4
Профиль формата                          : Apple audio with iTunes info
Идентификатор кодека                     : M4A
Размер файла                             : 36,5 Мбайт
Продолжительность                        : 5 м. 1 с.
Режим общего битрейта                    : Переменный
Общий поток                              : 1013 Кбит/сек
Альбом                                   : Дальнобойщики-2 (OST)
Альбом/Исполнитель                       : Ария
Трек                                     : Химера
Трек/Положение                           : 1
Трек/Всего                               : 12
Исполнитель                              : Ария
Жанр                                     : Heavy Metal
Дата записи                              : 2001
Дата пометки                             : UTC 2014-05-31 19:38:16
Программа кодирования                    : X Lossless Decoder 20140504, QuickTime 7.7.1
Обложка                                  : Yes
Примечание                               : ExactAudioCopy v0.99pb4
iTunes_CDDB_1                            : 920BA60C+223818+12+150+22787+38682+52633+74000+93859+109728+131952+152722+173217+189273+210338
iTunes_CDDB_TrackNumber                  : 1

Аудио
Идентификатор                            : 1
Формат                                   : ALAC
Идентификатор кодека                     : alac
Идентификатор кодека/Информация          : Apple Lossless Audio Codec
Продолжительность                        : 5 м. 1 с.
Duration_LastFrame                       : -33 мс.
Вид битрейта                             : Переменный
Битрейт                                  : 999 Кбит/сек
Каналы                                   : 2 канала
Частота                                  : 44,1 КГц
Битовая глубина                          : 16 бит
Размер потока                            : 36,0 Мбайт (99%)
Язык                                     : English
Дата пометки                             : UTC 2014-05-31 19:38:16

Общее
Полное имя                               : /Users/Denis/Library/Containers/net.mediaarea.mediainfo.mac/Data/Music/iTunes/iTunes Media/Music/Ария/Дальнобойщики-2 (OST)/02 Встань, страх преодолей.m4a
Формат                                   : MPEG-4
Профиль формата                          : Apple audio with iTunes info
Идентификатор кодека                     : M4A
Размер файла                             : 26,0 Мбайт
Продолжительность                        : 3 м. 31 с.
Режим общего битрейта                    : Переменный
Общий поток                              : 1029 Кбит/сек
Альбом                                   : Дальнобойщики-2 (OST)
Альбом/Исполнитель                       : Ария
Трек                                     : Встань, страх преодолей
Трек/Положение                           : 2
Трек/Всего                               : 12
Исполнитель                              : Ария
Жанр                                     : Heavy Metal
Дата записи                              : 2001
Дата пометки                             : UTC 2014-05-31 19:38:19
Программа кодирования                    : X Lossless Decoder 20140504, QuickTime 7.7.1
Обложка                                  : Yes
Примечание                               : ExactAudioCopy v0.99pb4
iTunes_CDDB_1                            : 920BA60C+223818+12+150+22787+38682+52633+74000+93859+109728+131952+152722+173217+189273+210338
iTunes_CDDB_TrackNumber                  : 2

Аудио
Идентификатор                            : 1
Формат                                   : ALAC
Идентификатор кодека                     : alac
Идентификатор кодека/Информация          : Apple Lossless Audio Codec
Продолжительность                        : 3 м. 31 с.
Duration_LastFrame                       : -18 мс.
Вид битрейта                             : Переменный
Битрейт                                  : 1010 Кбит/сек
Каналы                                   : 2 канала
Частота                                  : 44,1 КГц
Битовая глубина                          : 16 бит
Размер потока                            : 25,5 Мбайт (98%)
Язык                                     : English
Дата пометки                             : UTC 2014-05-31 19:38:19

Общее
Полное имя                               : /Users/Denis/Library/Containers/net.mediaarea.mediainfo.mac/Data/Music/iTunes/iTunes Media/Music/Ария/Дальнобойщики-2 (OST)/03 Волонтёр.m4a
Формат                                   : MPEG-4
Профиль формата                          : Apple audio with iTunes info
Идентификатор кодека                     : M4A
Размер файла                             : 22,6 Мбайт
Продолжительность                        : 3 м. 6 с.
Режим общего битрейта                    : Переменный
Общий поток                              : 1017 Кбит/сек
Альбом                                   : Дальнобойщики-2 (OST)
Альбом/Исполнитель                       : Ария
Трек                                     : Волонтёр
Трек/Положение                           : 3
Трек/Всего                               : 12
Исполнитель                              : Ария
Жанр                                     : Heavy Metal
Дата записи                              : 2001
Дата пометки                             : UTC 2014-05-31 19:38:21
Программа кодирования                    : X Lossless Decoder 20140504, QuickTime 7.7.1
Обложка                                  : Yes
Примечание                               : ExactAudioCopy v0.99pb4
iTunes_CDDB_1                            : 920BA60C+223818+12+150+22787+38682+52633+74000+93859+109728+131952+152722+173217+189273+210338
iTunes_CDDB_TrackNumber                  : 3

Аудио
Идентификатор                            : 1
Формат                                   : ALAC
Идентификатор кодека                     : alac
Идентификатор кодека/Информация          : Apple Lossless Audio Codec
Продолжительность                        : 3 м. 6 с.
Duration_LastFrame                       : -25 мс.
Вид битрейта                             : Переменный
Битрейт                                  : 994 Кбит/сек
Каналы                                   : 2 канала
Частота                                  : 44,1 КГц
Битовая глубина                          : 16 бит
Размер потока                            : 22,1 Мбайт (98%)
Язык                                     : English
Дата пометки                             : UTC 2014-05-31 19:38:21

Общее
Полное имя                               : /Users/Denis/Library/Containers/net.mediaarea.mediainfo.mac/Data/Music/iTunes/iTunes Media/Music/Ария/Дальнобойщики-2 (OST)/04 Грязь.m4a
Формат                                   : MPEG-4
Профиль формата                          : Apple audio with iTunes info
Идентификатор кодека                     : M4A
Размер файла                             : 36,9 Мбайт
Продолжительность                        : 4 м. 44 с.
Режим общего битрейта                    : Переменный
Общий поток                              : 1086 Кбит/сек
Альбом                                   : Дальнобойщики-2 (OST)
Альбом/Исполнитель                       : Ария
Трек                                     : Грязь
Трек/Положение                           : 4
Трек/Всего                               : 12
Исполнитель                              : Ария
Жанр                                     : Heavy Metal
Дата записи                              : 2001
Дата пометки                             : UTC 2014-05-31 19:38:22
Программа кодирования                    : X Lossless Decoder 20140504, QuickTime 7.7.1
Обложка                                  : Yes
Примечание                               : ExactAudioCopy v0.99pb4
iTunes_CDDB_1                            : 920BA60C+223818+12+150+22787+38682+52633+74000+93859+109728+131952+152722+173217+189273+210338
iTunes_CDDB_TrackNumber                  : 4

Аудио
Идентификатор                            : 1
Формат                                   : ALAC
Идентификатор кодека                     : alac
Идентификатор кодека/Информация          : Apple Lossless Audio Codec
Продолжительность                        : 4 м. 44 с.
Duration_LastFrame                       : -62 мс.
Вид битрейта                             : Переменный
Битрейт                                  : 1071 Кбит/сек
Каналы                                   : 2 канала
Частота                                  : 44,1 КГц
Битовая глубина                          : 16 бит
Размер потока                            : 36,4 Мбайт (99%)
Язык                                     : English
Дата пометки                             : UTC 2014-05-31 19:38:22

Общее
Полное имя                               : /Users/Denis/Library/Containers/net.mediaarea.mediainfo.mac/Data/Music/iTunes/iTunes Media/Music/Ария/Дальнобойщики-2 (OST)/05 Без тебя.m4a
Формат                                   : MPEG-4
Профиль формата                          : Apple audio with iTunes info
Идентификатор кодека                     : M4A
Размер файла                             : 30,4 Мбайт
Продолжительность                        : 4 м. 24 с.
Режим общего битрейта                    : Переменный
Общий поток                              : 962 Кбит/сек
Альбом                                   : Дальнобойщики-2 (OST)
Альбом/Исполнитель                       : Ария
Трек                                     : Без тебя
Трек/Положение                           : 5
Трек/Всего                               : 12
Исполнитель                              : Ария
Жанр                                     : Heavy Metal
Дата записи                              : 2001
Дата пометки                             : UTC 2014-05-31 19:38:24
Программа кодирования                    : X Lossless Decoder 20140504, QuickTime 7.7.1
Обложка                                  : Yes
Примечание                               : ExactAudioCopy v0.99pb4
iTunes_CDDB_1                            : 920BA60C+223818+12+150+22787+38682+52633+74000+93859+109728+131952+152722+173217+189273+210338
iTunes_CDDB_TrackNumber                  : 5

Аудио
Идентификатор                            : 1
Формат                                   : ALAC
Идентификатор кодека                     : alac
Идентификатор кодека/Информация          : Apple Lossless Audio Codec
Продолжительность                        : 4 м. 24 с.
Duration_LastFrame                       : -14 мс.
Вид битрейта                             : Переменный
Битрейт                                  : 946 Кбит/сек
Каналы                                   : 2 канала
Частота                                  : 44,1 КГц
Битовая глубина                          : 16 бит
Размер потока                            : 29,9 Мбайт (98%)
Язык                                     : English
Дата пометки                             : UTC 2014-05-31 19:38:24

Общее
Полное имя                               : /Users/Denis/Library/Containers/net.mediaarea.mediainfo.mac/Data/Music/iTunes/iTunes Media/Music/Ария/Дальнобойщики-2 (OST)/06 Это рок.m4a
Формат                                   : MPEG-4
Профиль формата                          : Apple audio with iTunes info
Идентификатор кодека                     : M4A
Размер файла                             : 27,3 Мбайт
Продолжительность                        : 3 м. 31 с.
Режим общего битрейта                    : Переменный
Общий поток                              : 1081 Кбит/сек
Альбом                                   : Дальнобойщики-2 (OST)
Альбом/Исполнитель                       : Ария
Трек                                     : Это рок
Трек/Положение                           : 6
Трек/Всего                               : 12
Исполнитель                              : Ария
Жанр                                     : Heavy Metal
Дата записи                              : 2001
Дата пометки                             : UTC 2014-05-31 19:38:26
Программа кодирования                    : X Lossless Decoder 20140504, QuickTime 7.7.1
Обложка                                  : Yes
Примечание                               : ExactAudioCopy v0.99pb4
iTunes_CDDB_1                            : 920BA60C+223818+12+150+22787+38682+52633+74000+93859+109728+131952+152722+173217+189273+210338
iTunes_CDDB_TrackNumber                  : 6

Аудио
Идентификатор                            : 1
Формат                                   : ALAC
Идентификатор кодека                     : alac
Идентификатор кодека/Информация          : Apple Lossless Audio Codec
Продолжительность                        : 3 м. 31 с.
Duration_LastFrame                       : -86 мс.
Вид битрейта                             : Переменный
Битрейт                                  : 1061 Кбит/сек
Каналы                                   : 2 канала
Частота                                  : 44,1 КГц
Битовая глубина                          : 16 бит
Размер потока                            : 26,8 Мбайт (98%)
Язык                                     : English
Дата пометки                             : UTC 2014-05-31 19:38:26

Общее
Полное имя                               : /Users/Denis/Library/Containers/net.mediaarea.mediainfo.mac/Data/Music/iTunes/iTunes Media/Music/Ария/Дальнобойщики-2 (OST)/07 Дьявольский зной.m4a
Формат                                   : MPEG-4
Профиль формата                          : Apple audio with iTunes info
Идентификатор кодека                     : M4A
Размер файла                             : 37,6 Мбайт
Продолжительность                        : 4 м. 56 с.
Режим общего битрейта                    : Переменный
Общий поток                              : 1066 Кбит/сек
Альбом                                   : Дальнобойщики-2 (OST)
Альбом/Исполнитель                       : Ария
Трек                                     : Дьявольский зной
Трек/Положение                           : 7
Трек/Всего                               : 12
Исполнитель                              : Ария
Жанр                                     : Heavy Metal
Дата записи                              : 2001
Дата пометки                             : UTC 2014-05-31 19:38:28
Программа кодирования                    : X Lossless Decoder 20140504, QuickTime 7.7.1
Обложка                                  : Yes
Примечание                               : ExactAudioCopy v0.99pb4
iTunes_CDDB_1                            : 920BA60C+223818+12+150+22787+38682+52633+74000+93859+109728+131952+152722+173217+189273+210338
iTunes_CDDB_TrackNumber                  : 7

Аудио
Идентификатор                            : 1
Формат                                   : ALAC
Идентификатор кодека                     : alac
Идентификатор кодека/Информация          : Apple Lossless Audio Codec
Продолжительность                        : 4 м. 56 с.
Duration_LastFrame                       : -60 мс.
Вид битрейта                             : Переменный
Битрейт                                  : 1051 Кбит/сек
Каналы                                   : 2 канала
Частота                                  : 44,1 КГц
Битовая глубина                          : 16 бит
Размер потока                            : 37,1 Мбайт (99%)
Язык                                     : English
Дата пометки                             : UTC 2014-05-31 19:38:28

Общее
Полное имя                               : /Users/Denis/Library/Containers/net.mediaarea.mediainfo.mac/Data/Music/iTunes/iTunes Media/Music/Ария/Дальнобойщики-2 (OST)/08 Тореро.m4a
Формат                                   : MPEG-4
Профиль формата                          : Apple audio with iTunes info
Идентификатор кодека                     : M4A
Размер файла                             : 34,4 Мбайт
Продолжительность                        : 4 м. 36 с.
Режим общего битрейта                    : Переменный
Общий поток                              : 1042 Кбит/сек
Альбом                                   : Дальнобойщики-2 (OST)
Альбом/Исполнитель                       : Ария
Трек                                     : Тореро
Трек/Положение                           : 8
Трек/Всего                               : 12
Исполнитель                              : Ария
Жанр                                     : Heavy Metal
Дата записи                              : 2001
Дата пометки                             : UTC 2014-05-31 19:38:31
Программа кодирования                    : X Lossless Decoder 20140504, QuickTime 7.7.1
Обложка                                  : Yes
Примечание                               : ExactAudioCopy v0.99pb4
iTunes_CDDB_1                            : 920BA60C+223818+12+150+22787+38682+52633+74000+93859+109728+131952+152722+173217+189273+210338
iTunes_CDDB_TrackNumber                  : 8

Аудио
Идентификатор                            : 1
Формат                                   : ALAC
Идентификатор кодека                     : alac
Идентификатор кодека/Информация          : Apple Lossless Audio Codec
Продолжительность                        : 4 м. 36 с.
Duration_LastFrame                       : -34 мс.
Вид битрейта                             : Переменный
Битрейт                                  : 1027 Кбит/сек
Каналы                                   : 2 канала
Частота                                  : 44,1 КГц
Битовая глубина                          : 16 бит
Размер потока                            : 33,9 Мбайт (99%)
Язык                                     : English
Дата пометки                             : UTC 2014-05-31 19:38:31

Общее
Полное имя                               : /Users/Denis/Library/Containers/net.mediaarea.mediainfo.mac/Data/Music/iTunes/iTunes Media/Music/Ария/Дальнобойщики-2 (OST)/09 Мечты.m4a
Формат                                   : MPEG-4
Профиль формата                          : Apple audio with iTunes info
Идентификатор кодека                     : M4A
Размер файла                             : 33,9 Мбайт
Продолжительность                        : 4 м. 33 с.
Режим общего битрейта                    : Переменный
Общий поток                              : 1042 Кбит/сек
Альбом                                   : Дальнобойщики-2 (OST)
Альбом/Исполнитель                       : Ария
Трек                                     : Мечты
Трек/Положение                           : 9
Трек/Всего                               : 12
Исполнитель                              : Ария
Жанр                                     : Heavy Metal
Дата записи                              : 2001
Дата пометки                             : UTC 2014-05-31 19:38:34
Программа кодирования                    : X Lossless Decoder 20140504, QuickTime 7.7.1
Обложка                                  : Yes
Примечание                               : ExactAudioCopy v0.99pb4
iTunes_CDDB_1                            : 920BA60C+223818+12+150+22787+38682+52633+74000+93859+109728+131952+152722+173217+189273+210338
iTunes_CDDB_TrackNumber                  : 9

Аудио
Идентификатор                            : 1
Формат                                   : ALAC
Идентификатор кодека                     : alac
Идентификатор кодека/Информация          : Apple Lossless Audio Codec
Продолжительность                        : 4 м. 33 с.
Duration_LastFrame                       : -79 мс.
Вид битрейта                             : Переменный
Битрейт                                  : 1026 Кбит/сек
Каналы                                   : 2 канала
Частота                                  : 44,1 КГц
Битовая глубина                          : 16 бит
Размер потока                            : 33,4 Мбайт (99%)
Язык                                     : English
Дата пометки                             : UTC 2014-05-31 19:38:34

Общее
Полное имя                               : /Users/Denis/Library/Containers/net.mediaarea.mediainfo.mac/Data/Music/iTunes/iTunes Media/Music/Ария/Дальнобойщики-2 (OST)/10 Воля и разум.m4a
Формат                                   : MPEG-4
Профиль формата                          : Apple audio with iTunes info
Идентификатор кодека                     : M4A
Размер файла                             : 27,6 Мбайт
Продолжительность                        : 3 м. 34 с.
Режим общего битрейта                    : Переменный
Общий поток                              : 1083 Кбит/сек
Альбом                                   : Дальнобойщики-2 (OST)
Альбом/Исполнитель                       : Ария
Трек                                     : Воля и разум
Трек/Положение                           : 10
Трек/Всего                               : 12
Исполнитель                              : Ария
Жанр                                     : Heavy Metal
Дата записи                              : 2001
Дата кодирования                         : UTC 1972-12-03 23:48:31
Дата пометки                             : UTC 2014-05-31 19:38:36
Программа кодирования                    : X Lossless Decoder 20140504, QuickTime 7.7.1
Обложка                                  : Yes
Примечание                               : ExactAudioCopy v0.99pb4
iTunes_CDDB_1                            : 920BA60C+223818+12+150+22787+38682+52633+74000+93859+109728+131952+152722+173217+189273+210338
iTunes_CDDB_TrackNumber                  : 10

Аудио
Идентификатор                            : 1
Формат                                   : ALAC
Идентификатор кодека                     : alac
Идентификатор кодека/Информация          : Apple Lossless Audio Codec
Продолжительность                        : 3 м. 34 с.
Duration_LastFrame                       : -8 мс.
Вид битрейта                             : Переменный
Битрейт                                  : 1063 Кбит/сек
Каналы                                   : 2 канала
Частота                                  : 44,1 КГц
Битовая глубина                          : 16 бит
Размер потока                            : 27,1 Мбайт (98%)
Язык                                     : English
Дата кодирования                         : UTC 1972-12-03 23:48:31
Дата пометки                             : UTC 2014-05-31 19:38:36

Общее
Полное имя                               : /Users/Denis/Library/Containers/net.mediaarea.mediainfo.mac/Data/Music/iTunes/iTunes Media/Music/Ария/Дальнобойщики-2 (OST)/11 Следй за мной!.m4a
Формат                                   : MPEG-4
Профиль формата                          : Apple audio with iTunes info
Идентификатор кодека                     : M4A
Размер файла                             : 35,4 Мбайт
Продолжительность                        : 4 м. 40 с.
Режим общего битрейта                    : Переменный
Общий поток                              : 1058 Кбит/сек
Альбом                                   : Дальнобойщики-2 (OST)
Альбом/Исполнитель                       : Ария
Трек                                     : Следй за мной!
Трек/Положение                           : 11
Трек/Всего                               : 12
Исполнитель                              : Ария
Жанр                                     : Heavy Metal
Дата записи                              : 2001
Дата кодирования                         : UTC 1979-11-02 08:11:59
Дата пометки                             : UTC 2014-05-31 19:38:38
Программа кодирования                    : X Lossless Decoder 20140504, QuickTime 7.7.1
Обложка                                  : Yes
Примечание                               : ExactAudioCopy v0.99pb4
iTunes_CDDB_1                            : 920BA60C+223818+12+150+22787+38682+52633+74000+93859+109728+131952+152722+173217+189273+210338
iTunes_CDDB_TrackNumber                  : 11

Аудио
Идентификатор                            : 1
Формат                                   : ALAC
Идентификатор кодека                     : alac
Идентификатор кодека/Информация          : Apple Lossless Audio Codec
Продолжительность                        : 4 м. 40 с.
Duration_LastFrame                       : -2 мс.
Вид битрейта                             : Переменный
Битрейт                                  : 1043 Кбит/сек
Каналы                                   : 2 канала
Частота                                  : 44,1 КГц
Битовая глубина                          : 16 бит
Размер потока                            : 34,9 Мбайт (99%)
Язык                                     : English
Дата кодирования                         : UTC 1979-11-02 08:11:59
Дата пометки                             : UTC 2014-05-31 19:38:38

Общее
Полное имя                               : /Users/Denis/Library/Containers/net.mediaarea.mediainfo.mac/Data/Music/iTunes/iTunes Media/Music/Ария/Дальнобойщики-2 (OST)/12 Небо.m4a
Формат                                   : MPEG-4
Профиль формата                          : Apple audio with iTunes info
Идентификатор кодека                     : M4A
Размер файла                             : 21,3 Мбайт
Продолжительность                        : 2 м. 59 с.
Режим общего битрейта                    : Переменный
Общий поток                              : 992 Кбит/сек
Альбом                                   : Дальнобойщики-2 (OST)
Альбом/Исполнитель                       : Ария
Трек                                     : Небо
Трек/Положение                           : 12
Трек/Всего                               : 12
Исполнитель                              : Ария
Жанр                                     : Heavy Metal
Дата записи                              : 2001
Дата кодирования                         : UTC 1979-04-22 03:51:43
Дата пометки                             : UTC 2014-05-31 19:38:41
Программа кодирования                    : X Lossless Decoder 20140504, QuickTime 7.7.1
Обложка                                  : Yes
Примечание                               : ExactAudioCopy v0.99pb4
iTunes_CDDB_1                            : 920BA60C+223818+12+150+22787+38682+52633+74000+93859+109728+131952+152722+173217+189273+210338
iTunes_CDDB_TrackNumber                  : 12

Аудио
Идентификатор                            : 1
Формат                                   : ALAC
Идентификатор кодека                     : alac
Идентификатор кодека/Информация          : Apple Lossless Audio Codec
Продолжительность                        : 2 м. 59 с.
Duration_LastFrame                       : -82 мс.
Вид битрейта                             : Переменный
Битрейт                                  : 968 Кбит/сек
Каналы                                   : 2 канала
Частота                                  : 44,1 КГц
Битовая глубина                          : 16 бит
Размер потока                            : 20,8 Мбайт (98%)
Язык                                     : English
Дата кодирования                         : UTC 1979-04-22 03:51:43
Дата пометки                             : UTC 2014-05-31 19:38:41
Код:

-----------------------

DON'T MODIFY THIS FILE

-----------------------

PERFORMER: auCDtect Task Manager, ver. 1.6.0 RC1 build 1.6.0.1
Copyright (c) 2008-2010 y-soft. All rights reserved
http://y-soft.org

ANALYZER: auCDtect: CD records authenticity detector, version 0.8.2
Copyright (c) 2004 Oleg Berngardt. All rights reserved.
Copyright (c) 2004 Alexander Djourik. All rights reserved.

FILE: 12 Небо.m4a
  Size: 22285790 Hash: B779E46FF023F8283C35C278CDC41DDC Accuracy: -m8
  Conclusion: CDDA 100%
  Signature: 15FB6036E9588425F2C2D6E3D7DF2BC53683A799
FILE: 11 Следй за мной!.m4a
  Size: 37151722 Hash: 8DADC0C1F9BCEAD9247C662084877CDC Accuracy: -m0
  Conclusion: CDDA 100%
  Signature: 24C0B56009075C2D185C022476FDFE6DB89136BE
FILE: 10 Воля и разум.m4a
  Size: 28980094 Hash: 5737CF8BC4CE2261FD2D45B1955C9A2D Accuracy: -m0
  Conclusion: CDDA 100%
  Signature: 1E1BA72546515DCFE1EE9F1A893253948BDC1A38
FILE: 09 Мечты.m4a
  Size: 35585908 Hash: F44B6F94E4274B591B3F4D8F28BA784F Accuracy: -m8
  Conclusion: CDDA 100%
  Signature: 005FAC522F37418AE6D8C147F79D9EC32B62BE98
FILE: 08 Тореро.m4a
  Size: 36063398 Hash: 88FE9EC5978EBAE8D8BE04CE79786719 Accuracy: -m8
  Conclusion: CDDA 100%
  Signature: 9B5A7AB10F5E0243F3D3F4A00E4A80885458E8DF
FILE: 07 Дьявольский зной.m4a
  Size: 39469554 Hash: 091F192875C697E54164C28A67C628A7 Accuracy: -m8
  Conclusion: CDDA 100%
  Signature: 6A8F1B0DBBF44E032B4D2E58720C9573711116B1
FILE: 06 Это рок.m4a
  Size: 28597164 Hash: D35A3FB184F489BE3D745D686B28DA48 Accuracy: -m8
  Conclusion: CDDA 100%
  Signature: 0B00AE373C37A005894C3978C496CD8B9D96A32F
FILE: 05 Без тебя.m4a
  Size: 31835346 Hash: 014C4D313C6BB41CE0538E13DB5B2CD6 Accuracy: -m0
  Conclusion: CDDA 100%
  Signature: 682051BFC033E8B32758C42A23B6D5B1D487595A
FILE: 04 Грязь.m4a
  Size: 38678827 Hash: 7464D18AD6B68891E8F87DD7EF9382FB Accuracy: -m8
  Conclusion: CDDA 100%
  Signature: 9A27F9B08E8D41367668414E5F6F6EB9D4472DF9
FILE: 03 Волонтёр.m4a
  Size: 23645966 Hash: 8C4783E1E1CB9A7026F987DD9EE84F1A Accuracy: -m8
  Conclusion: CDDA 100%
  Signature: E23A45742D682BCF19E5255636BB1ED04AFC8CAC
FILE: 02 Встань, страх преодолей.m4a
  Size: 27270572 Hash: BD16C8D5ABF25A7879C655C1DA7547F6 Accuracy: -m8
  Conclusion: CDDA 100%
  Signature: 5E20DBB213F45C03BBEAB8BD860970FE4AB8A57E
FILE: 01 Химера.m4a
  Size: 38229653 Hash: C7D1B9B583137435DC5D70AF7A20CB02 Accuracy: -m8
  Conclusion: CDDA 100%
  Signature: 41E12DAD70354B78E0CC096D99C9915614F29453
Все альбомы (номерные, концертные, синглы трибьюты и сборники) группы АРИЯ в ALAC

Время раздачи: с 20:00 до 03:00 постоянно / часто 24/7
[NNM-Club.me]_Ariya (2001) Dal'noboi&#774;shchiki-2.torrent
 Торрент: Платиновая раздача  Зарегистрирован
 
Скачать


Примагнититься
 Зарегистрирован:   01 Июн 2014 14:17:00
 Размер:   370 MB  (
 Рейтинг:   4.3 (Голосов: 45)
 Поблагодарили:   90
 Проверка:   Оформление проверено модератором 01 Июн 2014 17:20:25
Как cкачать  ·  Как раздать  ·  Правильно оформить  ·  Поднять ратио!  
Trane White
Стаж: 6 лет
Сообщений: 5
Ratio: 1.365
Поблагодарили: 2
18.06%
russia.gif
Спасибо =)
dmitrenko17
Стаж: 11 лет 4 мес.
Сообщений: 2
Ratio: 2.461
0.88%
Спасибо.
Показать сообщения:   
Начать новую тему   Ответить на тему    Торрент-трекер NNM-Club -> Аудио и Видео -> Музыка Lossless (ALAC) Часовой пояс: GMT + 3
Страница 1 из 1