Классический форум-трекер
canvas not supported
Нас вместе: 4 172 749

Менты. Улицы разбитых фонарей (1-12 сезон, серии 1-345 из 345) (1997-2012) DVDRip, SATRip


 
 
RSS
Начать новую тему   Ответить на тему    Торрент-трекер NNM-Club -> Отечественные сериалы -> Менты
Автор Сообщение
Качающий001 ®
Стаж: 8 лет 7 мес.
Сообщений: 108
Ratio: 270.4
Раздал: 4.42 TB
Поблагодарили: 2926
100%
Менты. Улицы разбитых фонарей (1-12 сезон, серии 1-345 из 345) (1997-2012) DVDRip, SATRip
Год выпуска: 1997-2012
Страна: Россия
Жанр: Детектив, криминал
Режиссер: Александр Рогожкин, Александр Капица, Владимир Нахабцев, Кирилл Капица, Виктор Татар, Игорь Москвитин, Михаил Вассербаум, Алексей Лебедев
Актеры: Алексей Нилов, Александр Лыков, Александр Половцев, Сергей Селин, Юрий Кузнецов, Михаил Трухин, Александр Половцев, Георгий Траугот, Людмила Курепова, Алексей Лушников, Дмитрий Барков (II), Андрей Кивинов, Игорь Лифанов, Наталья Суркова, Наталия Фиссон, Владимир Литвинов, Светлана Смирнова, Борис Бирман, Ольга Колоскова (Тарасенко), Александр Сластин, Анна Зюрова, Александр Баширов, Кирилл Ульянов, Иван Травяников-Диденко, Александра Ястребенко, Татьяна Бедова, Юрий Орлов (II), Валерий Кравченко, Сергей Паршин, Евгения Игумнова, Дмитрий Барков, Андрей Кузнецов, Михаил Девяткин, Роман Дюдин, Дарья Михайличенко, Анатолий Равикович, Михаил Вассербаум, Леонид Ворон, Александра Снегова, Юлия Михайлова, Михаил Морозов, Виктор Сухоруков, Антонина Шуранова, Виктория Жирова, Лев Щеглов, Полина Каманина, Виктор Бычков, Борис Чердынцев, Николай Дик, Анна Молчанова, Станислав Соколов, Александра Фатхи (Костинская), Олег Пальмов, Галина Сабурова, Кира Крейлис-Петрова, Ольга Самошина, Татьяна Ковалевская (II), Владимир Пручкин, Илья Линович, Светлана Немировская, Евгений Чистов, Владимир Ермилов, Алексей Виноградов, Иванна Петрова, Валентин Жилин, Юлия Гуркина, Валерий Ибрагимов, Анатолий Горин, Дмитрий Витов, Владимир Жепко, Андрей Кормушин

Описание фильма: Каждый новый день — новое преступление. За каждым углом поджидает опасность. Главный козырь бандитов в бескомпромиссной криминальной бойне — страх обывателей. Единственные, кто может бросить вызов преступникам — лишенные страха менты. Безупречная четверка вновь оказывается на грани. Каждый новый день — новый бой против бандитов.
Продолжительность: 345 x ~00:45:00
Качество видео: DVDRip, SATRip

Видеокодек: DivX, XviD
Битрейт видео: ~1 300 Kbps
Размер кадра: 704х464, 720х432, 640х480, 704х416, 720х400, 640х432, 688х400, 704х384, 640х416, 640х400, 640х384, 640х368, 624х368, 624х368, 640х340, 608х352
Аудиокодек: MP3
Аудио: 128, 192, 256 Kbps
Субтитры: Отсутствуют
D:\Ìåíòû. Óëèöû ðàçáèòûõ ôîíàðåé\Ulicy.razbityh.fonarej.Menty.(5.sezon.26.seriy.iz.26).2003.XviD.DVDRip\Ulicy.razbityh.fonarej.Menty.(5.sezon.01.serija.iz.26).2003.XviD.DVDRip.avi
General
Complete name : D:\Ìåíòû. Óëèöû ðàçáèòûõ ôîíàðåé\Ulicy.razbityh.fonarej.Menty.(5.sezon.26.seriy.iz.26).2003.XviD.DVDRip\Ulicy.razbityh.fonarej.Menty.(5.sezon.01.serija.iz.26).2003.XviD.DVDRip.avi
Format : AVI
Format/Info : Audio Video Interleave
File size : 468 MiB
Duration : 47mn 59s
Overall bit rate : 1 365 Kbps
Writing application : FairUse Wizard - http://fairusewizard.com
Writing library : VirtualDub build 28312/release
Video #0
ID : 0
Format : MPEG-4 Visual
Format profile : Advanced Simple@L5
Format settings, BVOP : 1
Format settings, QPel : No
Format settings, GMC : No warppoints
Format settings, Matrix : Default (MPEG)
Muxing mode : Packed bitstream
Codec ID : XVID
Codec ID/Hint : XviD
Duration : 47mn 59s
Bit rate : 1 227 Kbps
Width : 624 pixels
Height : 368 pixels
Display aspect ratio : 1.696
Frame rate : 25.000 fps
Color space : YUV
Chroma subsampling : 4:2:0
Bit depth : 8 bits
Scan type : Progressive
Compression mode : Lossy
Bits/(Pixel*Frame) : 0.214
Stream size : 421 MiB (90%)
Writing library : XviD 1.2.0.dev47 (UTC 2006-11-01)
Audio #1
ID : 1
Format : MPEG Audio
Format version : Version 1
Format profile : Layer 3
Mode : Joint stereo
Mode extension : MS Stereo
Codec ID : 55
Codec ID/Hint : MP3
Duration : 47mn 59s
Bit rate mode : Constant
Bit rate : 128 Kbps
Channel(s) : 2 channels
Sampling rate : 48.0 KHz
Compression mode : Lossy
Stream size : 43.9 MiB (9%)
Alignment : Aligned on interleaves
Interleave, duration : 40 ms (1.00 video frame)
Interleave, preload duration : 504 ms
Writing library : LAME3.97
Скриншоты:
Улицы разбитых фонарей
Время раздачи: С 16:00 до 21:00 По Москве
[NNM-Club.ru]_Mentyi. Ulitsyi razbityih fonarey.torrent
 Торрент: Платиновая раздача  Зарегистрирован
 
Скачать


 Зарегистрирован:   03 Июл 2013 10:16:42
 Размер:   155 GB  (
 Рейтинг:   4.8 (Голосов: 157)
 Поблагодарили:   496
 Проверка:   Оформление проверено модератором 03 Июл 2013 15:12:27
Как cкачать  ·  Как раздать  ·  Правильно оформить  ·  Поднять ратио!  
mimozka
Стаж: 11 лет 2 мес.
Сообщений: 29
Ratio: 12.256
100%
Первые серии, как обычно, самые лучшие...Один Казанова чего стоит. Пересмотрю с удовольствием.
dopex1983
Стаж: 10 лет 6 мес.
Сообщений: 37
Ratio: 1.573
Поблагодарили: 91
100%
ussr.gif
:приветствую: О-о спасибо.Скачаю, но только с 1 по 5 сезон. После уже такая туфта пошла( к сожалению)
Качающий001 ®
Стаж: 8 лет 7 мес.
Сообщений: 108
Ratio: 270.4
Раздал: 4.42 TB
Поблагодарили: 2926
100%
13-ый сезон:
Менты. Улицы разбитых фонарей (13 сезон, серии 1-16 из 16) (2013) WEB-DL 720p
igormogilev
Стаж: 10 лет 10 мес.
Сообщений: 84
Ratio: 6.42
100%
Откуда: Могилев
belarus.gif
спасибо.
Bers34
Стаж: 7 лет 2 мес.
Сообщений: 1
Ratio: 71.425
100%
народ помогите скачать плиз. Кто может встаньте на раздачу.
Lelik_mc_kawai
Стаж: 11 лет 1 мес.
Сообщений: 135
Ratio: 25.274
8.72%
russia.gif
Дайте скорости блин по 800 кб в секунду не дело парни
telegaol
Стаж: 10 лет 2 мес.
Сообщений: 69
Ratio: 3.227
100%
russia.gif
раздающие! помогите скоростью :злость: Цензура :злость:
Death2010
Стаж: 11 лет
Сообщений: 1
Ratio: 1.257
100%
russia.gif
да спасибки давно хотел качнуть, да уж с раздачей беда... доступность всего 5% :(
Fenomeno7
Стаж: 8 лет 5 мес.
Сообщений: 38
Ratio: 1.577
1.93%
Добрые люди, вернитесь на раздачу пожалуйста!
Алексей Борисович Струков
Стаж: 10 лет 3 мес.
Сообщений: 484
Ratio: 1.729
Поблагодарили: 1
24.29%
Откуда: Челябинск РСФСР,СССР,РФ
russia.gif
Помниться первые части шли с ужасным звуком!!!!!!
Adoath
Стаж: 4 года 7 мес.
Сообщений: 31
Раздал: 7.72 GB
100%
russia.gif
Действительно, как писали выше, смотреть с удовольствием можно до 5 сезона, а потом к сожалению, уже утратил сериал свой шарм.
Недавно пересмотрела первые сезоны, как на машине времени проехалась - атмосферно.

_________________
Новые фильмы 2021 уже в онлайн https://kinokong.org/filmy/2021/
[Death_Gamer]
Стаж: 12 лет 3 мес.
Сообщений: 613
Ratio: 12.688
100%
Спасибо за счастливое детство! От детей 90-х!
Показать сообщения:   
Начать новую тему   Ответить на тему    Торрент-трекер NNM-Club -> Отечественные сериалы -> Менты Часовой пояс: GMT + 3
Страница 1 из 1