Классический форум-трекер
canvas not supported
Нас вместе: 4 166 413

Артур Беркут - Каждому свое (2012) [ALAC|Tracks]<Heavy Metal>


 
 
RSS
Начать новую тему   Ответить на тему    Торрент-трекер NNM-Club -> Аудио и Видео -> Музыка Lossless (ALAC)
Автор Сообщение
Cecidit ®
Стаж: 7 лет 8 мес.
Сообщений: 129
Ratio: 39.772
Поблагодарили: 8806
100%
Откуда: Москва, МО Щелково
russia.gif
Артур Беркут - Каждому свое (2012)
Год: 2012
Жанр: Heavy Metal
Продолжительность: 00:16:26

Кодек: ALAC
Битрейт: Lossless
Тип раздачи: Tracks
Обложки: Вшиты
Кодирование: Easy CD-DA Extractor + iTunes

«Каждому своё» — второй мини-альбом группы Артур Беркут, который вышел 17 декабря 2012 года.

Состав:
Артур Беркут — вокал,
Олег Ховрин («Kobra») — ударные,
Андрей Смирнов – гитара, клавишные, бас-гитара, аранжировка

Треклист:
01. Каждому свое
02. Цыганка
03. Пират
04. Березы
Код:

Общее
Полное имя                               : /Users/Denis/Library/Containers/net.mediaarea.mediainfo.mac/Data/Music/iTunes/iTunes Media/Music/Артур Беркут/Каждому свое/01 Каждому свое.m4a
Формат                                   : MPEG-4
Профиль формата                          : Apple audio with iTunes info
Идентификатор кодека                     : M4A
Размер файла                             : 34,3 Мбайт
Продолжительность                        : 4 м. 8 с.
Режим общего битрейта                    : Переменный
Общий поток                              : 1155 Кбит/сек
Альбом                                   : Каждому свое
Альбом/Исполнитель                       : Артур Беркут
Трек                                     : Каждому свое
Трек/Положение                           : 1
Исполнитель                              : Артур Беркут
Жанр                                     : Heavy Metal
Дата записи                              : 2012
Дата кодирования                         : UTC 2014-05-20 22:32:18
Дата пометки                             : UTC 2014-05-21 06:50:24
Программа кодирования                    : Easy CD-DA Extractor (http://www.poikosoft.com)
Обложка                                  : Yes

Аудио
Идентификатор                            : 1
Формат                                   : ALAC
Идентификатор кодека                     : alac
Идентификатор кодека/Информация          : Apple Lossless Audio Codec
Продолжительность                        : 4 м. 8 с.
Duration_LastFrame                       : -12 мс.
Вид битрейта                             : Переменный
Битрейт                                  : 1139 Кбит/сек
Каналы                                   : 2 канала
Частота                                  : 44,1 КГц
Битовая глубина                          : 16 бит
Размер потока                            : 33,8 Мбайт (99%)
Язык                                     : English
Дата кодирования                         : UTC 2014-05-20 22:32:18
Дата пометки                             : UTC 2014-05-21 06:50:24

Общее
Полное имя                               : /Users/Denis/Library/Containers/net.mediaarea.mediainfo.mac/Data/Music/iTunes/iTunes Media/Music/Артур Беркут/Каждому свое/02 Цыганка.m4a
Формат                                   : MPEG-4
Профиль формата                          : Apple audio with iTunes info
Идентификатор кодека                     : M4A
Размер файла                             : 33,1 Мбайт
Продолжительность                        : 4 м. 18 с.
Режим общего битрейта                    : Переменный
Общий поток                              : 1077 Кбит/сек
Альбом                                   : Каждому свое
Альбом/Исполнитель                       : Артур Беркут
Трек                                     : Цыганка
Трек/Положение                           : 2
Исполнитель                              : Артур Беркут
Жанр                                     : Heavy Metal
Дата записи                              : 2012
Дата кодирования                         : UTC 2014-05-20 22:32:17
Дата пометки                             : UTC 2014-05-21 06:50:24
Программа кодирования                    : Easy CD-DA Extractor (http://www.poikosoft.com)
Обложка                                  : Yes

Аудио
Идентификатор                            : 1
Формат                                   : ALAC
Идентификатор кодека                     : alac
Идентификатор кодека/Информация          : Apple Lossless Audio Codec
Продолжительность                        : 4 м. 18 с.
Duration_LastFrame                       : -20 мс.
Вид битрейта                             : Переменный
Битрейт                                  : 1062 Кбит/сек
Каналы                                   : 2 канала
Частота                                  : 44,1 КГц
Битовая глубина                          : 16 бит
Размер потока                            : 32,7 Мбайт (99%)
Язык                                     : English
Дата кодирования                         : UTC 2014-05-20 22:32:17
Дата пометки                             : UTC 2014-05-21 06:50:24

Общее
Полное имя                               : /Users/Denis/Library/Containers/net.mediaarea.mediainfo.mac/Data/Music/iTunes/iTunes Media/Music/Артур Беркут/Каждому свое/03 Пират.m4a
Формат                                   : MPEG-4
Профиль формата                          : Apple audio with iTunes info
Идентификатор кодека                     : M4A
Размер файла                             : 30,5 Мбайт
Продолжительность                        : 3 м. 41 с.
Режим общего битрейта                    : Переменный
Общий поток                              : 1159 Кбит/сек
Альбом                                   : Каждому свое
Альбом/Исполнитель                       : Артур Беркут
Трек                                     : Пират
Трек/Положение                           : 3
Исполнитель                              : Артур Беркут
Жанр                                     : Heavy Metal
Дата записи                              : 2012
Дата кодирования                         : UTC 2014-05-20 22:33:15
Дата пометки                             : UTC 2014-05-21 06:50:24
Программа кодирования                    : Easy CD-DA Extractor (http://www.poikosoft.com)
Обложка                                  : Yes

Аудио
Идентификатор                            : 1
Формат                                   : ALAC
Идентификатор кодека                     : alac
Идентификатор кодека/Информация          : Apple Lossless Audio Codec
Продолжительность                        : 3 м. 41 с.
Вид битрейта                             : Переменный
Битрейт                                  : 1141 Кбит/сек
Каналы                                   : 2 канала
Частота                                  : 44,1 КГц
Битовая глубина                          : 16 бит
Размер потока                            : 30,1 Мбайт (98%)
Язык                                     : English
Дата кодирования                         : UTC 2014-05-20 22:33:15
Дата пометки                             : UTC 2014-05-21 06:50:24

Общее
Полное имя                               : /Users/Denis/Library/Containers/net.mediaarea.mediainfo.mac/Data/Music/iTunes/iTunes Media/Music/Артур Беркут/Каждому свое/04 Березы.m4a
Формат                                   : MPEG-4
Профиль формата                          : Apple audio with iTunes info
Идентификатор кодека                     : M4A
Размер файла                             : 31,9 Мбайт
Продолжительность                        : 4 м. 18 с.
Режим общего битрейта                    : Переменный
Общий поток                              : 1036 Кбит/сек
Альбом                                   : Каждому свое
Альбом/Исполнитель                       : Артур Беркут
Трек                                     : Березы
Трек/Положение                           : 4
Исполнитель                              : Артур Беркут
Жанр                                     : Heavy Metal
Дата записи                              : 2012
Дата кодирования                         : UTC 2014-05-20 22:33:20
Дата пометки                             : UTC 2014-05-21 06:50:24
Программа кодирования                    : Easy CD-DA Extractor (http://www.poikosoft.com)
Обложка                                  : Yes

Аудио
Идентификатор                            : 1
Формат                                   : ALAC
Идентификатор кодека                     : alac
Идентификатор кодека/Информация          : Apple Lossless Audio Codec
Продолжительность                        : 4 м. 18 с.
Duration_LastFrame                       : -85 мс.
Вид битрейта                             : Переменный
Битрейт                                  : 1021 Кбит/сек
Каналы                                   : 2 канала
Частота                                  : 44,1 КГц
Битовая глубина                          : 16 бит
Размер потока                            : 31,4 Мбайт (99%)
Язык                                     : English
Дата кодирования                         : UTC 2014-05-20 22:33:20
Дата пометки                             : UTC 2014-05-21 06:50:24
Код:

-----------------------

DON'T MODIFY THIS FILE

-----------------------

PERFORMER: auCDtect Task Manager, ver. 1.6.0 RC1 build 1.6.0.1
Copyright (c) 2008-2010 y-soft. All rights reserved
http://y-soft.org

ANALYZER: auCDtect: CD records authenticity detector, version 0.8.2
Copyright (c) 2004 Oleg Berngardt. All rights reserved.
Copyright (c) 2004 Alexander Djourik. All rights reserved.

FILE: 04 Березы.m4a
  Size: 33445558 Hash: 14B770A2AA04D4C825B374AC7AA46F0D Accuracy: -m0
  Conclusion: CDDA 100%
  Signature: 25828B23768FCCD0EF6F4CF7E9C673AFF125AF52
FILE: 03 Пират.m4a
  Size: 32028750 Hash: 3468E3D97E8F3AA39E0CD3BB762E7C89 Accuracy: -m0
  Conclusion: CDDA 100%
  Signature: 3962E88FAA056727283205814C9552376629EA7F
FILE: 02 Цыганка.m4a
  Size: 34748026 Hash: 2514F4CBC8C27E755C9F4260206F7549 Accuracy: -m0
  Conclusion: CDDA 100%
  Signature: D065BE2D56B369EC9513A917A673FB19D5973E2F
FILE: 01 Каждому свое.m4a
  Size: 35916199 Hash: 028C0441DE15FFC486CB2A5D8EABA290 Accuracy: -m0
  Conclusion: CDDA 100%
  Signature: F0CC9A1D306AE59D736B2A541B2934F545E4A40E
Время раздачи: с 20:00 до 03:00 постоянно / часто 24/7 - До первых 5 скачавших
[NNM-Club.me]_Artur Berkut (2012) Kazhdomu svoe.torrent
 Торрент: Платиновая раздача  Зарегистрирован
 
Скачать


Примагнититься
 Зарегистрирован:   26 Май 2014 17:28:13
 Размер:   130 MB  (
 Рейтинг:   4 (Голосов: 16)
 Поблагодарили:   45
 Проверка:   Оформление проверено модератором 26 Май 2014 18:14:23
Как cкачать  ·  Как раздать  ·  Правильно оформить  ·  Поднять ратио!  
AudioManiak
Стаж: 11 лет 6 мес.
Сообщений: 478
Ratio: 10.152
Поблагодарили: 1231
37.07%
Откуда: Россия
russia.gif
Отличный альбом. Отличные стихи. Так держать.
Borevlad
Стаж: 11 лет 1 мес.
Сообщений: 61
Ratio: 13.874
4.83%
Откуда: Красноярск
russia.gif
Берёзы просто обалденная песня!

_________________
Операционная система: Windows 10 (64).
Процессор: Intel i7 3770. Память: 32 Гб.
Видео-карта: ASUS GeForce GTX 1050 Ti STRIX
Показать сообщения:   
Начать новую тему   Ответить на тему    Торрент-трекер NNM-Club -> Аудио и Видео -> Музыка Lossless (ALAC) Часовой пояс: GMT + 3
Страница 1 из 1