Классический форум-трекер
canvas not supported
Нас вместе: 4 073 070
Loading...

Иисус / Jesus (1979) BDRip [H.264/1080p] [35th Anniversary Edition] [Remastered]


 
 
RSS
Начать новую тему   Ответить на тему    Торрент-трекер NNM-Club -> Классика кино и Старые фильмы до 90-х -> Зарубежная Классика (HD, UHD, UHD-LQ, 3D)
Автор Сообщение
ivandubskoj ®

Online
Стаж: 5 лет 4 мес.
Сообщений: 689
Ratio: 924,347
Поблагодарили: 63198
100%
russia.gif
Иисус / Jesus (1979) BDRip [H.264/1080p] [35th Anniversary Edition] [Remastered]
«The man you thought you knew»
Производство: США, Inspirational Films, The Genesis Project
Жанр: Драма, исторический, биография, семейный, экранизация

Режиссер: Джон Хейман, Джон Криш, Питер Сайкс
Актеры: Брайан Дикон, Ривка Нойман, Александр Скурби, Нико Нитай, Йосси Шиллоах, Ори Леви, Моско Алкалай, Коби Ассаф, Моти Бахарав, Яаков Бен-Сира

Описание: Фильм «Иисус» - экранизация Евангелия от Луки. Как бы много различных фильмов вы ни видели, фильм "Иисус" отличается от любого из них. Этот фильм - честное повествование о жизни Христа, в буквальном смысле слова, изменяющее жизнь. Фильм "Иисус" был переведён на большее количество языков, чем какой-либо ещё. Ни один другой фильм за всю историю кинематографа не собирал такой громадной аудитории. В качестве основы для диалогов и событий фильма было использовано Евангелие от Луки. К 35-ти летнему юбилею фильма, - была выпущена полностью отреставрированная версия.


Возраст: 0+ (Для любой зрительской аудитории)
Рейтинг MPAA: G (Нет возрастных ограничений)

Релиз от: ivandubskoj
Продолжительность: 02:07:45
Качество видео: BDRip (1080p) [Исходник: Blu-ray 1080p AVC DTS 5.1 | 35th Anniversary Edition]
Перевод: Дублированный (Российское Библейское общество), дублированный (Советский дубляж), дублированный (Христианская миссия "Новая жизнь"), дублированный (Мусульманский вариант - Русский восточный дубляж для мусульман)
Язык субтитров: Русский, английский
Вид субтитров: Вшитые, отключаемые (полные, SDH, SRT)
Навигация по главам: Есть (Сохранены оригинальные чаптеры как на Blu-Ray, с названием всех глав.)

Видео: MPEG-4 AVC, 1920x1080 (16:9), 14.8 Мбит/с, 23.976 кадр/с, 0.298 bit/pixel
Аудио #1: Русский, Dolby AC3, 48000 Гц, 192 Кбит/с, 2 канала (Стерео) - Дубляж Российского Библейского общества
Аудио #2: Русский, Dolby AC3, 48000 Гц, 192 Кбит/с, 2 канала (Стерео) - Советский дубляж
Аудио #3: Русский, Dolby AC3, 48000 Гц, 192 Кбит/с, 2 канала (Стерео) - Дубляж Христианской миссии "Новая жизнь"
Аудио #4: Русский, Dolby AC3, 48000 Гц, 192 Кбит/с, 2 канала (Стерео) - Русский восточный дубляж для мусульман [Мусульманский вариант]
Аудио #5: Английский, DTS, 48000 Гц, 1510 Кбит/с, 6 каналов (5.1) - Оригинал
Код: выделить все
General
Unique ID : 191812113081363751536104377067659253474 (0x904DAB52860514A8BE20BF495C46D6E2)
Complete name : Jesus.1979.BDRip.1080p.mkv
Format : Matroska
Format version : Version 4 / Version 2
File size : 15.2 GiB
Duration : 2h 7mn
Overall bit rate : 17.1 Mbps
Movie name : Иисус / Jesus (1979) BDRip (1080p) от ivandubskoj
Encoded date : UTC 2016-05-05 20:02:03
Writing application : mkvmerge v7.9.0 ('Birds') 64bit
Writing library : libebml v1.3.1 + libmatroska v1.4.2
Video
ID : 1
Format : AVC
Format/Info : Advanced Video Codec
Format profile : High@L4.1
Format settings, CABAC : Yes
Format settings, ReFrames : 4 frames
Codec ID : V_MPEG4/ISO/AVC
Duration : 2h 7mn
Bit rate : 14.8 Mbps
Width : 1 920 pixels
Height : 1 080 pixels
Display aspect ratio : 16:9
Frame rate mode : Constant
Frame rate : 23.976 fps
Color space : YUV
Chroma subsampling : 4:2:0
Bit depth : 8 bits
Scan type : Progressive
Bits/(Pixel*Frame) : 0.298
Stream size : 12.9 GiB (85%)
Title : Jesus (1979)
Writing library : x264 core 148 r2597 e86f3a1
Encoding settings : cabac=1 / ref=4 / deblock=1:-3:-3 / analyse=0x3:0x113 / me=umh / subme=11 / psy=1 / psy_rd=1.00:0.00 / mixed_ref=1 / me_range=32 / chroma_me=1 / trellis=2 / 8x8dct=1 / cqm=0 / deadzone=21,11 / fast_pskip=0 / chroma_qp_offset=-2 / threads=6 / lookahead_threads=1 / sliced_threads=0 / nr=0 / decimate=0 / interlaced=0 / bluray_compat=0 / constrained_intra=0 / bframes=8 / b_pyramid=2 / b_adapt=2 / b_bias=0 / direct=3 / weightb=1 / open_gop=0 / weightp=2 / keyint=240 / keyint_min=23 / scenecut=40 / intra_refresh=0 / rc_lookahead=40 / rc=2pass / mbtree=0 / bitrate=14793 / ratetol=1.0 / qcomp=0.60 / qpmin=0 / qpmax=69 / qpstep=4 / cplxblur=20.0 / qblur=0.5 / vbv_maxrate=50000 / vbv_bufsize=62500 / nal_hrd=none / filler=0 / ip_ratio=1.40 / pb_ratio=1.30 / aq=1:1.00
Language : English
Default : Yes
Forced : No
Audio #1
ID : 2
Format : AC-3
Format/Info : Audio Coding 3
Mode extension : CM (complete main)
Format settings, Endianness : Big
Codec ID : A_AC3
Duration : 2h 7mn
Bit rate mode : Constant
Bit rate : 192 Kbps
Channel(s) : 2 channels
Channel positions : Front: L R
Sampling rate : 48.0 KHz
Bit depth : 16 bits
Compression mode : Lossy
Stream size : 175 MiB (1%)
Title : DUB [PБO]
Language : Russian
Default : Yes
Forced : No
Audio #2
ID : 3
Format : AC-3
Format/Info : Audio Coding 3
Mode extension : CM (complete main)
Format settings, Endianness : Big
Codec ID : A_AC3
Duration : 2h 7mn
Bit rate mode : Constant
Bit rate : 192 Kbps
Channel(s) : 2 channels
Channel positions : Front: L R
Sampling rate : 48.0 KHz
Bit depth : 16 bits
Compression mode : Lossy
Stream size : 175 MiB (1%)
Title : DUB [CCCP]
Language : Russian
Default : No
Forced : No
Audio #3
ID : 4
Format : AC-3
Format/Info : Audio Coding 3
Mode extension : CM (complete main)
Format settings, Endianness : Big
Codec ID : A_AC3
Duration : 2h 7mn
Bit rate mode : Constant
Bit rate : 192 Kbps
Channel(s) : 2 channels
Channel positions : Front: L R
Sampling rate : 48.0 KHz
Bit depth : 16 bits
Compression mode : Lossy
Stream size : 175 MiB (1%)
Title : DUB [XM "Новая жизнь"]
Language : Russian
Default : No
Forced : No
Audio #4
ID : 5
Format : AC-3
Format/Info : Audio Coding 3
Mode extension : CM (complete main)
Format settings, Endianness : Big
Codec ID : A_AC3
Duration : 2h 7mn
Bit rate mode : Constant
Bit rate : 192 Kbps
Channel(s) : 2 channels
Channel positions : Front: L R
Sampling rate : 48.0 KHz
Bit depth : 16 bits
Compression mode : Lossy
Stream size : 175 MiB (1%)
Title : DUB [Мусульманский вариант]
Language : Russian
Default : No
Forced : No
Audio #5
ID : 6
Format : DTS
Format/Info : Digital Theater Systems
Mode : 16
Format settings, Endianness : Big
Codec ID : A_DTS
Duration : 2h 7mn
Bit rate mode : Constant
Bit rate : 1 510 Kbps
Channel(s) : 6 channels
Channel positions : Front: L C R, Side: L R, LFE
Sampling rate : 48.0 KHz
Bit depth : 24 bits
Compression mode : Lossy
Stream size : 1.35 GiB (9%)
Title : Original
Language : English
Default : No
Forced : No
Text #1
ID : 7
Format : UTF-8
Codec ID : S_TEXT/UTF8
Codec ID/Info : UTF-8 Plain Text
Title : Full
Language : Russian
Default : No
Forced : No
Text #2
ID : 8
Format : UTF-8
Codec ID : S_TEXT/UTF8
Codec ID/Info : UTF-8 Plain Text
Title : Full [SDH]
Language : English
Default : No
Forced : No
Menu
00:00:00.000 : en:00:00:00.000
00:07:59.896 : en:00:07:59.896
00:14:13.895 : en:00:14:13.895
00:27:03.539 : en:00:27:03.539
00:40:27.425 : en:00:40:27.425
00:55:38.961 : en:00:55:38.961
01:15:09.964 : en:01:15:09.964
01:23:27.211 : en:01:23:27.211
01:32:51.983 : en:01:32:51.983
01:43:11.018 : en:01:43:11.018
01:56:35.322 : en:01:56:35.322
01:59:17.567 : en:01:59:17.567

Скриншоты:

Время раздачи: 24/7 (круглосуточно), - до появления 3-х постоянных сидов.

Все раздачи фильма «Иисус» на NNM-Club
[NNMClub.to]_Jesus.1979.BDRip.1080p.mkv.torrent
 Торрент: Платиновая раздача  Зарегистрирован
 
Скачать


Примагнититься
 Зарегистрирован:   06 Май 2016 10:36:36
 Размер:   15,2 GB  (
 Рейтинг:   4,7 (Голосов: 30)
 Поблагодарили:   107
 Проверка:   Оформление проверено модератором 08 Май 2016 13:15:37
Как cкачать  ·  Как раздать  ·  Правильно оформить  ·  Поднять ратио!  

_________________
urdukhanoff
Стаж: 8 лет 3 мес.
Сообщений: 41
Ratio: 7,392
0.66%
а где лезгинский дубляж?
Vanusha
Стаж: 12 лет
Сообщений: 106
Ratio: 31,654
Поблагодарили: 2532
100%
honduras.gif
Большое спасибо! Это один из самых лучших фильмов который когда то шёл по всем экранам СССР. Близко к синодальному тексту, хорошо и аккуратно снято, прекрасный фильм для тех кто хочет узнать о Иисусе впервые и познакомиться с Евангелием!. То что вышел ремастеринг это просто замечательно! Правда надо будет послушать ещё с восточной звуковой дорожкой - знаю что многие имена будут звучать непривычно, но не является тайной, что для евреев Иисус тоже не Иисус а примерно Иешуа, а Мария - не Мария а Марьям. Что поделаешь - каждое племя переиначивает имена.
Tarantas91
 
Стаж: 1 мес. 11 дней
Сообщений: 10
Ratio: 1200,204
Раздал: 15,88 TB
Поблагодарили: 953
100%
nnm-club.gif
Спасибо!
Показать сообщения:   
Начать новую тему   Ответить на тему    Торрент-трекер NNM-Club -> Классика кино и Старые фильмы до 90-х -> Зарубежная Классика (HD, UHD, UHD-LQ, 3D) Часовой пояс: GMT + 3
Страница 1 из 1