Интеллигентный торрент-трекер
canvas not supported
Нас вместе: 4 103 326

Все деньги мира / All the Money in the World (2017) BDRemux [H.264/1080p]


 
 
RSS
Начать новую тему   Ответить на тему    Торрент-трекер NNM-Club -> Горячие новинки -> Новинки (HD, UHD)
Автор Сообщение
walledol ®
Стаж: 8 лет 8 мес.
Сообщений: 582
Ratio: 254,548
Поблагодарили: 117939
100%
Откуда: Заполярье
ussr.gif
Все деньги мира / All the Money in the World (2017) BDRemux [H.264/1080p]
«Заплатят все, кроме него»
Производство: США / Imperative Entertainment, Scott Free Productions
Жанр: триллер, драма, криминал, детектив, биография

Режиссер: Ридли Скотт
Актеры: Мишель Уильямс, Кристофер Пламмер, Марк Уолберг, Ромен Дюрис, Тимоти Хаттон, Чарли Пламмер, Чарли Шотуэлл, Эндрю Бакан, Марко Леонарди, Джузеппе Бонифати, Николас Вапоридис, Андреа Пьедимонте

Описание:
Во всем мире не было человека богаче, чем Пол Гетти. Принадлежать к его роду - все равно что быть богом. Однако, когда в Риме неизвестные похищают его внука, нефтяной магнат, ко всеобщему шоку, наотрез отказывается платить выкуп. И тогда единственной надеждой для матери мальчика становится таинственный сотрудник службы безопасности самого Гетти...


Возраст: 18+ (зрителям, достигшим 18 лет. запрещено для детей)
Рейтинг MPAA: R (лицам до 17 лет обязательно присутствие взрослого)
Дата мировой премьеры: 18 декабря 2017
Дата российской премьеры: 22 февраля 2018, «Вольга»

Продолжительность: 02:12:41
Качество видео: BDRemux
Перевод: Дублированный (iTunes)
Субтитры: Русские, английские

Видео: AVC/H.264, 1920x1080, 27.9 Мbps, 23.976 fps
Аудио 1: AC3, 6 ch, 384 Kbps - Русский
Аудио 2: AC3, 2 ch, 192 Kbps - Украинский
Аудио 3: DTS-HD MA, 6 ch, 2341 Kbps - Английский
Код: выделить все
Общее
Уникальный идентификатор                 : 196620959086192095912504561219163507906 (0x93EBD1BC52902BA4A2BD37DFCD4DCCC2)
Полное имя                               : All Money.2017.Remux.mkv
Формат                                   : Matroska
Версия формата                           : Version 4 / Version 2
Размер файла                             : 28,6 Гбайт
Продолжительность                        : 2 ч. 12 м.
Режим общего битрейта                    : Переменный
Общий поток                              : 30,8 Мбит/сек
Дата кодирования                         : UTC 2018-03-29 21:50:27
Программа кодирования                    : mkvmerge v17.0.0 ('Be Ur Friend') 64-bit
Библиотека кодирования                   : libebml v1.3.5 + libmatroska v1.4.8

Видео
Идентификатор                            : 1
Формат                                   : AVC
Формат/Информация                        : Advanced Video Codec
Профиль формата                          : High@L4.1
Настройки формата                        : CABAC / 2 Ref Frames
Параметр CABAC формата                   : Да
Параметр RefFrames формата               : 2 кадра
Параметр GOP формата                     : M=1, N=10
Идентификатор кодека                     : V_MPEG4/ISO/AVC
Продолжительность                        : 2 ч. 12 м.
Вид битрейта                             : Переменный
Битрейт                                  : 27,9 Мбит/сек
Ширина                                   : 1920 пикселей
Высота                                   : 1080 пикселей
Соотношение сторон                       : 16:9
Режим частоты кадров                     : Постоянный
Частота кадров                           : 23,976 (24000/1001) кадра/сек
Цветовое пространство                    : YUV
Субдискретизация насыщенности            : 4:2:0
Битовая глубина                          : 8 бит
Тип развёртки                            : Прогрессивная
Бит/(Пиксели*Кадры)                      : 0.562
Размер потока                            : 25,9 Гбайт (91%)
Язык                                     : English
Default                                  : Да
Forced                                   : Нет

Аудио #1
Идентификатор                            : 2
Формат                                   : AC-3
Формат/Информация                        : Audio Coding 3
Идентификатор кодека                     : A_AC3
Продолжительность                        : 2 ч. 12 м.
Вид битрейта                             : Постоянный
Битрейт                                  : 384 Кбит/сек
Каналы                                   : 6 каналов
Расположение каналов                     : Front: L C R, Side: L R, LFE
Частота                                  : 48,0 КГц
Частота кадров                           : 31,250 кадров/сек (1536 SPF)
Битовая глубина                          : 16 бит
Метод сжатия                             : С потерями
Размер потока                            : 365 Мбайт (1%)
Заголовок                                : DUB (iTunes)
Язык                                     : Russian
ServiceKind/String                       : Complete Main
Default                                  : Да
Forced                                   : Нет

Аудио #2
Идентификатор                            : 3
Формат                                   : AC-3
Формат/Информация                        : Audio Coding 3
Идентификатор кодека                     : A_AC3
Продолжительность                        : 2 ч. 12 м.
Вид битрейта                             : Постоянный
Битрейт                                  : 192 Кбит/сек
Каналы                                   : 2 канала
Расположение каналов                     : Front: L R
Частота                                  : 48,0 КГц
Частота кадров                           : 31,250 кадров/сек (1536 SPF)
Битовая глубина                          : 16 бит
Метод сжатия                             : С потерями
Размер потока                            : 182 Мбайт (1%)
Заголовок                                : DUB (iTunes)
Язык                                     : Ukrainian
ServiceKind/String                       : Complete Main
Default                                  : Нет
Forced                                   : Нет

Аудио #3
Идентификатор                            : 4
Формат                                   : DTS
Формат/Информация                        : Digital Theater Systems
Профиль формата                          : MA / Core
Идентификатор кодека                     : A_DTS
Продолжительность                        : 2 ч. 12 м.
Вид битрейта                             : Переменный / Постоянный
Битрейт                                  : 2341 Кбит/сек / 1509 Кбит/сек
Каналы                                   : 6 каналов
Расположение каналов                     : Front: L C R, Side: L R, LFE
Частота                                  : 48,0 КГц
Частота кадров                           : 93,750 кадра/сек (512 SPF)
Битовая глубина                          : 16 бит
Метод сжатия                             : Без потерь / Lossy
Размер потока                            : 2,17 Гбайт (8%)
Язык                                     : English
Default                                  : Нет
Forced                                   : Нет

Текст #1
Идентификатор                            : 5
Формат                                   : UTF-8
Идентификатор кодека                     : S_TEXT/UTF8
Идентификатор кодека/Информация          : UTF-8 Plain Text
Продолжительность                        : 2 ч. 6 м.
Битрейт                                  : 92 бит/сек
ElementCount                             : 1453
Размер потока                            : 85,8 Кбайт (0%)
Заголовок                                : Full
Язык                                     : Russian
Default                                  : Нет
Forced                                   : Нет

Текст #2
Идентификатор                            : 6
Формат                                   : UTF-8
Идентификатор кодека                     : S_TEXT/UTF8
Идентификатор кодека/Информация          : UTF-8 Plain Text
Продолжительность                        : 2 ч. 4 м.
Битрейт                                  : 49 бит/сек
ElementCount                             : 1530
Размер потока                            : 44,6 Кбайт (0%)
Заголовок                                : Full
Язык                                     : English
Default                                  : Нет
Forced                                   : Нет

Текст #3
Идентификатор                            : 7
Формат                                   : UTF-8
Идентификатор кодека                     : S_TEXT/UTF8
Идентификатор кодека/Информация          : UTF-8 Plain Text
Продолжительность                        : 2 ч. 6 м.
Битрейт                                  : 54 бит/сек
ElementCount                             : 1734
Размер потока                            : 50,6 Кбайт (0%)
Заголовок                                : SDH
Язык                                     : English
Default                                  : Нет
Forced                                   : Нет

Меню
00:00:00.000                             : en:Chapter 1
00:10:55.113                             : en:Chapter 2
00:19:10.358                             : en:Chapter 3
00:30:35.500                             : en:Chapter 4
00:39:27.907                             : en:Chapter 5
00:48:36.664                             : en:Chapter 6
00:55:26.156                             : en:Chapter 7
01:05:59.164                             : en:Chapter 8
01:15:27.606                             : en:Chapter 9
01:24:42.369                             : en:Chapter 10
01:28:20.587                             : en:Chapter 11
01:34:55.064                             : en:Chapter 12
01:42:14.170                             : en:Chapter 13
01:48:11.485                             : en:Chapter 14
01:56:07.169                             : en:Chapter 15
02:03:08.381                             : en:Chapter 16
Скриншоты:



Все одноименные релизы в Клубе

Время раздачи: (до появления первых 3-5 скачавших)
[NNM-Club.me]_All Money.2017.Remux.mkv.torrent
 Торрент: Платиновая раздача  Зарегистрирован
 
Скачать


Примагнититься
 Зарегистрирован:   30 Мар 2018 02:04:47
 Размер:   28,6 GB  (
 Рейтинг:   4,8 (Голосов: 54)
 Поблагодарили:   320
 Проверка:   Оформление проверено модератором 30 Мар 2018 06:39:15
Как cкачать  ·  Как раздать  ·  Правильно оформить  ·  Поднять ратио!  
Lyle77
Uploader 100+
Стаж: 5 лет 1 мес.
Сообщений: 35
Ratio: 354,703
100%
ussr.gif
Не пожалел о затраченном времени. Не шедевр конечно, но и не лишен смысла.
Посмотреть стоит, но на один раз.
Лев Лещенко
Стаж: 9 лет 9 мес.
Сообщений: 246
Ratio: 5,346
Раздал: 1,049 TB
Поблагодарили: 549
33%
india.gif
Ожидал гораздо большего от Риддли Скотта....
Vian
Стаж: 6 лет 5 мес.
Сообщений: 200
Ratio: 63,623
100%
argentina.gif
Вот, о чем я и говорил. Ридли Скотт снимает по разному. Можно по лезвию, а можно и марсианина спасти.
Поделки, поделки, поделки. Последний его фильм тому доказательство. Как всегда Skott Free production денег не жалеет, но выходит пшик. Интересная история о похищении внука миллиардера превращается в головокружительный, но глупый аттракцион с огромным бюджетом. Смотреть интересно, даже сопереживать можно, но если включить мозг (не делайте этого), то можно испортить себе настроение. "Даю руку на отсечение", что Скотт снял этот фильм за месяц. Господи, Ридли, хотя бы найми нормального монтажера!!!! Ладно, вердикт: Посмотрел кино на одном дыхании, но почувствовал себя посетившим дорогой фастфуд. Оценка: 2/4.
Лев Лещенко
Стаж: 9 лет 9 мес.
Сообщений: 246
Ratio: 5,346
Раздал: 1,049 TB
Поблагодарили: 549
33%
india.gif
А все почему - потому что маленький мальчик сам гуляет по кварталу красных фонарей..... что он там забыл?
alex2​11284​777​
Стаж: 6 лет 3 мес.
Сообщений: 35
Ratio: 4,221
99.07%
спасибо за релиз, в 4К HDR будет?
Показать сообщения:   
Начать новую тему   Ответить на тему    Торрент-трекер NNM-Club -> Горячие новинки -> Новинки (HD, UHD) Часовой пояс: GMT + 3
Страница 1 из 1