Классический форум-трекер
canvas not supported
Нас вместе: 4 064 836

Сага о чудовище. Сумерки / Wildling (2018) [H.264/720p]


 
 
RSS
Начать новую тему   Ответить на тему    Торрент-трекер NNM-Club -> Горячие новинки -> Новинки (HD, UHD, UHD-LQ)
Автор Сообщение
Катюша ®
Мне бы в небо!
Стаж: 6 лет 8 мес.
Сообщений: 204
Ratio: 149,624
Поблагодарили: 17514
100%
witch.png
Сага о чудовище. Сумерки / Wildling (2018) [H.264/720p]
Производство: США / Maven Pictures, Film i Väst, Filmgate Films
Жанр: Ужасы, фэнтези, триллер, драма

Режиссер: Фридрих Боэм
Актеры: Лив Тайлер, Брэд Дуриф, Бел Паули, Джеймс ЛеГрос, Майк Фейст, Трой Раптэш, Бэвиш Патель, Фрэнк Дил, Брайан Донахью

Описание:
Выросшая в полной изоляции в лесной хижине 16-летняя Анна ничего не знает о внешнем мире, пока ее не находят местный шериф Эллен и ее 16-летний брат Рэй. Но, даже находясь под их защитой, Анна не перестает бояться будто бы охотящихся за ней страшных чудовищ, о которых ей рассказывал отец. Чем больше Анна открывает для себя новый мир, тем больше она проникает в тайну чудовищ и понимает, что ее жизнь неразрывно связана с этой легендой.


Возраст: 18+ (зрителям, достигшим 18 лет. запрещено для детей)
Рейтинг MPAA: R (лицам до 17 лет обязательно присутствие взрослого)
Дата мировой премьеры: 10 марта 2018
Дата российской премьеры: 21 июня 2018

Продолжительность: 01:32:31
Качество видео: BDRip 720p
Перевод: Дублированный (iTunes)
Субтитры: English

Видео: AVC/H.264, 1280х720, 5885 kbps
Аудио #1: AC3, 6 ch, 384 kbps | Русский
Аудио #2: AC3, 6 ch, 448 kbps | Английский
Общее
Уникальный идентификатор : 240125995910070090725355118594541147673 (0xB4A695A802ED988692B54EA7B936D619)
Полное имя : Saga.o.Chudovische.Sumerki.2018.DUAL.BDRip.720p.mkv
Формат : Matroska
Версия формата : Version 4 / Version 2
Размер файла : 4,33 Гбайт
Продолжительность : 1 ч. 32 м.
Общий поток : 6711 Кбит/сек
Название фильма : Wildling (2018)
Дата кодирования : UTC 2018-08-04 01:28:00
Программа кодирования : mkvmerge v5.9.0 ('On The Loose') built on Dec 15 2012 16:39:58
Библиотека кодирования : libebml v1.3.0 + libmatroska v1.4.0

Видео
Идентификатор : 1
Формат : AVC
Формат/Информация : Advanced Video Codec
Профиль формата : High@L4.1
Параметр CABAC формата : Да
Параметр ReFrames формата : 9 кадров
Идентификатор кодека : V_MPEG4/ISO/AVC
Продолжительность : 1 ч. 32 м.
Битрейт : 5885 Кбит/сек
Ширина : 1280 пикселей
Высота : 720 пикселей
Соотношение сторон : 16:9
Режим частоты кадров : Постоянный
Частота кадров : 23,976 (24000/1001) кадра/сек
Цветовое пространство : YUV
Субдискретизация насыщенности : 4:2:0
Битовая глубина : 8 бит
Тип развёртки : Прогрессивная
Бит/(Пиксели*Кадры) : 0.266
Размер потока : 3,71 Гбайт (86%)
Заголовок : potroks
Библиотека кодирования : x264 core 155 r2901M 7d0ff22
Настройки программы : cabac=1 / ref=9 / deblock=1:-3:-3 / analyse=0x3:0x133 / me=umh / subme=11 / psy=1 / psy_rd=1.05:0.05 / mixed_ref=1 / me_range=48 / chroma_me=1 / trellis=2 / 8x8dct=1 / cqm=0 / deadzone=21,11 / fast_pskip=0 / chroma_qp_offset=-3 / threads=9 / lookahead_threads=2 / sliced_threads=0 / nr=0 / decimate=0 / interlaced=0 / bluray_compat=0 / constrained_intra=0 / bframes=12 / b_pyramid=2 / b_adapt=2 / b_bias=0 / direct=3 / weightb=1 / open_gop=0 / weightp=2 / keyint=240 / keyint_min=24 / scenecut=40 / intra_refresh=0 / rc_lookahead=100 / rc=2pass / mbtree=0 / bitrate=5885 / ratetol=1.0 / qcomp=0.70 / qpmin=0 / qpmax=69 / qpstep=4 / cplxblur=20.0 / qblur=0.5 / vbv_maxrate=50000 / vbv_bufsize=50000 / nal_hrd=none / filler=0 / ip_ratio=1.40 / pb_ratio=1.30 / aq=2:0.70
Язык : English
Default : Да
Forced : Нет

Аудио #1
Идентификатор : 2
Формат : AC-3
Формат/Информация : Audio Coding 3
Параметр Endianness формата : Big
Идентификатор кодека : A_AC3
Продолжительность : 1 ч. 32 м.
Вид битрейта : Постоянный
Битрейт : 384 Кбит/сек
Каналы : 6 каналов
Расположение каналов : Front: L C R, Side: L R, LFE
Частота : 48,0 КГц
Частота кадров : 31,250 кадров/сек (1536 spf)
Битовая глубина : 16 бит
Метод сжатия : С потерями
Размер потока : 254 Мбайт (6%)
Заголовок : Dub | DD 5.1 @ 384 kbps - iTunes
Язык : Russian
ServiceKind/String : Complete Main
Default : Да
Forced : Нет

Аудио #2
Идентификатор : 3
Формат : AC-3
Формат/Информация : Audio Coding 3
Параметр Endianness формата : Big
Идентификатор кодека : A_AC3
Продолжительность : 1 ч. 32 м.
Вид битрейта : Постоянный
Битрейт : 448 Кбит/сек
Каналы : 6 каналов
Расположение каналов : Front: L C R, Side: L R, LFE
Частота : 48,0 КГц
Частота кадров : 31,250 кадров/сек (1536 spf)
Битовая глубина : 16 бит
Метод сжатия : С потерями
Размер потока : 296 Мбайт (7%)
Заголовок : Original | DD 5.1 @ 448 kbps
Язык : English
ServiceKind/String : Complete Main
Default : Нет
Forced : Нет

Текст #1
Идентификатор : 4
Формат : UTF-8
Идентификатор кодека : S_TEXT/UTF8
Идентификатор кодека/Информация : UTF-8 Plain Text
Заголовок : Full
Язык : English
Default : Нет
Forced : Нет

Текст #2
Идентификатор : 5
Формат : UTF-8
Идентификатор кодека : S_TEXT/UTF8
Идентификатор кодека/Информация : UTF-8 Plain Text
Заголовок : SDH
Язык : English
Default : Нет
Forced : Нет

Меню
00:00:00.000 : :Chapter 01
00:13:22.801 : :Chapter 02
00:20:37.736 : :Chapter 03
00:31:45.904 : :Chapter 04
00:44:54.692 : :Chapter 05
01:00:28.625 : :Chapter 06
01:11:42.298 : :Chapter 07
01:23:40.515 : :Chapter 08
Скриншоты:


Все одноименные релизы в КлубеВремя раздачи: 24/7 (до появления первых 3-5 скачавших)
[NNM-Club.me]_Saga.o.Chudovische.Sumerki.2018.DUAL.BDRip.720p.mkv.torrent
 Торрент: Платиновая раздача  Зарегистрирован
 
Скачать


Примагнититься
 Зарегистрирован:   04 Авг 2018 11:26:33
 Размер:   4,33 GB  (
 Рейтинг:   4,4 (Голосов: 33)
 Поблагодарили:   178
 Проверка:   Оформление проверено модератором 04 Авг 2018 18:29:50
Как cкачать  ·  Как раздать  ·  Правильно оформить  ·  Поднять ратио!  

_________________
С годами старые фильмы становятся все лучше, а новые - все хуже.
drewstrifer
Стаж: 4 года 10 мес.
Сообщений: 495
Ratio: 43,266
100%
Нда, наши локализаторы опять отличились фантазией, за которую им просто руки надо отрывать) Это как с фильмом Хижина в лесу - Новая глава.
dizzzzzz
Стаж: 5 лет 6 мес.
Сообщений: 145
Ratio: 1,589
4.49%
первые минут 15 пока ее не вытащили из плена интересно , потом дикая бредовая муть, словно самая худшая серия Supernatural про оборотней. 3\10.
ps. рукалицо -ее отец выстрелив себе в голову из револьвера, через несколько минут (спустя"драматичной" сцены как он лежит в реанимации на искусст. дыхании и весь в бинтах) появляется в фильме как ни в чем не бывало.
Показать сообщения:   
Начать новую тему   Ответить на тему    Торрент-трекер NNM-Club -> Горячие новинки -> Новинки (HD, UHD, UHD-LQ) Часовой пояс: GMT + 3
Страница 1 из 1