Классический форум-трекер
canvas not supported
Нас вместе: 4 102 314

Itai no wa Iya nano de Bougyoryoku ni Kyokufuri Shitai to Omoimasu / Не люблю боль, поэтому собираюсь вложить всё в защиту [2020, TV, 12] WEBRip 720p raw


Страницы:   Пред.  1, 2, 3 
 
RSS
Начать новую тему   Ответить на тему    Торрент-трекер NNM-Club -> Аниме с субтитрами -> Онгоинги
Автор Сообщение
kvaking ®
RG Аниме
Uploader 100+
 
Стаж: 9 лет 7 мес.
Сообщений: 2648
Ratio: 233,91
Раздал: 371,5 TB
Поблагодарили: 17665
100%
Откуда: Осака
roody.gif
痛いのは嫌なので防御力に極振りしたいと思います。
Itai no wa Iya nano de Bougyoryoku ni Kyokufuri Shitai to Omoimasu
Bofuri: I Don't Want to Get Hurt, So I'll Max Out My Defense
Не люблю боль, поэтому собираюсь вложить всё в защиту

Жанр: приключения, комедия, фэнтези
Количество серий: 12
Продолжительность: 12 серий по 25 мин
Качество видео: WEBRip
Дата премьеры / период выхода: c 08.01.2020 по 25.03.2020

Производство/студия:

Автор оригинала: Юмикан
Режиссер: Онума Син

Битрейт видео: ~3 485 kb/s
Размер кадра: 1280х720
Аудио: AAC 192 Kbps
Язык озвучки: Японский
Язык субтитров: Английский [Funimation], Русский [AniLibria.tv].

Описание:

По приглашению подруги Каэде Хондзё погружается в VRMMO-игру New World Online, даже не представляя, как в неё играть. Все очки навыков девушка тратит на защиту своего персонажа Мейпл, из-за чего она становится медленной и не может использовать магию. Но теперь героиня не чувствует боли и получает нулевые повреждения. Необычное распределение очков позволило Хондзё приобрести навык «Абсолютная защита» и стать очень большой проблемой для врагов в игре.


Ссылки:

Скриншоты:
01. Защита и первый бой
02. Защита и друзья
03. Защита и достижение второго уровня
04. Защита и второй ивент
05. Защита и военный трофей
06. Защита и подкрепление
07. Защита и поднятие уровней
08. Защита и третий ивент
09. Защита и четвёртый ивент
10. Защита и атака
11. Защита и могучий враг
12. Защита и связь
Код: выделить все
General
Unique ID                      : 306488989277613483569205395472353458643 (0xE693A1D85956A7008C52ECCCEA3DF9D3)
Complete name                  : E:\Itai no wa Iya nano de Bougyoryoku ni Kyokufuri Shitai to Omoimasu\[Erai-raws] Itai no wa Iya nano de Bougyoryoku ni Kyokufuri Shitai to Omoimasu - 01 [720p].mkv
Format                         : Matroska
Format version                 : Version 4
File size                      : 594 MiB
Duration                       : 23 min 50 s
Overall bit rate               : 3 485 kb/s
Encoded date                   : UTC 2020-01-09 07:23:15
Writing application            : mkvmerge v40.0.0 ('Old Town Road + Pony') 64-bit
Writing library                : libebml v1.3.9 + libmatroska v1.5.2

Video
ID                             : 1
Format                         : AVC
Format/Info                    : Advanced Video Codec
Format profile                 : Main@L3.1
Format settings                : CABAC / 4 Ref Frames
Format settings, CABAC         : Yes
Format settings, Reference fra : 4 frames
Codec ID                       : V_MPEG4/ISO/AVC
Duration                       : 23 min 50 s
Bit rate                       : 3 229 kb/s
Nominal bit rate               : 3 500 kb/s
Width                          : 1 280 pixels
Height                         : 720 pixels
Display aspect ratio           : 16:9
Frame rate mode                : Constant
Frame rate                     : 23.976 (24000/1001) FPS
Color space                    : YUV
Chroma subsampling             : 4:2:0
Bit depth                      : 8 bits
Scan type                      : Progressive
Bits/(Pixel*Frame)             : 0.146
Stream size                    : 550 MiB (93%)
Writing library                : x264 core 157 r2948 dada181
Encoding settings              : cabac=1 / ref=1 / deblock=1:0:0 / analyse=0x1:0x111 / me=hex / subme=7 / psy=1 / psy_rd=1.00:0.00 / mixed_ref=0 / me_range=16 / chroma_me=1 / trellis=1 / 8x8dct=0 / cqm=0 / deadzone=21,11 / fast_pskip=1 / chroma_qp_offset=-2 / threads=22 / lookahead_threads=3 / sliced_threads=0 / nr=0 / decimate=1 / interlaced=0 / bluray_compat=0 / constrained_intra=0 / bframes=2 / b_pyramid=2 / b_adapt=1 / b_bias=0 / direct=1 / weightb=1 / open_gop=0 / weightp=2 / keyint=48 / keyint_min=4 / scenecut=40 / intra_refresh=0 / rc_lookahead=40 / rc=cbr / mbtree=1 / bitrate=3500 / ratetol=1.0 / qcomp=0.60 / qpmin=0 / qpmax=69 / qpstep=4 / vbv_maxrate=3500 / vbv_bufsize=10500 / nal_hrd=none / filler=0 / ip_ratio=1.40 / aq=1:1.00
Default                        : Yes
Forced                         : No

Audio
ID                             : 2
Format                         : AAC LC
Format/Info                    : Advanced Audio Codec Low Complexity
Codec ID                       : A_AAC-2
Duration                       : 23 min 50 s
Bit rate                       : 253 kb/s
Channel(s)                     : 2 channels
Channel layout                 : L R
Sampling rate                  : 48.0 kHz
Frame rate                     : 46.875 FPS (1024 SPF)
Compression mode               : Lossy
Delay relative to video        : -43 ms
Stream size                    : 43.2 MiB (7%)
Language                       : Japanese
Default                        : Yes
Forced                         : No

Text
ID                             : 3
Format                         : ASS
Codec ID                       : S_TEXT/ASS
Codec ID/Info                  : Advanced Sub Station Alpha
Duration                       : 22 min 8 s
Bit rate                       : 120 b/s
Count of elements              : 328
Compression mode               : Lossless
Stream size                    : 19.6 KiB (0%)
Language                       : English
Default                        : Yes
Forced                         : No
Время раздачи: 24/7
[NNMClub.to]_Itai no wa Iya nano de Bougyoryoku ni Kyokufuri Shitai to Omoimasu.torrent
 Торрент:   Зарегистрирован
 
Зарегистрируйтесь и скачайте торрент!
38,2 KB
Free Leech
Примагнититься
 Зарегистрирован:   26 Мар 2020 21:50:02
 Размер:   6,96 GB  (
 Рейтинг:   4,6 (Голосов: 40)
 Поблагодарили:   131
 Проверка:   Оформление проверено модератором 26 Мар 2020 21:54:46
Не забывайте поблагодарить релизера, нажав на клавишу Спасибо!
Вам не сложно, а мне приятно. =)
Как cкачать  ·  Как раздать  ·  Правильно оформить  ·  Поднять ратио!  

_________________

[Double-Raws] - Да начнётся война за качество!
Тестер нового формата.
kvaking ®
RG Аниме
Uploader 100+
 
Стаж: 9 лет 7 мес.
Сообщений: 2648
Ratio: 233,91
Раздал: 371,5 TB
Поблагодарили: 17665
100%
Откуда: Осака
roody.gif
zz13
Maxu6a
Тут даже не к переводчикам претензии, а к самим создателям сериала. Они пытались впихнуть не впихуемое.

_________________

[Double-Raws] - Да начнётся война за качество!
Тестер нового формата.
Maxu6a

Online
Стаж: 6 мес. 18 дней
Сообщений: 182
Ratio: 3,729
Раздал: 804 GB
100%
Откуда: brest
belarus.gif
kvaking писал(а): Перейти к сообщению
zz13
Maxu6a
Тут даже не к переводчикам претензии, а к самим создателям сериала. Они пытались впихнуть не впихуемое.

Ну не совсем так. Там строчки чата за пол секунды не пропадают, а вот сабы пропадают. Так что именно текст на японском прочитать успеть реально, ну или в крайнем случае 1 раз по середине запаузить ибо текст виден на экране.
Maxu6a

Online
Стаж: 6 мес. 18 дней
Сообщений: 182
Ratio: 3,729
Раздал: 804 GB
100%
Откуда: brest
belarus.gif
Либо аниматорам стало лень рисовать, либо в этой игре в кланах упоранты похуже Мейпл. Все одинаковыми классами играют и в одинаковом эквипе. У Мейпл в клане хоть каждый персонаж в чем-то своем силен и по клану получается баланс.
И чат кстати стал читабельным по времени. Спасибо.
kvaking ®
RG Аниме
Uploader 100+
 
Стаж: 9 лет 7 мес.
Сообщений: 2648
Ratio: 233,91
Раздал: 371,5 TB
Поблагодарили: 17665
100%
Откуда: Осака
roody.gif
Maxu6a писал(а): Перейти к сообщению
И чат кстати стал читабельным по времени. Спасибо.

Не мне, а самой либрии. Сам был удивлён.

_________________

[Double-Raws] - Да начнётся война за качество!
Тестер нового формата.
zz13
Стаж: 8 лет 1 мес.
Сообщений: 495
Ratio: 7,848
15.49%
Maxu6a писал(а): Перейти к сообщению
Либо аниматорам стало лень рисовать, либо в этой игре в кланах упоранты похуже Мейпл. Все одинаковыми классами играют и в одинаковом эквипе.


не удивляйся ) в современных ммо тоже самое, все играют одинаковыми билдами с одинаковым шмотом (да и выбора практически нет). аниме просто копирует ситуацию из типичной мморпг )
Ryxit
Стаж: 4 мес. 26 дней
Сообщений: 54
Ratio: 3,694
80%
11 серия сабы будут? А то чат трудно читать, но серия просто пипецище! Это мега ржачь из всего что было до этого.
Ryxit
Стаж: 4 мес. 26 дней
Сообщений: 54
Ratio: 3,694
80%
Конец 11 серии:
Сжав кулачки и стараясь не плакать - "ниче, ниче! Броня крепка, а Тянки наши быстры!".
kёske
Стаж: 9 лет 9 мес.
Сообщений: 35
Ratio: 31,954
100%
Откуда: Moscow
russia.gif
Доброго дня! Ну, когда же?

_________________
*я - часть той силы, что вечно хочет зла, и вечно совершает благо...
Ryxit
Стаж: 4 мес. 26 дней
Сообщений: 54
Ratio: 3,694
80%
Будет 2 сезон. Мэйпл - суперБосс. Надо сабы, чат в конце финала просто взорвал мозг.
И как то откровенно слабо финальная серия, жаль, слили, почти слили анимешку...
kvaking ®
RG Аниме
Uploader 100+
 
Стаж: 9 лет 7 мес.
Сообщений: 2648
Ratio: 233,91
Раздал: 371,5 TB
Поблагодарили: 17665
100%
Откуда: Осака
roody.gif
+12 Щурё! :D :D :D

_________________

[Double-Raws] - Да начнётся война за качество!
Тестер нового формата.
Gepardus
Стаж: 9 лет 2 мес.
Сообщений: 386
Ratio: 3,126
100%
japan.gif
Такое впечатление, что в создание аниме активно лезут какие-то цензурирующие и направляющие структуры.
Очень мало хороших вещей.
Maxu6a

Online
Стаж: 6 мес. 18 дней
Сообщений: 182
Ratio: 3,729
Раздал: 804 GB
100%
Откуда: brest
belarus.gif
Ryxit писал(а): Перейти к сообщению
Будет 2 сезон. Мэйпл - суперБосс. Надо сабы, чат в конце финала просто взорвал мозг.
И как то откровенно слабо финальная серия, жаль, слили, почти слили анимешку...

Я уж думал действительно слили. Пошел по быстрому смотреть серию. Слива не увидел особо.
Ryxit
Стаж: 4 мес. 26 дней
Сообщений: 54
Ratio: 3,694
80%
Maxu6a
Я же пояснила - почти слили. Слишком ного фаталити и бруталити с кишками. Маг сделала 7 Мэйпл, правда это откровенный бред! Такого невозможно самой игрой сделать!!! Тока если это просто призраки! А тут.. короче бред, скомкано вышло, осадочек плохой остался...
Показать сообщения:   
Начать новую тему   Ответить на тему    Торрент-трекер NNM-Club -> Аниме с субтитрами -> Онгоинги Часовой пояс: GMT + 3
Страницы:   Пред.  1, 2, 3
Страница 3 из 3