Классический форум-трекер
canvas not supported
Нас вместе: 4 151 111

VA - Disco Fever CD3 (1998) [FLAC|Lossless|tracks + .cue]<Pop, Disco>


 
 
RSS
Начать новую тему   Ответить на тему    Торрент-трекер NNM-Club -> Pop -> Зарубежная поп-музыка (Lossless)
Автор Сообщение
eloychik ®
Стаж: 9 лет 4 мес.
Сообщений: 931
Ratio: 81.338
Поблагодарили: 42092
100%
ussr.gif
VA - Disco Fever CD3 (1998)
Год: 1998
Жанр: Pop, Disco
Издание: Sony 491763 3
Источник (релизер): eloychik ®
Продолжительность: 01:05:24

Кодек: FLAC
Битрейт: Lossless
Тип рипа: tracks + .cue

Трэклист:
01. Hot Chocolate - You Sexy Thing
02. Indeep - Last Night A D.J. Saved My Life
03. Musique - In The Bush
04. Evelyn Thomas - High Energy
05. Electric Light Orchestra - Don't Bring Me Down
06. The Flirts - Passion
07. Divine - Shoot Your Shot
08. Scotch - Disco Band
09. Kano - Another Life
10. M - Pop Muzik
11. Shannon - Let The Music Play
12. Timex Social Club - Rumors
13. Tony Esposito - Kalimba De Luna
14. Imagination - Just An Illusion
15. The Three Degrees - Dirty Ol'ma
Просмотр доступен только для зарегистрированных пользователей
Время раздачи: Пн-Пт с 17:00 до 20:00 и по возможности


Поглощение/вытеснение
Только с согласия релизера

fanDYNAMO
[NNMClub.to]_Various Artists - Disco Fever CD 3 [NNM-Club.to].torrent
 Торрент: Платиновая раздача  Зарегистрирован
 
Скачать


Примагнититься
 Зарегистрирован:   29 Дек 2020 07:46:59
 Размер:   426 MB  (
 Рейтинг:   4.8 (Голосов: 17)
 Поблагодарили:   77
 Проверка:   Оформление проверено модератором 29 Дек 2020 15:50:26
Как cкачать  ·  Как раздать  ·  Правильно оформить  ·  Поднять ратио!  
elgujakviso
Стаж: 10 лет 7 мес.
Сообщений: 1370
Ratio: 9.02
Поблагодарили: 48967
100%
pirates.png
Благодарю, не подскажете CD1 и CD2 появится или нет?
eloychik ®
Стаж: 9 лет 4 мес.
Сообщений: 931
Ratio: 81.338
Поблагодарили: 42092
100%
ussr.gif
elgujakviso писал(а): Перейти к сообщению
Благодарю, не подскажете CD1 и CD2 появится или нет?

Если найду, приобрету - значит появится.

С наступающим Всех !!!

_________________
Никому не отвечай - когда ты зол. Ничего не обещай - когда ты счастлив и не решай - когда ты грустен.А ещё, никому не звони - когда ты пьян
Dagel_tm
 
Стаж: 7 лет 3 мес.
Сообщений: 390
Ratio: 221.212
Раздал: 18.56 TB
Поблагодарили: 3855
100%
  1. убран лишний пробел после дефиса в имени папки
  2. переименованы .flac-файлы по шаблону: НОМЕР ТРЕКА. Исполнитель - Название
  3. убраны скобки с пробелами в имени cue-файла, обложек, плейлиста и лога
  4. переименованы имена файлов, забитые в .CUE: c .wav на .flac
  5. переименованы имена файлов, забитые в .CUE: по указанному выше шаблону
  6. переименованы имена файлов, забитые в плейлист: по указанному выше шаблону
  7. плейлист выше сохранен как Disco Fever CD 3.m3u
  8. удалён плейлист Various Artists - Disco Fever CD 3.m3u
  9. убраны из .CUE COMPOSER ""
  10. убраны пробелы после кавычек в .CUE в некоторых строках PERFORMER
  11. убраны из .CUE INDEX 00, которые не любит плеер Foobar2000
  12. переставлены по порядку строки FILE "....flac" WAVE: было перед INDEX 01, стало перед TRACK ## AUDIO
  13. перемещён вне папки с контентом файл Disco Fever ( CD 3 ).cue, изначальное его содержание сохранено
    Код: выделить все
    REM GENRE "Pop, Disco"
    REM DATE 1998
    REM DISCID C40F540F
    REM COMMENT "ExactAudioCopy v1.3"
    PERFORMER "Various Artists"
    TITLE "Disco Fever ( CD 3 )"
    REM COMPOSER ""
    FILE "01. You Sexy Thing - Hot Chocolate.wav" WAVE
      TRACK 01 AUDIO
        TITLE "You Sexy Thing"
        PERFORMER "Hot Chocolate"
        REM COMPOSER ""
        INDEX 01 00:00:00
      TRACK 02 AUDIO
        TITLE "Last Night A D.J. Saved My Life"
        PERFORMER "Indeep"
        REM COMPOSER ""
        INDEX 00 04:02:35
    FILE "02. Last Night A D.J. Saved My Life - Indeep.wav" WAVE
        INDEX 01 00:00:00
      TRACK 03 AUDIO
        TITLE "In The Bush"
        PERFORMER "Musique "
        REM COMPOSER ""
        INDEX 00 05:39:50
    FILE "03. In The Bush - Musique.wav" WAVE
        INDEX 01 00:00:00
      TRACK 04 AUDIO
        TITLE "High Energy"
        PERFORMER "Evelyn Thomas "
        REM COMPOSER ""
        INDEX 00 03:58:23
    FILE "04. High Energy - Evelyn Thomas.wav" WAVE
        INDEX 01 00:00:00
      TRACK 05 AUDIO
        TITLE "Don't Bring Me Down"
        PERFORMER "Electric Light Orchestra "
        REM COMPOSER ""
        INDEX 00 03:50:43
    FILE "05. Don't Bring Me Down - Electric Light Orchestra.wav" WAVE
        INDEX 01 00:00:00
      TRACK 06 AUDIO
        TITLE "Passion"
        PERFORMER "The Flirts"
        REM COMPOSER ""
        INDEX 00 04:02:00
    FILE "06. Passion - The Flirts.wav" WAVE
        INDEX 01 00:00:00
      TRACK 07 AUDIO
        TITLE "Shoot Your Shot"
        PERFORMER "Divine "
        REM COMPOSER ""
        INDEX 00 04:59:23
    FILE "07. Shoot Your Shot - Divine.wav" WAVE
        INDEX 01 00:00:00
      TRACK 08 AUDIO
        TITLE "Disco Band"
        PERFORMER "Scotch "
        REM COMPOSER ""
        INDEX 00 06:24:10
    FILE "08. Disco Band - Scotch.wav" WAVE
        INDEX 01 00:00:00
      TRACK 09 AUDIO
        TITLE "Another Life"
        PERFORMER "Kano"
        REM COMPOSER ""
        INDEX 00 03:55:27
    FILE "09. Another Life - Kano.wav" WAVE
        INDEX 01 00:00:00
      TRACK 10 AUDIO
        TITLE "Pop Muzik"
        PERFORMER "M"
        REM COMPOSER ""
        INDEX 00 03:51:37
    FILE "10. Pop Muzik - M.wav" WAVE
        INDEX 01 00:00:00
      TRACK 11 AUDIO
        TITLE "Let The Music Play"
        PERFORMER "Shannon"
        REM COMPOSER ""
        INDEX 00 03:17:38
    FILE "11. Let The Music Play - Shannon.wav" WAVE
        INDEX 01 00:00:00
      TRACK 12 AUDIO
        TITLE "Rumors"
        PERFORMER "Timex Social Club"
        REM COMPOSER ""
        INDEX 00 03:29:25
    FILE "12. Rumors - Timex Social Club.wav" WAVE
        INDEX 01 00:00:00
      TRACK 13 AUDIO
        TITLE "Kalimba De Luna"
        PERFORMER "Tony Esposito"
        REM COMPOSER ""
        INDEX 00 04:09:27
    FILE "13. Kalimba De Luna - Tony Esposito.wav" WAVE
        INDEX 01 00:00:00
      TRACK 14 AUDIO
        TITLE "Just An Illusion"
        PERFORMER "Imagination"
        REM COMPOSER ""
        INDEX 00 05:00:15
    FILE "14. Just An Illusion - Imagination.wav" WAVE
        INDEX 01 00:00:00
      TRACK 15 AUDIO
        TITLE "Dirty Ol'ma"
        PERFORMER "The Three Degrees "
        REM COMPOSER ""
        INDEX 00 03:55:25
    FILE "15. Dirty Ol'ma - The Three Degrees.wav" WAVE
        INDEX 01 00:00:00
    (мои Фубар его не читает, "Invalid index line 18...")
  14. Проставлены "метаданные" в плейлисте Disco Fever CD 3.m3u с помощью Winamp'а, трёхзначные числа не удалены (рандомные?)
  15. Сгенерена с помощью Winamp'а html-страничка с длиной каждого трека, предлагается вставить треклист оттуда в оформление по адресу VA - Disco Fever CD3 (1998) [FLAC|Lossless|tracks + .cue]<Pop, Disco>
  16. Создан новый постер из Scans\CD.jpg в CD.PNG 32бит 1280x1280 с помощью Paint.NET с целью размещения на другом трекере
  17. из CD.PNG сделан постер с помощью Paint.NET в 512x512 до 100кб весом для совместимости с NNM-Club
  18. Часть оформления предложена к правке,
    а именно:
    * постер
    Код: выделить все
    [poster=right]https://d.radikal.ru/d21/2101/9e/139817e9acf4.jpg[/poster]

    * треклист
    01. Hot Chocolate - You Sexy Thing (4:03)
    02. Indeep - Last Night A D.J. Saved My Life (5:41)
    03. Musique - In The Bush (3:59)
    04. Evelyn Thomas - High Energy (3:51)
    05. Electric Light Orchestra - Don't Bring Me Down (4:03)
    06. The Flirts - Passion (5:00)
    07. Divine - Shoot Your Shot (6:25)
    08. Scotch - Disco Band (3:56)
    09. Kano - Another Life (3:52)
    10. M - Pop Muzik (3:18)
    11. Shannon - Let The Music Play (3:30)
    12. Timex Social Club - Rumors (4:10)
    13. Tony Esposito - Kalimba De Luna (5:01)
    14. Imagination - Just An Illusion (3:56)
    15. The Three Degrees - Dirty Ol'ma (4:33)
  19. Результат AuCDTect 6 трека MPEG 95%
    Код: выделить все
    -----------------------

    DON'T MODIFY THIS FILE

    -----------------------

    PERFORMER: auCDtect Task Manager, ver. 1.6.0 RC1 build 1.6.0.1
    Copyright (c) 2008-2010 y-soft. All rights reserved
    http://y-soft.org

    ANALYZER: auCDtect: CD records authenticity detector, version 0.8.2
    Copyright (c) 2004 Oleg Berngardt. All rights reserved.
    Copyright (c) 2004 Alexander Djourik. All rights reserved.

    FILE: 01. Hot Chocolate - You Sexy Thing.flac
      Size: 25540632 Hash: 92D3C53845D4516F4440C6F5C82B3B8A Accuracy: -m0
      Conclusion: CDDA 100%
      Signature: 5B58A28AEE781B754F9E75A2767BC35EA303EB28
    FILE: 02. Indeep - Last Night A D.J. Saved My Life.flac
      Size: 37324811 Hash: B4FB53F2494DFDE09842AA5BC000C586 Accuracy: -m0
      Conclusion: CDDA 100%
      Signature: 6A0227B3276719790F0629012401345E29A1DF53
    FILE: 03. Musique - In The Bush.flac
      Size: 29035347 Hash: C2EBD05E0CD3398E4D4EB389A757BD5A Accuracy: -m0
      Conclusion: CDDA 100%
      Signature: 194CD71EE24A1ACCD293E2D1FE9633498D38B0F3
    FILE: 04. Evelyn Thomas - High Energy.flac
      Size: 27214445 Hash: 7DBC7C9F4814DB0C88636B72483BC4F8 Accuracy: -m0
      Conclusion: CDDA 100%
      Signature: 9F054DEE7296724D4C2FDE19A7B39FAE8070BFBF
    FILE: 05. Electric Light Orchestra - Don't Bring Me Down.flac
      Size: 32746817 Hash: 180218E951E97C16C9541489FE6A19C9 Accuracy: -m0
      Conclusion: CDDA 100%
      Signature: 6BAD9DCF93F500C7EDA4A3424E7A04FFC928FE65
    FILE: 06. The Flirts - Passion.flac
      Size: 35188083 Hash: 03BB5A5B4DD4DD9DF85476D20948A342 Accuracy: -m0
      Conclusion: MPEG 95%
      Signature: 3926862E288D25692C94C6DFF3C08CFBD22382FC
    FILE: 07. Divine - Shoot Your Shot.flac
      Size: 39865944 Hash: A937CCDCCE80A0E6A02546686CFA837A Accuracy: -m0
      Conclusion: CDDA 100%
      Signature: FCFA1E76BA0E2458796E31E346F76F090F80F1B8
    FILE: 08. Scotch - Disco Band.flac
      Size: 26548349 Hash: F665351F08144366695E15870EC5647F Accuracy: -m0
      Conclusion: CDDA 100%
      Signature: 8C4C7E79E9698D189022213159CBE78261D2A35D
    FILE: 09. Kano - Another Life.flac
      Size: 27213072 Hash: 9BCFEFB8ADFEB5F898CE4C2879816022 Accuracy: -m0
      Conclusion: CDDA 100%
      Signature: 9A1DC5AE5E3CAB27557FBDCE6596C7FE7000472A
    FILE: 10. M - Pop Muzik.flac
      Size: 23239648 Hash: 313E36F393EB6B71CA79E15AF7988A44 Accuracy: -m0
      Conclusion: CDDA 100%
      Signature: F72153E093E42E0F8DB6F6CFCC64A4B53F42581F
    FILE: 11. Shannon - Let The Music Play.flac
      Size: 25690356 Hash: E9FDA58D84D65666DD14EB103F3486D5 Accuracy: -m0
      Conclusion: CDDA 100%
      Signature: 2A6A5B5538FE8C0CCEE65EDB32B24AE959F66A69
    FILE: 12. Timex Social Club - Rumors.flac
      Size: 29943906 Hash: F3B0F5B841FB27D2DAD8D78C457638E1 Accuracy: -m0
      Conclusion: CDDA 100%
      Signature: 8BF8BE1F08B7902E1E1B10976EEAFE1F72201350
    FILE: 13. Tony Esposito - Kalimba De Luna.flac
      Size: 27155946 Hash: B8566D3F7F33D3FBDC9AE009F2827A15 Accuracy: -m0
      Conclusion: CDDA 100%
      Signature: AB4FA4D702967ED3F8F70A30DC776FF072E8F806
    FILE: 14. Imagination - Just An Illusion.flac
      Size: 25771428 Hash: 0834677643D429C637E4AB674FAF895D Accuracy: -m0
      Conclusion: CDDA 100%
      Signature: A82F7A44CE866419BC72ABD63514A5649C3D40E6
    FILE: 15. The Three Degrees - Dirty Ol'ma.flac
      Size: 28603349 Hash: D65F819E49FF84A060CF60499FAA0D50 Accuracy: -m0
      Conclusion: CDDA 100%
      Signature: E484A45AB1BFA956E3AA9EE34317AAA6D46E56F0
  20. папка с конентом перехеширована, новый torrent-файл предложен к замене (я уже на раздаче по DHT)

    Аудиоматериал не затронут.

_________________
Плохое закономерно, хорошее парадоксально.
Показать сообщения:   
Начать новую тему   Ответить на тему    Торрент-трекер NNM-Club -> Pop -> Зарубежная поп-музыка (Lossless) Часовой пояс: GMT + 3
Страница 1 из 1