Классический форум-трекер
canvas not supported
Нас вместе: 4 210 635

Сваты 2 (2009) SATRip


Страницы:  1, 2  След. 
 
RSS
Начать новую тему   Ответить на тему    Торрент-трекер NNM-Club -> Отечественное кино -> Отечественные Фильмы (HD*Rip/LQ, DVDRip, SATRip, VHSRip)
Автор Сообщение
vibes ®
Стаж: 13 лет 2 мес.
Сообщений: 10
Ratio: 3.27
Поблагодарили: 465
11.3%
ukraine.gif
Сваты 2 (2009) SATRip
Год выпуска: 2009
Производство: Украина, компания Inter Media Production
Жанр: Комедия

Описание фильма:
В молодой семье Ковалевых ожидается пополнение — Маша на последнем месяце беременности! И как у любой семейной пары в этот период, между молодыми супругами возникают неурядицы, и намечается легкий кризис в отношениях! Вот только их 5-летней дочурке Женечке возникшие трудности совсем не кажутся пустяковыми! И не по годам умная и самостоятельная девочка решает проблему по-своему — вызывает на помощь бабушек и дедушек.

Теща, тесть, свекровь и свекор оказываются под одной крышей с молодой семьей и незамедлительно принимаются за спасение брака! Но у каждой пары родителей свой подход к решению проблемы! В борьбе за мир в семье, как говорится, все средства хороши! И в результате «совместных» действий «маленький кризис» перерастает в «большой конфликт»!

Только какой бы сложной ни казалась ситуация — сваты все равно найдут из нее выход!

Режиссер: Андрей Яковлев, Алексей Мамедов
Актеры: Людмила Артемьева, Федор Добронравов, Татьяна Кравченко, Анатолий Васильев, Инна Королева, Даниил Белых, Ульяна Иващенко

Продолжительность: 01:55:01 (00:57:39 + 00:57:22)
Качество видео: SATRip



Видео: XviD, 1 320 Kbps, 704 x 384 pixels, 25.000 fps, Bits/(Pixel*Frame) : 0.195
Аудио: MP3, 128 Kbps, 2 channels, 48.0 KHz
Svaty.2.2009.SATRip.Suprug\Svaty.2.1.serija.iz.2.2009.XviD.SATRip.Suprug.avi
Format : AVI
Format/Info : Audio Video Interleave
File size : 600 MiB
Duration : 57mn 39s
Overall bit rate : 1 455 Kbps
Writing application : VirtualDubMod 1.5.4.1 (build 2178/release)
Writing library : VirtualDubMod build 2178/release

Video
ID : 0
Format : MPEG-4 Visual
Format profile : Simple@L3
Format settings, BVOP : 1
Format settings, QPel : No
Format settings, GMC : No warppoints
Format settings, Matrix : Custom
Codec ID : XVID
Codec ID/Hint : XviD
Duration : 57mn 39s
Bit rate : 1 320 Kbps
Width : 704 pixels
Height : 384 pixels
Display aspect ratio : 1.85:1
Frame rate : 25.000 fps
Color space : YUV
Chroma subsampling : 4:2:0
Bit depth : 8 bits
Scan type : Progressive
Compression mode : Lossy
Bits/(Pixel*Frame) : 0.195
Stream size : 544 MiB (91%)
Writing library : XviD 1.1.0 Beta2 (UTC 2005-04-04)

Audio
ID : 1
Format : MPEG Audio
Format version : Version 1
Format profile : Layer 3
Mode : Joint stereo
Mode extension : MS Stereo
Codec ID : 55
Codec ID/Hint : MP3
Duration : 57mn 39s
Bit rate mode : Constant
Bit rate : 128 Kbps
Channel(s) : 2 channels
Sampling rate : 48.0 KHz
Compression mode : Lossy
Stream size : 52.8 MiB (9%)
Alignment : Aligned on interleaves
Interleave, duration : 80 ms (2.00 video frames)
Interleave, preload duration : 504 ms
Writing library : LAME3.98r
Encoding settings : -m j -V 4 -q 2 -lowpass 17 -b 128

Svaty.2.2009.SATRip.Suprug\Svaty.2.2.serija.iz.2.2009.XviD.SATRip.Suprug.avi
Format : AVI
Format/Info : Audio Video Interleave
File size : 600 MiB
Duration : 57mn 22s
Overall bit rate : 1 462 Kbps
Writing application : VirtualDubMod 1.5.4.1 (build 2178/release)
Writing library : VirtualDubMod build 2178/release

Video
ID : 0
Format : MPEG-4 Visual
Format profile : Simple@L3
Format settings, BVOP : 1
Format settings, QPel : No
Format settings, GMC : No warppoints
Format settings, Matrix : Custom
Codec ID : XVID
Codec ID/Hint : XviD
Duration : 57mn 22s
Bit rate : 1 327 Kbps
Width : 704 pixels
Height : 384 pixels
Display aspect ratio : 1.85:1
Frame rate : 25.000 fps
Color space : YUV
Chroma subsampling : 4:2:0
Bit depth : 8 bits
Scan type : Progressive
Compression mode : Lossy
Bits/(Pixel*Frame) : 0.196
Stream size : 545 MiB (91%)
Writing library : XviD 1.1.0 Beta2 (UTC 2005-04-04)

Audio
ID : 1
Format : MPEG Audio
Format version : Version 1
Format profile : Layer 3
Mode : Joint stereo
Mode extension : MS Stereo
Codec ID : 55
Codec ID/Hint : MP3
Duration : 57mn 22s
Bit rate mode : Constant
Bit rate : 128 Kbps
Channel(s) : 2 channels
Sampling rate : 48.0 KHz
Compression mode : Lossy
Stream size : 52.5 MiB (9%)
Alignment : Aligned on interleaves
Interleave, duration : 80 ms (2.00 video frames)
Interleave, preload duration : 504 ms
Writing library : LAME3.98r
Encoding settings : -m j -V 4 -q 2 -lowpass 17 -b 128
Скриншоты:



Реставрация релиза: smaster67

Все релизы фильма на NNM-club
 Торрент: Платиновая раздача  Зарегистрирован
 
Скачать


 Зарегистрирован:   11 Ноя 2009 17:50:36
 Размер:   1.17 GB  (
 Рейтинг:   4.8 (Голосов: 106)
 Поблагодарили:   465
 Проверка:   Оформление проверено модератором 11 Ноя 2009 18:04:21
Как cкачать  ·  Как раздать  ·  Правильно оформить  ·  Поднять ратио!  

_________________
Есть гонщики, которые не желают прыгать выше собственной головы, обычно они очень стабильны. Это не мой стиль. © М. Шумахер
vibes ®
Стаж: 13 лет 2 мес.
Сообщений: 10
Ratio: 3.27
Поблагодарили: 465
11.3%
ukraine.gif
спешил сенкс: kucya_kucyunya, Suprug & BigFUN Group

_________________
Есть гонщики, которые не желают прыгать выше собственной головы, обычно они очень стабильны. Это не мой стиль. © М. Шумахер
tagir_love
Стаж: 13 лет 4 мес.
Сообщений: 5
Ratio: 1.242
100%
russia.gif
С огромным удовольствием смотрел первую часть. Надеюсь вторая не хуже.
Vit_pet
Стаж: 14 лет 10 мес.
Сообщений: 221
Ratio: 5.017
Поблагодарили: 6871
100%
Откуда: Утопия
ukraine.gif
Разве это не сериал ? :шок:
vibes ®
Стаж: 13 лет 2 мес.
Сообщений: 10
Ratio: 3.27
Поблагодарили: 465
11.3%
ukraine.gif
нет, сериал будет, но позже...

_________________
Есть гонщики, которые не желают прыгать выше собственной головы, обычно они очень стабильны. Это не мой стиль. © М. Шумахер
kodgesjan
Стаж: 13 лет
Сообщений: 5
Ratio: 1.37
13.78%
Откуда: Kharkov
ukraine.gif
Вторая хуже... Вчера по Интеру смотрел...
Маленькая девочка играет очень слабо по сравнению с той что была в первой части...
Но посмотреть стоит :)
Trance4LifeR
Стаж: 13 лет 1 мес.
Сообщений: 3
Ratio: 24.704
100%
Откуда: Poltava
ukraine.gif
Та какая разница как там девочка играет, главное что наржатся можно!))
Stragg
Стаж: 13 лет 1 мес.
Сообщений: 1
Ratio: 0.752
100%
да, фильм отпад! наши комедии класс, поржал от души, настрой поднялся
silaalex
Стаж: 13 лет 2 мес.
Сообщений: 22
Ratio: 3.907
100%
Откуда: Украина
ukraine.gif
Спасибо за раздачу!
nikoly1970
Стаж: 13 лет
Сообщений: 369
Ratio: 0.967
100%
ukraine.gif
Хо...........ший
dm81
Стаж: 15 лет
Сообщений: 83
Ratio: 4.892
Поблагодарили: 162
13.99%
ussr.gif
от..... подожди подожди ....личный!
Виктор Крамер
Стаж: 13 лет 7 мес.
Сообщений: 45
Ratio: 1.23
100%
Откуда: германия
germany.gif
Спасибо! Начали сразу с третей части смотреть, есть где посмеяться. Решил скачать все части с удовольствием посмотрим начало Раздающему Спасибо!!!!
w246
Стаж: 15 лет 1 мес.
Сообщений: 206
Ratio: 6.903
Поблагодарили: 13
2.91%
Качество картинки поганое. Да и зачем менять актеров. Первая была намного лучше.
rom21
Стаж: 12 лет 9 мес.
Сообщений: 24
Ratio: 2.221
100%
ukraine.gif
спасібо качаю!!!!""""""!!!!!!
vyrodok
 
Стаж: 12 лет 10 мес.
Сообщений: 143
Ratio: 6.966
Раздал: 2.031 TB
100%
nnm-club.gif
kodgesjan
не сей смуту,маленькая девочка другая в 3 части

Добавлено спустя 1 минуту 13 секунд:

w246нормал качество,не гони
Показать сообщения:   
Начать новую тему   Ответить на тему    Торрент-трекер NNM-Club -> Отечественное кино -> Отечественные Фильмы (HD*Rip/LQ, DVDRip, SATRip, VHSRip) Часовой пояс: GMT + 3
Страницы:  1, 2  След.
Страница 1 из 2