Классический форум-трекер
canvas not supported
Нас вместе: 4 206 345

Любовь для взрослых / Kærlighed for voksne / Loving Adults (2022) WEB-DLRip [AVO]


 
 
RSS
Начать новую тему   Ответить на тему    Торрент-трекер NNM-Club -> Горячие новинки -> Зарубежные Новинки (SD)
Автор Сообщение
vitolinform ®
Релизер кино Азии
Стаж: 15 лет 1 мес.
Сообщений: 2359
Ratio: 2188.987
Поблагодарили: 125486
46.06%
Откуда: Бангкок
thailand.gif
Любовь для взрослых / Kærlighed for voksne / Loving Adults (2022) WEB-DLRip
Производство: Дания, Netflix Studios, SF Studios, TV 2 Film
Жанр: триллер, драма, криминал

Режиссер: Барбара Топсеэ-Ротенборг
Продюсер: Марселла Линстад Дихман, Ларс Бьорн Хансен, Mette Marie Munch-Petersen
Актеры: Дар Салим, Karoline Hamm, Ларс Ранте, Соня Рихтер, Микаэль Бирккьяр, Мортен Буриан, Мило Кампанале, Сус Уилкинс, Mads Kruse, Беньямин Киттер

Описание:
Казалось бы, у Кристиана и Леоноры есть все. Они живут идеальной жизнью со своим сыном, который только что выздоровел после серьезной продолжительной болезни. Их будущее кажется светлым, но на вечеринке в компании Кристиана Леонора видит своего мужа с молодой женщиной, архитектором Ксенией. Леонора понимает, что Кристиан может бросить ее. Леонора принимает решение: она отказывается быть женщиной, которую можно превзойти, и будет избегать этого любыми необходимыми способами.


Дата мировой премьеры: 26 августа 2022
Дата российской премьеры: не определена

Релиз от: Rip by vitolinform

Продолжительность: 01:45:50
Качество видео: WEB-DLRip
Перевод: Авторский (Дмитрий Есарев)
Субтитры: Русские, английские, украинские

Видео: Xvid, 720x304, ~1199 Кbps
Аудио 1: AC3, 6 ch, 384 kbps | Русский (AVO, Дмитрий Есарев)
Аудио 2: AC3, 6 ch, 384 kbps | Датский
General
Complete name : D:\Lyubov.dlya.vzroslyh.2022.WEB-DLRip\Lyubov.dlya.vzroslyh.2022.WEB-DLRip.avi
Format : AVI
Format/Info : Audio Video Interleave
File size : 1.46 GiB
Duration : 1 h 45 min
Overall bit rate : 1 981 kb/s
Movie name : Любовь для взрослых / Любящие взрослые / K?rlighed for voksne / Loving Adults (2022) WEB-DLRip
Director : Барбара Топсеэ-Ротенборг / Barbara Topsoe-Rothenborg
Genre : триллер, драма, криминал
Writing application : VirtualDubMod 1.5.10.2 (build 2542/release)
Original source form/Name : Художественный фильм
Copyright : Дания, Netflix Studios, SF Studios, TV 2 Film
Comment : Rip by vitolinform

Video
ID : 0
Format : MPEG-4 Visual
Format profile : Advanced Simple@L5
Format settings : BVOP1 / Custom Matrix
Format settings, BVOP : 1
Format settings, QPel : No
Format settings, GMC : No warppoints
Format settings, Matrix : Custom
Codec ID : XVID
Codec ID/Hint : XviD
Duration : 1 h 45 min
Bit rate : 1 199 kb/s
Width : 720 pixels
Height : 304 pixels
Display aspect ratio : 2.35:1
Frame rate : 24.000 FPS
Color space : YUV
Chroma subsampling : 4:2:0
Bit depth : 8 bits
Scan type : Progressive
Compression mode : Lossy
Bits/(Pixel*Frame) : 0.228
Stream size : 908 MiB (61%)
Writing library : XviD 69

Audio #1
ID : 1
Format : AC-3
Format/Info : Audio Coding 3
Commercial name : Dolby Digital
Codec ID : 2000
Duration : 1 h 45 min
Bit rate mode : Constant
Bit rate : 384 kb/s
Channel(s) : 6 channels
Channel layout : L R C LFE Ls Rs
Sampling rate : 48.0 kHz
Frame rate : 31.250 FPS (1536 SPF)
Compression mode : Lossy
Stream size : 291 MiB (19%)
Alignment : Split across interleaves
Interleave, duration : 42 ms (1.00 video frame)
Interleave, preload duration : 500 ms
Title : Russian (VO, Дмитрий Есарев)
Service kind : Complete Main

Audio #2
ID : 2
Format : AC-3
Format/Info : Audio Coding 3
Commercial name : Dolby Digital
Codec ID : 2000
Duration : 1 h 45 min
Bit rate mode : Constant
Bit rate : 384 kb/s
Channel(s) : 6 channels
Channel layout : L R C LFE Ls Rs
Sampling rate : 48.0 kHz
Frame rate : 31.250 FPS (1536 SPF)
Compression mode : Lossy
Stream size : 291 MiB (19%)
Alignment : Split across interleaves
Interleave, duration : 42 ms (1.00 video frame)
Interleave, preload duration : 500 ms
Title : Danish
Service kind : Complete Main
Скриншоты:


Все одноименные релизы в Клубе

Время раздачи: как минимум до появления первых 3-5 скачавших
[NNMClub.to]_Lyubov.dlya.vzroslyh.2022.WEB-DLRip.torrent
 Торрент: Платиновая раздача  Зарегистрирован
 
Скачать


Примагнититься
 Зарегистрирован:   10 Сен 2022 12:29:31
 Размер:   1.46 GB  (
 Рейтинг:   4.2 (Голосов: 13)
 Поблагодарили:   108
 Проверка:   Оформление проверено модератором 10 Сен 2022 13:06:34
Как cкачать  ·  Как раздать  ·  Правильно оформить  ·  Поднять ратио!  
vitolinform ®
Релизер кино Азии
Стаж: 15 лет 1 мес.
Сообщений: 2359
Ratio: 2188.987
Поблагодарили: 125486
46.06%
Откуда: Бангкок
thailand.gif
Кому надо отдельно на Яндекс.Диск русская звуковая дорожка с озвучкой Синема УС (без рекламы, синхронизированная) АС3, 2 ch, 192 Кbps

_________________
Просьбы раздать пиште в ЛС
SKVSM
Покровитель талантов
Uploader 100+
Стаж: 11 лет 11 мес.
Сообщений: 1269
Ratio: 425.146
Поблагодарили: 23546
100%
nnm-club.gif
Все одноименные релизы в Клубе Не работает.
Eastoop
Куратор КПК и Мобилок
Стаж: 13 лет 5 мес.
Сообщений: 20608
Ratio: 291.704
Поблагодарили: 62292
100%
russia.gif
SKVSM
Все работает. Просто пока релиз только один с таким названием.
А ваша ссылка по всей видимости взята еще до исправления. Она, да, не работает. Из-за спецсимволов в названии.

_________________
JustSweN
Стаж: 15 лет 1 мес.
Сообщений: 235
Ratio: 13.689
100%
Гуглоперевод, что ли?
Цитата:
она отказывается быть женщиной, которую можно превзойти, и будет избегать этого любыми необходимыми способами

Она отказывается быть женщиной? Или женщиной, которую можно превзойти (и значит, хочет стать непревзойденной)? Чего именно она тогда будет "избегать любыми необходимыми способами"?
Horch
Стаж: 15 лет 8 мес.
Сообщений: 99
Ratio: 1.998
1.82%
ussr.gif
JustSweN писал(а): Перейти к сообщению
Гуглоперевод, что ли?
Цитата:
она отказывается быть женщиной, которую можно превзойти, и будет избегать этого любыми необходимыми способами

Она отказывается быть женщиной? Или женщиной, которую можно превзойти (и значит, хочет стать непревзойденной)? Чего именно она тогда будет "избегать любыми необходимыми способами"?


Гугл, как ни странно, эту фразу ("Leonora tager en beslutning: hun nægter at stå tilbage som hende, der blev forladt – uanset hvilke midler, hun skal tage i brug.") переводит нормально: "Леонора принимает решение: она отказывается оставаться брошенной - какими бы средствами ей ни пришлось воспользоваться."
Для сравнения Яндекс: "Леонора принимает решение: она отказывается быть брошенной, как та, кого бросили, – к каким бы средствам ей ни пришлось прибегнуть."
DeepL тоже коверкает: "Леонора принимает решение: она отказывается остаться в роли брошенной - неважно, какие средства ей придется использовать."
Показать сообщения:   
Начать новую тему   Ответить на тему    Торрент-трекер NNM-Club -> Горячие новинки -> Зарубежные Новинки (SD) Часовой пояс: GMT + 3
Страница 1 из 1